<?xml version="1.0" standalone="no"?>
<!DOCTYPE svg PUBLIC "-//W3C//DTD SVG 1.1//EN" "http://www.w3.org/Graphics/SVG/1.1/DTD/svg11.dtd" >
<svg xmlns="http://www.w3.org/2000/svg" xmlns:xlink="http://www.w3.org/1999/xlink" version="1.1">
<metadata>
Created by FontForge 20170731 at Mon Oct 15 16:23:56 2018
 By Aleksey,,,
Copyright (c) 2018 TPTQ Arabic. All rights reserved.
</metadata>
<defs>
<font id="MizanAR-Medium" horiz-adv-x="0" >
  <font-face 
    font-family="Mizan AR Medium"
    font-weight="500"
    font-stretch="normal"
    units-per-em="1000"
    panose-1="0 0 6 0 0 0 0 0 0 0"
    ascent="800"
    descent="-200"
    bbox="-168.98 -418 1588 886"
    underline-thickness="50"
    underline-position="-250"
    unicode-range="U+0020-FEFC"
  />
<missing-glyph horiz-adv-x="563" 
d="M461 724v-1125h-356v1125h356zM375 649h-186v-37h73v-42h-74v-37h187v37h-75v42h75v37zM300 504h-112v-117h187v38h-75v79zM262 465v-40h-37v40h37zM375 356h-187v-37h74v-42h-74v-37h112v79h75v37zM375 289h-37v-75h-150v-38h187v113zM375 151h-113v-63h38v26h38v-53
h-113v90h-37v-127h187v127zM375 -43h-187v-127h187v127zM338 -80v-53h-113v53h113zM375 -196h-187v-37h79l-79 -53v-37h187v37h-115l79 53h36v37z" />
    <glyph glyph-name="uniFC00" unicode="&#xfe8b;&#xfe9e;" horiz-adv-x="593" arabic-form="isolated" 
d="M291 635q16 30 37 48q-21 19 -21 51q0 31 19.5 55.5t49.5 24.5q28 0 42.5 -20t16.5 -41l-17 -10q-19 19 -42 19q-18 0 -29 -11t-11 -23q0 -23 44 -23q18 0 70 10l4 -9l-13 -45q-52 -6 -80 -14q-32 -7 -59 -25zM571 -218l12 -43q-40 -25 -131.5 -62t-130.5 -37
q-130 0 -211 69.5t-81 190.5q0 230 340 351q-22 2 -71 7.5t-80.5 8.5t-79 5.5t-91.5 2.5l-8 15q17 67 47 75q97 26 158 94q10 13 29 37t29 36t25 26.5t29 20.5t30 6q30 0 48 -26t18 -58q0 -59 -27 -104l-20 1q-8 70 -47 70q-18 0 -35.5 -13t-43.5 -45q-43 -48 -50 -55
q12 -1 64 -7.5t80.5 -9t80.5 -5t100 -0.5l8 -18l-35 -99l-2 1l1 -1q-36 -8 -82 -22t-111.5 -41t-117.5 -58.5t-89.5 -77.5t-37.5 -94q0 -67 64.5 -115.5t196.5 -48.5q57 0 112.5 5.5t82.5 11.5zM256 -37q27 36 58 62q27 -31 60 -61q-10 -16 -25 -31.5t-25 -22.5l-10 -8
q-16 12 -30.5 27t-21.5 25z" />
    <glyph glyph-name="uniFC01" unicode="&#xfe8b;&#xfea2;" horiz-adv-x="593" arabic-form="isolated" 
d="M291 635q16 30 37 48q-21 19 -21 51q0 31 19.5 55.5t49.5 24.5q28 0 42.5 -20t16.5 -41l-17 -10q-19 19 -42 19q-18 0 -29 -11t-11 -23q0 -23 44 -23q18 0 70 10l4 -9l-13 -45q-52 -6 -80 -14q-32 -7 -59 -25zM571 -218l12 -43q-40 -25 -131.5 -62t-130.5 -37
q-130 0 -211 69.5t-81 190.5q0 230 340 351q-22 2 -71 7.5t-80.5 8.5t-79 5.5t-91.5 2.5l-8 15q17 67 47 75q97 26 158 94q10 13 29 37t29 36t25 26.5t29 20.5t30 6q30 0 48 -26t18 -58q0 -59 -27 -104l-20 1q-8 70 -47 70q-18 0 -35.5 -13t-43.5 -45q-43 -48 -50 -55
q12 -1 64 -7.5t80.5 -9t80.5 -5t100 -0.5l8 -18l-35 -99l-2 1l1 -1q-36 -8 -82 -22t-111.5 -41t-117.5 -58.5t-89.5 -77.5t-37.5 -94q0 -67 64.5 -115.5t196.5 -48.5q57 0 112.5 5.5t82.5 11.5z" />
    <glyph glyph-name="uniFC02" unicode="&#xfe8b;&#xfee2;" horiz-adv-x="382" arabic-form="isolated" 
d="M177 410q16 30 37 48q-21 19 -21 51q0 31 19.5 55.5t49.5 24.5q28 0 42.5 -20t16.5 -41l-17 -10q-19 19 -42 19q-18 0 -29 -11t-11 -23q0 -23 44 -23q18 0 70 10l4 -9l-13 -45q-52 -6 -80 -14q-32 -7 -59 -25zM345 107l3 -13l-31 -87l-12 -1q-70 17 -127 17
q-37 0 -61 -11t-24 -27q0 -11 21 -108t21 -117q0 -24 -7.5 -61t-15.5 -62l-8 -25h-27q0 58 -26 187.5t-26 146.5q0 46 25 88.5t59 66.5q14 10 34 16q-15 30 -15 70q0 64 50 117.5t101 53.5q32 0 49.5 -19.5t17.5 -48.5q0 -47 -28 -82h-14q-13 40 -50 40q-29 0 -52.5 -19.5
t-23.5 -31.5q0 -11 28.5 -26.5t75.5 -35.5t63 -28z" />
    <glyph glyph-name="uniFC03" unicode="&#xfe8b;&#xfef0;" horiz-adv-x="604" arabic-form="isolated" 
d="M371 457q16 30 37 48q-21 19 -21 51q0 31 19.5 55.5t49.5 24.5q28 0 42.5 -20t16.5 -41l-17 -10q-19 19 -42 19q-18 0 -29 -11t-11 -23q0 -23 44 -23q18 0 70 10l4 -9l-13 -45q-52 -6 -80 -14q-32 -7 -59 -25zM496 126q72 -27 72 -95q0 -64 -27 -115q-28 -54 -98 -93.5
t-162 -39.5q-72 0 -124.5 22t-79 59t-38.5 76t-12 83q0 107 50 195l39 -17q-24 -60 -24 -126q0 -175 205 -175q89 0 155 36.5t66 65.5q0 9 -13 18t-44 16t-74 7h-46l-6 14l39 89l12 8q36 0 60 7.5t24 19.5q0 19 -26.5 79t-26.5 64q0 37 48 80h16q45 -90 45 -163
q0 -65 -30 -115z" />
    <glyph glyph-name="uniFC04" unicode="&#xfe8b;&#xfef2;" horiz-adv-x="604" arabic-form="isolated" 
d="M371 457q16 30 37 48q-21 19 -21 51q0 31 19.5 55.5t49.5 24.5q28 0 42.5 -20t16.5 -41l-17 -10q-19 19 -42 19q-18 0 -29 -11t-11 -23q0 -23 44 -23q18 0 70 10l4 -9l-13 -45q-52 -6 -80 -14q-32 -7 -59 -25zM496 126q72 -27 72 -95q0 -64 -27 -115q-28 -54 -98 -93.5
t-162 -39.5q-72 0 -124.5 22t-79 59t-38.5 76t-12 83q0 107 50 195l39 -17q-24 -60 -24 -126q0 -175 205 -175q89 0 155 36.5t66 65.5q0 9 -13 18t-44 16t-74 7h-46l-6 14l39 89l12 8q36 0 60 7.5t24 19.5q0 19 -26.5 79t-26.5 64q0 37 48 80h16q45 -90 45 -163
q0 -65 -30 -115zM344 -264q23 -26 54 -55q-9 -14 -22.5 -27.5t-22.5 -19.5l-9 -7q-21 15 -47 43q-9 -11 -20.5 -22t-18.5 -16l-7 -5q-14 10 -27.5 23.5t-19.5 21.5l-6 8q26 33 53 56q20 -22 46 -47q29 32 47 47z" />
    <glyph glyph-name="uniFC05" unicode="&#xfe91;&#xfe9e;" horiz-adv-x="593" arabic-form="isolated" 
d="M571 -218l12 -43q-40 -25 -131.5 -62t-130.5 -37q-130 0 -211 69.5t-81 190.5q0 230 340 351q-22 2 -71 7.5t-80.5 8.5t-79 5.5t-91.5 2.5l-8 15q17 67 47 75q97 26 158 94q10 13 29 37t29 36t25 26.5t29 20.5t30 6q30 0 48 -26t18 -58q0 -59 -27 -104l-20 1
q-8 70 -47 70q-18 0 -35.5 -13t-43.5 -45q-43 -48 -50 -55q12 -1 64 -7.5t80.5 -9t80.5 -5t100 -0.5l8 -18l-35 -99l-2 1l1 -1q-36 -8 -82 -22t-111.5 -41t-117.5 -58.5t-89.5 -77.5t-37.5 -94q0 -67 64.5 -115.5t196.5 -48.5q57 0 112.5 5.5t82.5 11.5zM477 156
q27 -31 60 -61q-10 -16 -25 -31.5t-25 -23.5l-10 -7q-16 12 -30.5 27t-20.5 24l-7 10q27 36 58 62zM256 -37q27 36 58 62q27 -31 60 -61q-10 -16 -25 -31.5t-25 -22.5l-10 -8q-16 12 -30.5 27t-21.5 25z" />
    <glyph glyph-name="uniFC06" unicode="&#xfe91;&#xfea2;" horiz-adv-x="593" arabic-form="isolated" 
d="M571 -218l12 -43q-40 -25 -131.5 -62t-130.5 -37q-130 0 -211 69.5t-81 190.5q0 230 340 351q-22 2 -71 7.5t-80.5 8.5t-79 5.5t-91.5 2.5l-8 15q17 67 47 75q97 26 158 94q10 13 29 37t29 36t25 26.5t29 20.5t30 6q30 0 48 -26t18 -58q0 -59 -27 -104l-20 1
q-8 70 -47 70q-18 0 -35.5 -13t-43.5 -45q-43 -48 -50 -55q12 -1 64 -7.5t80.5 -9t80.5 -5t100 -0.5l8 -18l-35 -99l-2 1l1 -1q-36 -8 -82 -22t-111.5 -41t-117.5 -58.5t-89.5 -77.5t-37.5 -94q0 -67 64.5 -115.5t196.5 -48.5q57 0 112.5 5.5t82.5 11.5zM477 156
q27 -31 60 -61q-10 -16 -25 -31.5t-25 -23.5l-10 -7q-16 12 -30.5 27t-20.5 24l-7 10q27 36 58 62z" />
    <glyph glyph-name="uniFC07" unicode="&#xfe91;&#xfea6;" horiz-adv-x="593" arabic-form="isolated" 
d="M571 -218l12 -43q-40 -25 -131.5 -62t-130.5 -37q-130 0 -211 69.5t-81 190.5q0 230 340 351q-22 2 -71 7.5t-80.5 8.5t-79 5.5t-91.5 2.5l-8 15q17 67 47 75q97 26 158 94q10 13 29 37t29 36t25 26.5t29 20.5t30 6q30 0 48 -26t18 -58q0 -59 -27 -104l-20 1
q-8 70 -47 70q-18 0 -35.5 -13t-43.5 -45q-43 -48 -50 -55q12 -1 64 -7.5t80.5 -9t80.5 -5t100 -0.5l8 -18l-35 -99l-2 1l1 -1q-36 -8 -82 -22t-111.5 -41t-117.5 -58.5t-89.5 -77.5t-37.5 -94q0 -67 64.5 -115.5t196.5 -48.5q57 0 112.5 5.5t82.5 11.5zM138 456
q-16 12 -30.5 27t-21.5 25l-6 9q27 36 58 62q27 -31 60 -61q-10 -16 -25 -31.5t-25 -22.5zM477 156q27 -31 60 -61q-10 -16 -25 -31.5t-25 -23.5l-10 -7q-16 12 -30.5 27t-20.5 24l-7 10q27 36 58 62z" />
    <glyph glyph-name="uniFC08" unicode="&#xfe91;&#xfee2;" horiz-adv-x="382" arabic-form="isolated" 
d="M345 107l3 -13l-31 -87l-12 -1q-70 17 -127 17q-37 0 -61 -11t-24 -27q0 -11 21 -108t21 -117q0 -24 -7.5 -61t-15.5 -62l-8 -25h-27q0 58 -26 187.5t-26 146.5q0 46 25 88.5t59 66.5q14 10 34 16q-15 30 -15 70q0 64 50 117.5t101 53.5q32 0 49.5 -19.5t17.5 -48.5
q0 -47 -28 -82h-14q-13 40 -50 40q-29 0 -52.5 -19.5t-23.5 -31.5q0 -11 28.5 -26.5t75.5 -35.5t63 -28zM255 -47q27 -31 60 -61q-10 -16 -25 -31.5t-25 -22.5l-10 -8q-16 12 -30.5 27t-20.5 25l-7 9q27 36 58 62z" />
    <glyph glyph-name="uniFC09" unicode="&#xfe91;&#xfef0;" horiz-adv-x="604" arabic-form="isolated" 
d="M541 -84q-28 -54 -98 -93.5t-162 -39.5q-72 0 -124.5 22t-79 59t-38.5 76t-12 83q0 107 50 195l39 -17q-24 -60 -24 -126q0 -175 205 -175q89 0 155 36.5t66 65.5q0 9 -13 18t-44 16t-74 7h-46l-6 14l39 89l12 8q36 0 60 7.5t24 19.5q0 19 -26.5 79t-26.5 64q0 37 48 80
h16q45 -90 45 -163q0 -65 -30 -115q72 -27 72 -95q0 -64 -27 -115zM485 -195q27 -31 60 -61q-10 -16 -25 -31.5t-25 -22.5l-10 -8q-16 12 -30.5 27t-20.5 25l-7 9q27 36 58 62z" />
    <glyph glyph-name="uniFC0A" unicode="&#xfe91;&#xfef2;" horiz-adv-x="604" arabic-form="isolated" 
d="M541 -84q-28 -54 -98 -93.5t-162 -39.5q-72 0 -124.5 22t-79 59t-38.5 76t-12 83q0 107 50 195l39 -17q-24 -60 -24 -126q0 -175 205 -175q89 0 155 36.5t66 65.5q0 9 -13 18t-44 16t-74 7h-46l-6 14l39 89l12 8q36 0 60 7.5t24 19.5q0 19 -26.5 79t-26.5 64q0 37 48 80
h16q45 -90 45 -163q0 -65 -30 -115q72 -27 72 -95q0 -64 -27 -115zM485 -195q27 -31 60 -61q-10 -16 -25 -31.5t-25 -22.5l-10 -8q-16 12 -30.5 27t-20.5 25l-7 9q27 36 58 62zM344 -264q23 -26 54 -55q-9 -14 -22.5 -27.5t-22.5 -19.5l-9 -7q-21 15 -47 43
q-9 -11 -20.5 -22t-18.5 -16l-7 -5q-14 10 -27.5 23.5t-19.5 21.5l-6 8q26 33 53 56q20 -22 46 -47q29 32 47 47z" />
    <glyph glyph-name="uniFC0B" unicode="&#xfe97;&#xfe9e;" horiz-adv-x="593" arabic-form="isolated" 
d="M326 646q-15 11 -28.5 24.5t-19.5 21.5l-6 8q26 34 54 57q20 -22 47 -48q32 35 48 48q23 -26 54 -56q-9 -14 -22.5 -27.5t-22.5 -20.5l-9 -7q-26 17 -48 44q-9 -11 -20.5 -22t-18.5 -16zM571 -218l12 -43q-40 -25 -131.5 -62t-130.5 -37q-130 0 -211 69.5t-81 190.5
q0 230 340 351q-22 2 -71 7.5t-80.5 8.5t-79 5.5t-91.5 2.5l-8 15q17 67 47 75q97 26 158 94q10 13 29 37t29 36t25 26.5t29 20.5t30 6q30 0 48 -26t18 -58q0 -59 -27 -104l-20 1q-8 70 -47 70q-18 0 -35.5 -13t-43.5 -45q-43 -48 -50 -55q12 -1 64 -7.5t80.5 -9t80.5 -5
t100 -0.5l8 -18l-35 -99l-2 1l1 -1q-36 -8 -82 -22t-111.5 -41t-117.5 -58.5t-89.5 -77.5t-37.5 -94q0 -67 64.5 -115.5t196.5 -48.5q57 0 112.5 5.5t82.5 11.5zM256 -37q27 36 58 62q27 -31 60 -61q-10 -16 -25 -31.5t-25 -22.5l-10 -8q-16 12 -30.5 27t-21.5 25z" />
    <glyph glyph-name="uniFC0C" unicode="&#xfe97;&#xfea2;" horiz-adv-x="593" arabic-form="isolated" 
d="M326 646q-15 11 -28.5 24.5t-19.5 21.5l-6 8q26 34 54 57q20 -22 47 -48q32 35 48 48q23 -26 54 -56q-9 -14 -22.5 -27.5t-22.5 -20.5l-9 -7q-26 17 -48 44q-9 -11 -20.5 -22t-18.5 -16zM571 -218l12 -43q-40 -25 -131.5 -62t-130.5 -37q-130 0 -211 69.5t-81 190.5
q0 230 340 351q-22 2 -71 7.5t-80.5 8.5t-79 5.5t-91.5 2.5l-8 15q17 67 47 75q97 26 158 94q10 13 29 37t29 36t25 26.5t29 20.5t30 6q30 0 48 -26t18 -58q0 -59 -27 -104l-20 1q-8 70 -47 70q-18 0 -35.5 -13t-43.5 -45q-43 -48 -50 -55q12 -1 64 -7.5t80.5 -9t80.5 -5
t100 -0.5l8 -18l-35 -99l-2 1l1 -1q-36 -8 -82 -22t-111.5 -41t-117.5 -58.5t-89.5 -77.5t-37.5 -94q0 -67 64.5 -115.5t196.5 -48.5q57 0 112.5 5.5t82.5 11.5z" />
    <glyph glyph-name="uniFC0D" unicode="&#xfe97;&#xfea6;" horiz-adv-x="593" arabic-form="isolated" 
d="M326 646q-15 11 -28.5 24.5t-19.5 21.5l-6 8q26 34 54 57q20 -22 47 -48q32 35 48 48q23 -26 54 -56q-9 -14 -22.5 -27.5t-22.5 -20.5l-9 -7q-26 17 -48 44q-9 -11 -20.5 -22t-18.5 -16zM571 -218l12 -43q-40 -25 -131.5 -62t-130.5 -37q-130 0 -211 69.5t-81 190.5
q0 230 340 351q-22 2 -71 7.5t-80.5 8.5t-79 5.5t-91.5 2.5l-8 15q17 67 47 75q97 26 158 94q10 13 29 37t29 36t25 26.5t29 20.5t30 6q30 0 48 -26t18 -58q0 -59 -27 -104l-20 1q-8 70 -47 70q-18 0 -35.5 -13t-43.5 -45q-43 -48 -50 -55q12 -1 64 -7.5t80.5 -9t80.5 -5
t100 -0.5l8 -18l-35 -99l-2 1l1 -1q-36 -8 -82 -22t-111.5 -41t-117.5 -58.5t-89.5 -77.5t-37.5 -94q0 -67 64.5 -115.5t196.5 -48.5q57 0 112.5 5.5t82.5 11.5zM138 456q-16 12 -30.5 27t-21.5 25l-6 9q27 36 58 62q27 -31 60 -61q-10 -16 -25 -31.5t-25 -22.5z" />
    <glyph glyph-name="uniFC0E" unicode="&#xfe97;&#xfee2;" horiz-adv-x="382" arabic-form="isolated" 
d="M212 421q-15 11 -28.5 24.5t-19.5 21.5l-6 8q26 34 54 57q20 -22 47 -48q32 35 48 48q23 -26 54 -56q-9 -14 -22.5 -27.5t-22.5 -20.5l-9 -7q-26 17 -48 44q-9 -11 -20.5 -22t-18.5 -17zM178 197q0 -11 28.5 -26.5t75.5 -35.5t63 -28l3 -13l-31 -87l-12 -1
q-70 17 -127 17q-37 0 -61 -11t-24 -27q0 -11 21 -108t21 -117q0 -24 -7.5 -61t-15.5 -62l-8 -25h-27q0 58 -26 187.5t-26 146.5q0 46 25 88.5t59 66.5q14 10 34 16q-15 30 -15 70q0 64 50 117.5t101 53.5q32 0 49.5 -19.5t17.5 -48.5q0 -47 -28 -82h-14q-13 40 -50 40
q-29 0 -52.5 -19.5t-23.5 -31.5z" />
    <glyph glyph-name="uniFC0F" unicode="&#xfe97;&#xfef0;" horiz-adv-x="604" arabic-form="isolated" 
d="M406 468q-15 11 -28.5 24.5t-19.5 21.5l-6 8q26 34 54 57q20 -22 47 -48q32 35 48 48q23 -26 54 -56q-9 -14 -22.5 -27.5t-22.5 -20.5l-9 -7q-26 17 -48 44q-9 -11 -20.5 -22t-18.5 -16zM496 126q72 -27 72 -95q0 -64 -27 -115q-28 -54 -98 -93.5t-162 -39.5
q-72 0 -124.5 22t-79 59t-38.5 76t-12 83q0 107 50 195l39 -17q-24 -60 -24 -126q0 -175 205 -175q89 0 155 36.5t66 65.5q0 9 -13 18t-44 16t-74 7h-46l-6 14l39 89l12 8q36 0 60 7.5t24 19.5q0 19 -26.5 79t-26.5 64q0 37 48 80h16q45 -90 45 -163q0 -65 -30 -115z" />
    <glyph glyph-name="uniFC10" unicode="&#xfe97;&#xfef2;" horiz-adv-x="604" arabic-form="isolated" 
d="M406 468q-15 11 -28.5 24.5t-19.5 21.5l-6 8q26 34 54 57q20 -22 47 -48q32 35 48 48q23 -26 54 -56q-9 -14 -22.5 -27.5t-22.5 -20.5l-9 -7q-26 17 -48 44q-9 -11 -20.5 -22t-18.5 -16zM496 126q72 -27 72 -95q0 -64 -27 -115q-28 -54 -98 -93.5t-162 -39.5
q-72 0 -124.5 22t-79 59t-38.5 76t-12 83q0 107 50 195l39 -17q-24 -60 -24 -126q0 -175 205 -175q89 0 155 36.5t66 65.5q0 9 -13 18t-44 16t-74 7h-46l-6 14l39 89l12 8q36 0 60 7.5t24 19.5q0 19 -26.5 79t-26.5 64q0 37 48 80h16q45 -90 45 -163q0 -65 -30 -115z
M344 -264q23 -26 54 -55q-9 -14 -22.5 -27.5t-22.5 -19.5l-9 -7q-21 15 -47 43q-9 -11 -20.5 -22t-18.5 -16l-7 -5q-14 10 -27.5 23.5t-19.5 21.5l-6 8q26 33 53 56q20 -22 46 -47q29 32 47 47z" />
    <glyph glyph-name="uniFC11" unicode="&#xfe9b;&#xfe9e;" horiz-adv-x="593" arabic-form="isolated" 
d="M373 750q-13 10 -25 22.5t-18 20.5l-6 8q24 29 49 50q22 -24 50 -49q-9 -13 -21.5 -26t-20.5 -20zM327 647q-14 10 -27 23t-19 21l-6 8q24 32 52 56q19 -23 46 -48q29 32 47 48q24 -28 52 -55q-9 -13 -22 -26.5t-22 -19.5l-8 -7q-27 17 -46 43q-9 -11 -20.5 -22
t-19.5 -16zM571 -218l12 -43q-40 -25 -131.5 -62t-130.5 -37q-130 0 -211 69.5t-81 190.5q0 230 340 351q-22 2 -71 7.5t-80.5 8.5t-79 5.5t-91.5 2.5l-8 15q17 67 47 75q97 26 158 94q10 13 29 37t29 36t25 26.5t29 20.5t30 6q30 0 48 -26t18 -58q0 -59 -27 -104l-20 1
q-8 70 -47 70q-18 0 -35.5 -13t-43.5 -45q-43 -48 -50 -55q12 -1 64 -7.5t80.5 -9t80.5 -5t100 -0.5l8 -18l-35 -99l-2 1l1 -1q-36 -8 -82 -22t-111.5 -41t-117.5 -58.5t-89.5 -77.5t-37.5 -94q0 -67 64.5 -115.5t196.5 -48.5q57 0 112.5 5.5t82.5 11.5zM256 -37
q27 36 58 62q27 -31 60 -61q-10 -16 -25 -31.5t-25 -22.5l-10 -8q-16 12 -30.5 27t-21.5 25z" />
    <glyph glyph-name="uniFC12" unicode="&#xfe9b;&#xfee2;" horiz-adv-x="382" arabic-form="isolated" 
d="M259 525q-13 10 -25 22.5t-18 20.5l-6 8q24 29 49 50q22 -24 50 -49q-9 -13 -21.5 -26t-20.5 -19zM213 422q-14 10 -27 23t-19 21l-6 8q24 32 52 56q19 -23 46 -48q29 32 47 48q24 -28 52 -55q-9 -13 -22 -26.5t-22 -20.5l-8 -6q-27 17 -46 43q-9 -11 -20.5 -22
t-19.5 -16zM178 197q0 -11 28.5 -26.5t75.5 -35.5t63 -28l3 -13l-31 -87l-12 -1q-70 17 -127 17q-37 0 -61 -11t-24 -27q0 -11 21 -108t21 -117q0 -24 -7.5 -61t-15.5 -62l-8 -25h-27q0 58 -26 187.5t-26 146.5q0 46 25 88.5t59 66.5q14 10 34 16q-15 30 -15 70
q0 64 50 117.5t101 53.5q32 0 49.5 -19.5t17.5 -48.5q0 -47 -28 -82h-14q-13 40 -50 40q-29 0 -52.5 -19.5t-23.5 -31.5z" />
    <glyph glyph-name="uniFC13" unicode="&#xfe9b;&#xfef0;" horiz-adv-x="604" arabic-form="isolated" 
d="M453 572q-13 10 -25 22.5t-18 20.5l-6 8q24 29 49 50q22 -24 50 -49q-9 -13 -21.5 -26t-20.5 -20zM407 469q-14 10 -27 23t-19 21l-6 8q24 32 52 56q19 -23 46 -48q29 32 47 48q24 -28 52 -55q-9 -13 -22 -26.5t-22 -19.5l-8 -7q-27 17 -46 43q-9 -11 -20.5 -22
t-19.5 -16zM496 126q72 -27 72 -95q0 -64 -27 -115q-28 -54 -98 -93.5t-162 -39.5q-72 0 -124.5 22t-79 59t-38.5 76t-12 83q0 107 50 195l39 -17q-24 -60 -24 -126q0 -175 205 -175q89 0 155 36.5t66 65.5q0 9 -13 18t-44 16t-74 7h-46l-6 14l39 89l12 8q36 0 60 7.5
t24 19.5q0 19 -26.5 79t-26.5 64q0 37 48 80h16q45 -90 45 -163q0 -65 -30 -115z" />
    <glyph glyph-name="uniFC14" unicode="&#xfe9b;&#xfef2;" horiz-adv-x="604" arabic-form="isolated" 
d="M453 572q-13 10 -25 22.5t-18 20.5l-6 8q24 29 49 50q22 -24 50 -49q-9 -13 -21.5 -26t-20.5 -20zM407 469q-14 10 -27 23t-19 21l-6 8q24 32 52 56q19 -23 46 -48q29 32 47 48q24 -28 52 -55q-9 -13 -22 -26.5t-22 -19.5l-8 -7q-27 17 -46 43q-9 -11 -20.5 -22
t-19.5 -16zM496 126q72 -27 72 -95q0 -64 -27 -115q-28 -54 -98 -93.5t-162 -39.5q-72 0 -124.5 22t-79 59t-38.5 76t-12 83q0 107 50 195l39 -17q-24 -60 -24 -126q0 -175 205 -175q89 0 155 36.5t66 65.5q0 9 -13 18t-44 16t-74 7h-46l-6 14l39 89l12 8q36 0 60 7.5
t24 19.5q0 19 -26.5 79t-26.5 64q0 37 48 80h16q45 -90 45 -163q0 -65 -30 -115zM344 -264q23 -26 54 -55q-9 -14 -22.5 -27.5t-22.5 -19.5l-9 -7q-21 15 -47 43q-9 -11 -20.5 -22t-18.5 -16l-7 -5q-14 10 -27.5 23.5t-19.5 21.5l-6 8q26 33 53 56q20 -22 46 -47
q29 32 47 47z" />
    <glyph glyph-name="uniFC1F" unicode="&#xfeb3;&#xfee2;" horiz-adv-x="896" arabic-form="isolated" 
d="M824 383q5 -7 12.5 -23t15.5 -47t8 -59q0 -55 -31 -103t-66 -48q-31 0 -73 18.5t-56 38.5q-28 -57 -94 -57q-12 0 -22.5 2t-18 4t-17.5 8.5t-14 8.5t-13.5 11.5l-11.5 11.5t-12 13.5t-11 12.5q-21 23 -31 33t-32.5 21t-47.5 11q-51 0 -90 -24t-39 -49q0 -9 28.5 -21.5
t74.5 -28.5t62 -23l3 -14l-31 -86l-12 -2q-66 18 -127 18q-36 0 -59.5 -10t-23.5 -25q0 -11 20 -103.5t20 -111.5q0 -24 -7.5 -61t-15.5 -62l-8 -25h-27q0 54 -26 176.5t-26 139.5q0 48 25 91.5t59 67.5q14 10 34 16q-15 30 -15 68q0 70 65.5 124.5t136.5 54.5q30 0 55 -12
t36.5 -23t30.5 -33q3 -3 11 -13t11.5 -14t11.5 -12t13.5 -11.5t13.5 -8t17.5 -6t19.5 -1.5q46 0 58 23q13 26 40 98l43 -14q-9 -47 -9 -67q0 -15 41 -31.5t61 -16.5q16 0 16 10t-16 44t-16 40q0 15 14.5 41.5t28.5 39.5h13z" />
    <glyph glyph-name="uniFC21" unicode="&#xfebb;&#xfee2;" horiz-adv-x="995" arabic-form="isolated" 
d="M789 463q65 0 117.5 -52.5t52.5 -112.5q0 -42 -17 -81t-51 -62q-86 -58 -250 -58q-90 0 -136.5 18.5t-85.5 59.5q-4 4 -12.5 13t-13 13.5t-12.5 12t-14.5 11t-15 8t-18 6t-20.5 1.5q-53 0 -93 -24t-40 -49q0 -9 28.5 -21.5t74.5 -28.5t62 -23l3 -14l-31 -86l-12 -2
q-66 18 -127 18q-36 0 -59.5 -10t-23.5 -25q0 -11 20 -103.5t20 -111.5q0 -24 -7.5 -61t-15.5 -62l-8 -25h-27q0 54 -26 176.5t-26 139.5q0 48 25 91.5t59 67.5q14 10 34 16q-15 30 -15 68q0 70 65.5 124.5t136.5 54.5q16 0 31.5 -4t25 -8t22.5 -15t18 -16t18.5 -20.5
t16.5 -18.5q20 -21 37 -32q64 93 141 160t149 67zM659 209q71 0 130 10.5t86 23t27 21.5q0 6 -9 19.5t-25.5 29t-44.5 27t-60 11.5q-57 0 -110 -36.5t-110 -96.5q40 -9 116 -9z" />
    <glyph glyph-name="uniFC25" unicode="&#xfebf;&#xfee2;" horiz-adv-x="995" arabic-form="isolated" 
d="M762 522q-16 12 -30.5 27t-21.5 25l-6 9q27 36 58 62q27 -31 60 -61q-10 -16 -25 -31.5t-25 -22.5zM789 463q65 0 117.5 -52.5t52.5 -112.5q0 -42 -17 -81t-51 -62q-86 -58 -250 -58q-90 0 -136.5 18.5t-85.5 59.5q-4 4 -12.5 13t-13 13.5t-12.5 12t-14.5 11t-15 8t-18 6
t-20.5 1.5q-53 0 -93 -24t-40 -49q0 -9 28.5 -21.5t74.5 -28.5t62 -23l3 -14l-31 -86l-12 -2q-66 18 -127 18q-36 0 -59.5 -10t-23.5 -25q0 -11 20 -103.5t20 -111.5q0 -24 -7.5 -61t-15.5 -62l-8 -25h-27q0 54 -26 176.5t-26 139.5q0 48 25 91.5t59 67.5q14 10 34 16
q-15 30 -15 68q0 70 65.5 124.5t136.5 54.5q16 0 31.5 -4t25 -8t22.5 -15t18 -16t18.5 -20.5t16.5 -18.5q20 -21 37 -32q64 93 141 160t149 67zM659 209q71 0 130 10.5t86 23t27 21.5q0 6 -9 19.5t-25.5 29t-44.5 27t-60 11.5q-57 0 -110 -36.5t-110 -96.5q40 -9 116 -9z
" />
    <glyph glyph-name="uniFC31" unicode="&#xfed3;&#xfef0;" horiz-adv-x="611" arabic-form="isolated" 
d="M423 549q-16 12 -30.5 27t-20.5 24l-7 10q27 36 58 62q27 -31 60 -61q-10 -16 -25 -31.5t-25 -23.5zM503 117q72 -25 72 -86q0 -64 -27 -115q-29 -55 -98.5 -94t-162.5 -39q-74 0 -127.5 22t-81 59t-39.5 76t-12 83q0 107 50 195l39 -17q-24 -60 -24 -126
q0 -175 212 -175q89 0 154.5 36.5t65.5 65.5q0 9 -13 18t-47 16t-83 7h-45l-5 10l34 77l9 6q78 3 108 30q30 26 30 76q0 22 -4 39q-6 -23 -19 -45q-26 -39 -86 -39q-55 0 -84 32.5t-29 85.5q0 69 38 122t96 53q57 0 94 -64t37 -155q0 -99 -52 -154zM408 295q57 0 88 24
q-31 65 -87 65q-33 0 -53.5 -18.5t-20.5 -35.5q0 -35 73 -35z" />
    <glyph glyph-name="uniFC32" unicode="&#xfed3;&#xfef2;" horiz-adv-x="611" arabic-form="isolated" 
d="M423 549q-16 12 -30.5 27t-20.5 24l-7 10q27 36 58 62q27 -31 60 -61q-10 -16 -25 -31.5t-25 -23.5zM503 117q72 -25 72 -86q0 -64 -27 -115q-29 -55 -98.5 -94t-162.5 -39q-74 0 -127.5 22t-81 59t-39.5 76t-12 83q0 107 50 195l39 -17q-24 -60 -24 -126
q0 -175 212 -175q89 0 154.5 36.5t65.5 65.5q0 9 -13 18t-47 16t-83 7h-45l-5 10l34 77l9 6q78 3 108 30q30 26 30 76q0 22 -4 39q-6 -23 -19 -45q-26 -39 -86 -39q-55 0 -84 32.5t-29 85.5q0 69 38 122t96 53q57 0 94 -64t37 -155q0 -99 -52 -154zM408 295q57 0 88 24
q-31 65 -87 65q-33 0 -53.5 -18.5t-20.5 -35.5q0 -35 73 -35zM343 -264q23 -26 54 -55q-9 -14 -22.5 -27.5t-22.5 -19.5l-9 -7q-21 15 -47 43q-9 -11 -20.5 -22t-18.5 -16l-7 -5q-14 10 -27.5 23.5t-19.5 21.5l-6 8q26 33 53 56q20 -22 46 -47q29 32 47 47z" />
    <glyph glyph-name="uniFC35" unicode="&#xfed7;&#xfef0;" horiz-adv-x="611" arabic-form="isolated" 
d="M376 556q-15 11 -28.5 24.5t-19.5 21.5l-6 8q26 34 54 57q20 -22 47 -48q32 35 48 48q23 -26 54 -56q-9 -14 -22.5 -27.5t-22.5 -20.5l-9 -7q-26 17 -48 44q-9 -11 -20.5 -22t-18.5 -16zM503 117q72 -25 72 -86q0 -64 -27 -115q-29 -55 -98.5 -94t-162.5 -39
q-74 0 -127.5 22t-81 59t-39.5 76t-12 83q0 107 50 195l39 -17q-24 -60 -24 -126q0 -175 212 -175q89 0 154.5 36.5t65.5 65.5q0 9 -13 18t-47 16t-83 7h-45l-5 10l34 77l9 6q78 3 108 30q30 26 30 76q0 22 -4 39q-6 -23 -19 -45q-26 -39 -86 -39q-55 0 -84 32.5t-29 85.5
q0 69 38 122t96 53q57 0 94 -64t37 -155q0 -99 -52 -154zM408 295q57 0 88 24q-31 65 -87 65q-33 0 -53.5 -18.5t-20.5 -35.5q0 -35 73 -35z" />
    <glyph glyph-name="uniFC36" unicode="&#xfed7;&#xfef2;" horiz-adv-x="611" arabic-form="isolated" 
d="M376 556q-15 11 -28.5 24.5t-19.5 21.5l-6 8q26 34 54 57q20 -22 47 -48q32 35 48 48q23 -26 54 -56q-9 -14 -22.5 -27.5t-22.5 -20.5l-9 -7q-26 17 -48 44q-9 -11 -20.5 -22t-18.5 -16zM503 117q72 -25 72 -86q0 -64 -27 -115q-29 -55 -98.5 -94t-162.5 -39
q-74 0 -127.5 22t-81 59t-39.5 76t-12 83q0 107 50 195l39 -17q-24 -60 -24 -126q0 -175 212 -175q89 0 154.5 36.5t65.5 65.5q0 9 -13 18t-47 16t-83 7h-45l-5 10l34 77l9 6q78 3 108 30q30 26 30 76q0 22 -4 39q-6 -23 -19 -45q-26 -39 -86 -39q-55 0 -84 32.5t-29 85.5
q0 69 38 122t96 53q57 0 94 -64t37 -155q0 -99 -52 -154zM408 295q57 0 88 24q-31 65 -87 65q-33 0 -53.5 -18.5t-20.5 -35.5q0 -35 73 -35zM343 -264q23 -26 54 -55q-9 -14 -22.5 -27.5t-22.5 -19.5l-9 -7q-21 15 -47 43q-9 -11 -20.5 -22t-18.5 -16l-7 -5
q-14 10 -27.5 23.5t-19.5 21.5l-6 8q26 33 53 56q20 -22 46 -47q29 32 47 47z" />
    <glyph glyph-name="uniFC3D" unicode="&#xfedb;&#xfef0;" horiz-adv-x="673" arabic-form="isolated" 
d="M721 717l-48 -114q-170 -104 -269 -168q154 -92 154 -198q0 -59 -41 -114q58 -30 58 -92q0 -64 -27 -115q-29 -55 -98.5 -94t-162.5 -39q-74 0 -127.5 22t-81 59t-39.5 76t-12 83q0 107 50 195l39 -17q-24 -60 -24 -126q0 -175 212 -175q89 0 154 36.5t65 65.5
q0 9 -13 18t-47 16t-82 7h-34l-4 10l38 96l11 5q53 0 82.5 16t29.5 44q0 51 -97 108l-23 -18l-13 -1q-47 39 -47 87q0 29 12.5 61t29.5 47q27 24 113 81t158 103l72 45z" />
    <glyph glyph-name="uniFC3E" unicode="&#xfedb;&#xfef2;" horiz-adv-x="673" arabic-form="isolated" 
d="M721 717l-48 -114q-170 -104 -269 -168q154 -92 154 -198q0 -59 -41 -114q58 -30 58 -92q0 -64 -27 -115q-29 -55 -98.5 -94t-162.5 -39q-74 0 -127.5 22t-81 59t-39.5 76t-12 83q0 107 50 195l39 -17q-24 -60 -24 -126q0 -175 212 -175q89 0 154 36.5t65 65.5
q0 9 -13 18t-47 16t-82 7h-34l-4 10l38 96l11 5q53 0 82.5 16t29.5 44q0 51 -97 108l-23 -18l-13 -1q-47 39 -47 87q0 29 12.5 61t29.5 47q27 24 113 81t158 103l72 45zM344 -264q23 -26 54 -55q-9 -14 -22.5 -27.5t-22.5 -19.5l-9 -7q-21 15 -47 43q-9 -11 -20.5 -22
t-18.5 -16l-7 -5q-14 10 -27.5 23.5t-19.5 21.5l-6 8q26 33 53 56q20 -22 46 -47q29 32 47 47z" />
    <glyph glyph-name="uniFC3F" unicode="&#xfedf;&#xfe9e;" horiz-adv-x="580" arabic-form="isolated" 
d="M571 -238l12 -43q-40 -25 -131.5 -62t-130.5 -37q-130 0 -211 69.5t-81 190.5q0 204 312 316q-213 20 -287 20l-7 12q15 71 45 77q21 3 58 9q44 6 63.5 9.5t42.5 8.5t31.5 9t8.5 10v249q-18 27 -18 50q0 15 17.5 42.5t35.5 39.5l23 -9v-28q0 -14 9 -27.5t42 -50.5v-24
l-43 -55v-124q0 -47 -16.5 -79t-63.5 -52q168 -16 270 -13l6 -12l-30 -92q-49 -10 -111 -29t-142.5 -51.5t-133.5 -81t-53 -101.5q0 -67 64.5 -115.5t196.5 -48.5q57 0 112.5 5.5t82.5 11.5zM262 -59q27 36 58 62q27 -31 60 -61q-10 -16 -25 -31.5t-25 -22.5l-10 -8
q-16 12 -30.5 27t-21.5 25z" />
    <glyph glyph-name="uniFC40" unicode="&#xfedf;&#xfea2;" horiz-adv-x="580" arabic-form="isolated" 
d="M571 -238l12 -43q-40 -25 -131.5 -62t-130.5 -37q-130 0 -211 69.5t-81 190.5q0 204 312 316q-213 20 -287 20l-7 12q15 71 45 77q21 3 58 9q44 6 63.5 9.5t42.5 8.5t31.5 9t8.5 10v249q-18 27 -18 50q0 15 17.5 42.5t35.5 39.5l23 -9v-28q0 -14 9 -27.5t42 -50.5v-24
l-43 -55v-124q0 -47 -16.5 -79t-63.5 -52q168 -16 270 -13l6 -12l-30 -92q-49 -10 -111 -29t-142.5 -51.5t-133.5 -81t-53 -101.5q0 -67 64.5 -115.5t196.5 -48.5q57 0 112.5 5.5t82.5 11.5z" />
    <glyph glyph-name="uniFC41" unicode="&#xfedf;&#xfea6;" horiz-adv-x="580" arabic-form="isolated" 
d="M571 -238l12 -43q-40 -25 -131.5 -62t-130.5 -37q-130 0 -211 69.5t-81 190.5q0 204 312 316q-213 20 -287 20l-7 12q15 71 45 77q21 3 58 9q44 6 63.5 9.5t42.5 8.5t31.5 9t8.5 10v249q-18 27 -18 50q0 15 17.5 42.5t35.5 39.5l23 -9v-28q0 -14 9 -27.5t42 -50.5v-24
l-43 -55v-124q0 -47 -16.5 -79t-63.5 -52q168 -16 270 -13l6 -12l-30 -92q-49 -10 -111 -29t-142.5 -51.5t-133.5 -81t-53 -101.5q0 -67 64.5 -115.5t196.5 -48.5q57 0 112.5 5.5t82.5 11.5zM140 376q-16 12 -30.5 27t-21.5 25l-6 9q27 36 58 62q27 -31 60 -61
q-10 -16 -25 -31.5t-25 -22.5z" />
    <glyph glyph-name="uniFC42" unicode="&#xfedf;&#xfee2;" horiz-adv-x="396" arabic-form="isolated" 
d="M377 166l1 -13l-33 -87h-12q-66 15 -119 15q-50 0 -84.5 -11.5t-34.5 -28.5q0 -11 20 -133.5t20 -147.5q0 -24 -7.5 -61t-15.5 -62l-8 -25h-27q0 65 -26 211t-26 165q0 56 32.5 105.5t68.5 69.5q28 15 68 21q-13 30 -13 63v309q-19 30 -19 51q0 14 17.5 41.5t36.5 40.5
l22 -10v-28q0 -13 9 -26t43 -51v-25l-44 -55v-264q15 -12 69.5 -36t61.5 -28z" />
    <glyph glyph-name="uniFC43" unicode="&#xfedf;&#xfef0;" horiz-adv-x="611" arabic-form="isolated" 
d="M544 495v-254q0 -66 -44 -110q75 -28 75 -100q0 -64 -27 -115q-29 -55 -98.5 -94t-162.5 -39q-74 0 -127.5 22t-81 59t-39.5 76t-12 83q0 107 50 195l39 -17q-24 -60 -24 -126q0 -175 212 -175q89 0 154 36.5t65 65.5q0 9 -13 18t-47 16t-82 7h-33l-5 10l39 96l10 5
q86 6 86 30v373q-18 27 -18 50q0 15 17.5 42t35.5 40l23 -10v-28q0 -14 9 -27t42 -50v-25z" />
    <glyph glyph-name="uniFC44" unicode="&#xfedf;&#xfef2;" horiz-adv-x="611" arabic-form="isolated" 
d="M544 495v-254q0 -66 -44 -110q75 -28 75 -100q0 -64 -27 -115q-29 -55 -98.5 -94t-162.5 -39q-74 0 -127.5 22t-81 59t-39.5 76t-12 83q0 107 50 195l39 -17q-24 -60 -24 -126q0 -175 212 -175q89 0 154 36.5t65 65.5q0 9 -13 18t-47 16t-82 7h-33l-5 10l39 96l10 5
q86 6 86 30v373q-18 27 -18 50q0 15 17.5 42t35.5 40l23 -10v-28q0 -14 9 -27t42 -50v-25zM344 -264q23 -26 54 -55q-9 -14 -22.5 -27.5t-22.5 -19.5l-9 -7q-21 15 -47 43q-9 -11 -20.5 -22t-18.5 -16l-7 -5q-14 10 -27.5 23.5t-19.5 21.5l-6 8q26 33 53 56q20 -22 46 -47
q29 32 47 47z" />
    <glyph glyph-name="uniFC4B" unicode="&#xfee7;&#xfe9e;" horiz-adv-x="593" arabic-form="isolated" 
d="M373 639q-16 12 -30.5 27t-20.5 24l-7 10q27 36 58 62q27 -31 60 -61q-10 -16 -25 -31.5t-25 -23.5zM571 -218l12 -43q-40 -25 -131.5 -62t-130.5 -37q-130 0 -211 69.5t-81 190.5q0 230 340 351q-22 2 -71 7.5t-80.5 8.5t-79 5.5t-91.5 2.5l-8 15q17 67 47 75
q97 26 158 94q10 13 29 37t29 36t25 26.5t29 20.5t30 6q30 0 48 -26t18 -58q0 -59 -27 -104l-20 1q-8 70 -47 70q-18 0 -35.5 -13t-43.5 -45q-43 -48 -50 -55q12 -1 64 -7.5t80.5 -9t80.5 -5t100 -0.5l8 -18l-35 -99l-2 1l1 -1q-36 -8 -82 -22t-111.5 -41t-117.5 -58.5
t-89.5 -77.5t-37.5 -94q0 -67 64.5 -115.5t196.5 -48.5q57 0 112.5 5.5t82.5 11.5zM256 -37q27 36 58 62q27 -31 60 -61q-10 -16 -25 -31.5t-25 -22.5l-10 -8q-16 12 -30.5 27t-21.5 25z" />
    <glyph glyph-name="uniFC4C" unicode="&#xfee7;&#xfea2;" horiz-adv-x="593" arabic-form="isolated" 
d="M373 639q-16 12 -30.5 27t-20.5 24l-7 10q27 36 58 62q27 -31 60 -61q-10 -16 -25 -31.5t-25 -23.5zM571 -218l12 -43q-40 -25 -131.5 -62t-130.5 -37q-130 0 -211 69.5t-81 190.5q0 230 340 351q-22 2 -71 7.5t-80.5 8.5t-79 5.5t-91.5 2.5l-8 15q17 67 47 75
q97 26 158 94q10 13 29 37t29 36t25 26.5t29 20.5t30 6q30 0 48 -26t18 -58q0 -59 -27 -104l-20 1q-8 70 -47 70q-18 0 -35.5 -13t-43.5 -45q-43 -48 -50 -55q12 -1 64 -7.5t80.5 -9t80.5 -5t100 -0.5l8 -18l-35 -99l-2 1l1 -1q-36 -8 -82 -22t-111.5 -41t-117.5 -58.5
t-89.5 -77.5t-37.5 -94q0 -67 64.5 -115.5t196.5 -48.5q57 0 112.5 5.5t82.5 11.5z" />
    <glyph glyph-name="uniFC4D" unicode="&#xfee7;&#xfea6;" horiz-adv-x="593" arabic-form="isolated" 
d="M373 639q-16 12 -30.5 27t-20.5 24l-7 10q27 36 58 62q27 -31 60 -61q-10 -16 -25 -31.5t-25 -23.5zM571 -218l12 -43q-40 -25 -131.5 -62t-130.5 -37q-130 0 -211 69.5t-81 190.5q0 230 340 351q-22 2 -71 7.5t-80.5 8.5t-79 5.5t-91.5 2.5l-8 15q17 67 47 75
q97 26 158 94q10 13 29 37t29 36t25 26.5t29 20.5t30 6q30 0 48 -26t18 -58q0 -59 -27 -104l-20 1q-8 70 -47 70q-18 0 -35.5 -13t-43.5 -45q-43 -48 -50 -55q12 -1 64 -7.5t80.5 -9t80.5 -5t100 -0.5l8 -18l-35 -99l-2 1l1 -1q-36 -8 -82 -22t-111.5 -41t-117.5 -58.5
t-89.5 -77.5t-37.5 -94q0 -67 64.5 -115.5t196.5 -48.5q57 0 112.5 5.5t82.5 11.5zM138 456q-16 12 -30.5 27t-21.5 25l-6 9q27 36 58 62q27 -31 60 -61q-10 -16 -25 -31.5t-25 -22.5z" />
    <glyph glyph-name="uniFC4E" unicode="&#xfee7;&#xfee2;" horiz-adv-x="382" arabic-form="isolated" 
d="M259 414q-16 12 -30.5 27t-20.5 25l-7 9q27 36 58 62q27 -31 60 -61q-10 -16 -25 -31.5t-25 -22.5zM345 107l3 -13l-31 -87l-12 -1q-70 17 -127 17q-37 0 -61 -11t-24 -27q0 -11 21 -108t21 -117q0 -24 -7.5 -61t-15.5 -62l-8 -25h-27q0 58 -26 187.5t-26 146.5
q0 46 25 88.5t59 66.5q14 10 34 16q-15 30 -15 70q0 64 50 117.5t101 53.5q32 0 49.5 -19.5t17.5 -48.5q0 -47 -28 -82h-14q-13 40 -50 40q-29 0 -52.5 -19.5t-23.5 -31.5q0 -11 28.5 -26.5t75.5 -35.5t63 -28z" />
    <glyph glyph-name="uniFC4F" unicode="&#xfee7;&#xfef0;" horiz-adv-x="604" arabic-form="isolated" 
d="M453 461q-16 12 -30.5 27t-20.5 24l-7 10q27 36 58 62q27 -31 60 -61q-10 -16 -25 -31.5t-25 -23.5zM496 126q72 -27 72 -95q0 -64 -27 -115q-28 -54 -98 -93.5t-162 -39.5q-72 0 -124.5 22t-79 59t-38.5 76t-12 83q0 107 50 195l39 -17q-24 -60 -24 -126
q0 -175 205 -175q89 0 155 36.5t66 65.5q0 9 -13 18t-44 16t-74 7h-46l-6 14l39 89l12 8q36 0 60 7.5t24 19.5q0 19 -26.5 79t-26.5 64q0 37 48 80h16q45 -90 45 -163q0 -65 -30 -115z" />
    <glyph glyph-name="uniFC50" unicode="&#xfee7;&#xfef2;" horiz-adv-x="604" arabic-form="isolated" 
d="M453 461q-16 12 -30.5 27t-20.5 24l-7 10q27 36 58 62q27 -31 60 -61q-10 -16 -25 -31.5t-25 -23.5zM496 126q72 -27 72 -95q0 -64 -27 -115q-28 -54 -98 -93.5t-162 -39.5q-72 0 -124.5 22t-79 59t-38.5 76t-12 83q0 107 50 195l39 -17q-24 -60 -24 -126
q0 -175 205 -175q89 0 155 36.5t66 65.5q0 9 -13 18t-44 16t-74 7h-46l-6 14l39 89l12 8q36 0 60 7.5t24 19.5q0 19 -26.5 79t-26.5 64q0 37 48 80h16q45 -90 45 -163q0 -65 -30 -115zM344 -264q23 -26 54 -55q-9 -14 -22.5 -27.5t-22.5 -19.5l-9 -7q-21 15 -47 43
q-9 -11 -20.5 -22t-18.5 -16l-7 -5q-14 10 -27.5 23.5t-19.5 21.5l-6 8q26 33 53 56q20 -22 46 -47q29 32 47 47z" />
    <glyph glyph-name="uniFC55" unicode="&#xfef3;&#xfe9e;" horiz-adv-x="593" arabic-form="isolated" 
d="M571 -218l12 -43q-40 -25 -131.5 -62t-130.5 -37q-130 0 -211 69.5t-81 190.5q0 230 340 351q-22 2 -71 7.5t-80.5 8.5t-79 5.5t-91.5 2.5l-8 15q17 67 47 75q97 26 158 94q10 13 29 37t29 36t25 26.5t29 20.5t30 6q30 0 48 -26t18 -58q0 -59 -27 -104l-20 1
q-8 70 -47 70q-18 0 -35.5 -13t-43.5 -45q-43 -48 -50 -55q12 -1 64 -7.5t80.5 -9t80.5 -5t100 -0.5l8 -18l-35 -99l-2 1l1 -1q-36 -8 -82 -22t-111.5 -41t-117.5 -58.5t-89.5 -77.5t-37.5 -94q0 -67 64.5 -115.5t196.5 -48.5q57 0 112.5 5.5t82.5 11.5zM524 152
q23 -26 54 -55q-9 -14 -22.5 -27.5t-22.5 -19.5l-9 -7q-21 15 -47 43q-9 -11 -20.5 -22t-18.5 -16l-7 -5q-14 10 -27.5 23.5t-19.5 21.5l-6 8q26 33 53 56q20 -22 46 -47q29 32 47 47zM256 -37q27 36 58 62q27 -31 60 -61q-10 -16 -25 -31.5t-25 -22.5l-10 -8
q-16 12 -30.5 27t-21.5 25z" />
    <glyph glyph-name="uniFC56" unicode="&#xfef3;&#xfea2;" horiz-adv-x="593" arabic-form="isolated" 
d="M571 -218l12 -43q-40 -25 -131.5 -62t-130.5 -37q-130 0 -211 69.5t-81 190.5q0 230 340 351q-22 2 -71 7.5t-80.5 8.5t-79 5.5t-91.5 2.5l-8 15q17 67 47 75q97 26 158 94q10 13 29 37t29 36t25 26.5t29 20.5t30 6q30 0 48 -26t18 -58q0 -59 -27 -104l-20 1
q-8 70 -47 70q-18 0 -35.5 -13t-43.5 -45q-43 -48 -50 -55q12 -1 64 -7.5t80.5 -9t80.5 -5t100 -0.5l8 -18l-35 -99l-2 1l1 -1q-36 -8 -82 -22t-111.5 -41t-117.5 -58.5t-89.5 -77.5t-37.5 -94q0 -67 64.5 -115.5t196.5 -48.5q57 0 112.5 5.5t82.5 11.5zM524 152
q23 -26 54 -55q-9 -14 -22.5 -27.5t-22.5 -19.5l-9 -7q-21 15 -47 43q-9 -11 -20.5 -22t-18.5 -16l-7 -5q-14 10 -27.5 23.5t-19.5 21.5l-6 8q26 33 53 56q20 -22 46 -47q29 32 47 47z" />
    <glyph glyph-name="uniFC57" unicode="&#xfef3;&#xfea6;" horiz-adv-x="593" arabic-form="isolated" 
d="M571 -218l12 -43q-40 -25 -131.5 -62t-130.5 -37q-130 0 -211 69.5t-81 190.5q0 230 340 351q-22 2 -71 7.5t-80.5 8.5t-79 5.5t-91.5 2.5l-8 15q17 67 47 75q97 26 158 94q10 13 29 37t29 36t25 26.5t29 20.5t30 6q30 0 48 -26t18 -58q0 -59 -27 -104l-20 1
q-8 70 -47 70q-18 0 -35.5 -13t-43.5 -45q-43 -48 -50 -55q12 -1 64 -7.5t80.5 -9t80.5 -5t100 -0.5l8 -18l-35 -99l-2 1l1 -1q-36 -8 -82 -22t-111.5 -41t-117.5 -58.5t-89.5 -77.5t-37.5 -94q0 -67 64.5 -115.5t196.5 -48.5q57 0 112.5 5.5t82.5 11.5zM138 456
q-16 12 -30.5 27t-21.5 25l-6 9q27 36 58 62q27 -31 60 -61q-10 -16 -25 -31.5t-25 -22.5zM524 152q23 -26 54 -55q-9 -14 -22.5 -27.5t-22.5 -19.5l-9 -7q-21 15 -47 43q-9 -11 -20.5 -22t-18.5 -16l-7 -5q-14 10 -27.5 23.5t-19.5 21.5l-6 8q26 33 53 56q20 -22 46 -47
q29 32 47 47z" />
    <glyph glyph-name="uniFC58" unicode="&#xfef3;&#xfee2;" horiz-adv-x="382" arabic-form="isolated" 
d="M178 23q-37 0 -61 -11t-24 -27q0 -11 21 -108t21 -117q0 -24 -7.5 -61t-15.5 -62l-8 -25h-27q0 58 -26 187.5t-26 146.5q0 46 25 88.5t59 66.5q14 10 34 16q-15 30 -15 70q0 64 50 117.5t101 53.5q32 0 49.5 -19.5t17.5 -48.5q0 -47 -28 -82h-14q-13 40 -50 40
q-29 0 -52.5 -19.5t-23.5 -31.5q0 -11 28.5 -26.5t75.5 -35.5t63 -28l3 -13l-31 -87l-12 -1q-70 17 -127 17zM302 -51q23 -26 54 -55q-9 -14 -22.5 -27.5t-22.5 -20.5l-9 -6q-21 15 -47 43q-9 -11 -20.5 -22t-18.5 -16l-7 -5q-14 10 -27.5 23.5t-19.5 21.5l-6 8q26 33 53 56
q20 -22 46 -47q29 32 47 47z" />
    <glyph glyph-name="uniFC59" unicode="&#xfef3;&#xfef0;" horiz-adv-x="604" arabic-form="isolated" 
d="M541 -84q-28 -54 -98 -93.5t-162 -39.5q-72 0 -124.5 22t-79 59t-38.5 76t-12 83q0 107 50 195l39 -17q-24 -60 -24 -126q0 -175 205 -175q89 0 155 36.5t66 65.5q0 9 -13 18t-44 16t-74 7h-46l-6 14l39 89l12 8q36 0 60 7.5t24 19.5q0 19 -26.5 79t-26.5 64q0 37 48 80
h16q45 -90 45 -163q0 -65 -30 -115q72 -27 72 -95q0 -64 -27 -115zM532 -199q23 -26 54 -55q-9 -14 -22.5 -27.5t-22.5 -20.5l-9 -6q-21 15 -47 43q-9 -11 -20.5 -22t-18.5 -16l-7 -5q-14 10 -27.5 23.5t-19.5 21.5l-6 8q26 33 53 56q20 -22 46 -47q29 32 47 47z" />
    <glyph glyph-name="uniFC5A" unicode="&#xfef3;&#xfef2;" horiz-adv-x="604" arabic-form="isolated" 
d="M541 -84q-28 -54 -98 -93.5t-162 -39.5q-72 0 -124.5 22t-79 59t-38.5 76t-12 83q0 107 50 195l39 -17q-24 -60 -24 -126q0 -175 205 -175q89 0 155 36.5t66 65.5q0 9 -13 18t-44 16t-74 7h-46l-6 14l39 89l12 8q36 0 60 7.5t24 19.5q0 19 -26.5 79t-26.5 64q0 37 48 80
h16q45 -90 45 -163q0 -65 -30 -115q72 -27 72 -95q0 -64 -27 -115zM532 -199q23 -26 54 -55q-9 -14 -22.5 -27.5t-22.5 -20.5l-9 -6q-21 15 -47 43q-9 -11 -20.5 -22t-18.5 -16l-7 -5q-14 10 -27.5 23.5t-19.5 21.5l-6 8q26 33 53 56q20 -22 46 -47q29 32 47 47zM344 -264
q23 -26 54 -55q-9 -14 -22.5 -27.5t-22.5 -19.5l-9 -7q-21 15 -47 43q-9 -11 -20.5 -22t-18.5 -16l-7 -5q-14 10 -27.5 23.5t-19.5 21.5l-6 8q26 33 53 56q20 -22 46 -47q29 32 47 47z" />
    <glyph glyph-name="uniFC64" unicode="&#xfe8c;&#xfeae;" horiz-adv-x="592" arabic-form="final" 
d="M357 403q16 30 37 48q-21 19 -21 51q0 31 19.5 55.5t49.5 24.5q28 0 42.5 -20t16.5 -41l-17 -10q-19 19 -42 19q-18 0 -29 -11t-11 -23q0 -23 44 -23q18 0 70 10l4 -9l-13 -45q-52 -6 -80 -14q-32 -7 -59 -25zM592 113l16 -3v-107l-16 -3q-106 0 -148 73q-19 29 -29 78
q-26 -61 -98 -61q-22 0 -40 8v-1q0 -112 -51 -199t-130 -87q-55 0 -166 72l13 41q50 -10 92 -10q48 0 87 18t60 44t32.5 50.5t11.5 42.5q0 20 -29 66t-29 52q0 14 16.5 43.5t28.5 42.5h16q17 -40 37.5 -55.5t56.5 -14.5q75 2 81 52q-1 14 -1 43q0 10 18.5 30t36.5 28l13 -5
q0 -107 10 -155.5t34 -65.5t77 -17z" />
    <glyph glyph-name="uniFC65" unicode="&#xfe8c;&#xfeb0;" horiz-adv-x="592" arabic-form="final" 
d="M357 403q16 30 37 48q-21 19 -21 51q0 31 19.5 55.5t49.5 24.5q28 0 42.5 -20t16.5 -41l-17 -10q-19 19 -42 19q-18 0 -29 -11t-11 -23q0 -23 44 -23q18 0 70 10l4 -9l-13 -45q-52 -6 -80 -14q-32 -7 -59 -25zM203 324q-16 12 -30.5 27t-20.5 25l-7 9q27 36 58 62
q27 -31 60 -61q-10 -16 -25 -31.5t-25 -22.5zM592 113l16 -3v-107l-16 -3q-106 0 -148 73q-19 29 -29 78q-26 -61 -98 -61q-22 0 -40 8v-1q0 -112 -51 -199t-130 -87q-55 0 -166 72l13 41q50 -10 92 -10q48 0 87 18t60 44t32.5 50.5t11.5 42.5q0 20 -29 66t-29 52
q0 14 16.5 43.5t28.5 42.5h16q17 -40 37.5 -55.5t56.5 -14.5q75 2 81 52q-1 14 -1 43q0 10 18.5 30t36.5 28l13 -5q0 -107 10 -155.5t34 -65.5t77 -17z" />
    <glyph glyph-name="uniFC67" unicode="&#xfe8c;&#xfee6;" horiz-adv-x="847" arabic-form="final" 
d="M598 414q16 30 37 48q-21 19 -21 51q0 31 19.5 55.5t49.5 24.5q28 0 42.5 -20t16.5 -41l-17 -10q-19 19 -42 19q-18 0 -29 -11t-11 -23q0 -23 44 -23q17 0 70 10l4 -9l-13 -45q-52 -6 -80 -14q-32 -7 -59 -25zM261 292q-16 12 -30.5 27t-20.5 25l-7 9q27 36 58 62
q27 -31 60 -61q-10 -16 -25 -31.5t-25 -22.5zM847 113l16 -3v-107l-16 -3q-101 0 -142 58q-29 42 -40 117q-27 -58 -102 -58q-36 0 -59 20q4 -30 4 -39q0 -126 -62 -203t-183 -77q-64 0 -111.5 21t-73.5 55t-38.5 72t-12.5 78q0 105 53 190l39 -18q-27 -62 -27 -125
q0 -66 43 -111t136 -45q76 0 126.5 33t50.5 74q0 33 -27.5 104.5t-27.5 76.5q0 16 17.5 44t35.5 42h17q15 -46 38.5 -62.5t71.5 -16.5q73 0 84 46q-1 16 -1 47q0 9 19 29t37 29l12 -5q0 -118 10 -171.5t34.5 -72.5t78.5 -19z" />
    <glyph glyph-name="uniFC68" unicode="&#xfe8c;&#xfef0;" horiz-adv-x="725" arabic-form="final" 
d="M376 340q16 30 37 48q-21 19 -21 51q0 31 19.5 55.5t49.5 24.5q28 0 42.5 -20t16.5 -41l-17 -10q-19 19 -42 19q-18 0 -29 -11t-11 -23q0 -23 44 -23q17 0 70 10l4 -9l-13 -45q-52 -6 -80 -14q-32 -7 -59 -25zM725 113l16 -3v-107l-16 -3q-52 0 -83 23t-73 79
q-29 39 -55 58t-66 19t-75.5 -18.5t-35.5 -38.5q0 -13 24 -21.5t59 -14.5t69.5 -15.5t58.5 -31t24 -54.5q0 -65 -26 -115q-25 -49 -93.5 -88t-168.5 -39q-73 0 -125.5 22t-80 59t-39.5 76t-12 83q0 107 50 195l39 -17q-24 -60 -24 -126q0 -175 208 -175q58 0 111.5 15.5
t81 34.5t27.5 31q0 7 -6 12.5t-20 9.5t-25 6.5t-33 6.5q-98 16 -124 43q-22 22 -27 65.5t8 78.5q19 50 68 86t112 36q38 0 69.5 -23t69.5 -75q34 -46 57 -60t56 -14z" />
    <glyph glyph-name="uniFC69" unicode="&#xfe8c;&#xfef2;" horiz-adv-x="725" arabic-form="final" 
d="M376 340q16 30 37 48q-21 19 -21 51q0 31 19.5 55.5t49.5 24.5q28 0 42.5 -20t16.5 -41l-17 -10q-19 19 -42 19q-18 0 -29 -11t-11 -23q0 -23 44 -23q17 0 70 10l4 -9l-13 -45q-52 -6 -80 -14q-32 -7 -59 -25zM725 113l16 -3v-107l-16 -3q-52 0 -83 23t-73 79
q-29 39 -55 58t-66 19t-75.5 -18.5t-35.5 -38.5q0 -13 24 -21.5t59 -14.5t69.5 -15.5t58.5 -31t24 -54.5q0 -65 -26 -115q-25 -49 -93.5 -88t-168.5 -39q-73 0 -125.5 22t-80 59t-39.5 76t-12 83q0 107 50 195l39 -17q-24 -60 -24 -126q0 -175 208 -175q58 0 111.5 15.5
t81 34.5t27.5 31q0 7 -6 12.5t-20 9.5t-25 6.5t-33 6.5q-98 16 -124 43q-22 22 -27 65.5t8 78.5q19 50 68 86t112 36q38 0 69.5 -23t69.5 -75q34 -46 57 -60t56 -14zM350 -303q23 -26 54 -55q-9 -14 -22.5 -27.5t-22.5 -20.5l-9 -6q-21 15 -47 43q-9 -11 -20.5 -22
t-18.5 -16l-7 -5q-14 10 -27.5 23.5t-19.5 21.5l-6 8q26 33 53 56q20 -22 46 -47q29 32 47 47z" />
    <glyph glyph-name="uniFC6A" unicode="&#xfe92;&#xfeae;" horiz-adv-x="592" arabic-form="final" 
d="M592 113l16 -3v-107l-16 -3q-106 0 -148 73q-19 29 -29 78q-26 -61 -98 -61q-22 0 -40 8v-1q0 -112 -51 -199t-130 -87q-55 0 -166 72l13 41q50 -10 92 -10q48 0 87 18t60 44t32.5 50.5t11.5 42.5q0 20 -29 66t-29 52q0 14 16.5 43.5t28.5 42.5h16q17 -40 37.5 -55.5
t56.5 -14.5q75 2 81 52q-1 14 -1 43q0 10 18.5 30t36.5 28l13 -5q0 -107 10 -155.5t34 -65.5t77 -17zM399 -11q27 -31 60 -61q-10 -16 -25 -31.5t-25 -22.5l-10 -8q-16 12 -30.5 27t-20.5 25l-7 9q27 36 58 62z" />
    <glyph glyph-name="uniFC6B" unicode="&#xfe92;&#xfeb0;" horiz-adv-x="592" arabic-form="final" 
d="M203 324q-16 12 -30.5 27t-20.5 25l-7 9q27 36 58 62q27 -31 60 -61q-10 -16 -25 -31.5t-25 -22.5zM592 113l16 -3v-107l-16 -3q-106 0 -148 73q-19 29 -29 78q-26 -61 -98 -61q-22 0 -40 8v-1q0 -112 -51 -199t-130 -87q-55 0 -166 72l13 41q50 -10 92 -10q48 0 87 18
t60 44t32.5 50.5t11.5 42.5q0 20 -29 66t-29 52q0 14 16.5 43.5t28.5 42.5h16q17 -40 37.5 -55.5t56.5 -14.5q75 2 81 52q-1 14 -1 43q0 10 18.5 30t36.5 28l13 -5q0 -107 10 -155.5t34 -65.5t77 -17zM399 -11q27 -31 60 -61q-10 -16 -25 -31.5t-25 -22.5l-10 -8
q-16 12 -30.5 27t-20.5 25l-7 9q27 36 58 62z" />
    <glyph glyph-name="uniFC6D" unicode="&#xfe92;&#xfee6;" horiz-adv-x="847" arabic-form="final" 
d="M261 292q-16 12 -30.5 27t-20.5 25l-7 9q27 36 58 62q27 -31 60 -61q-10 -16 -25 -31.5t-25 -22.5zM847 113l16 -3v-107l-16 -3q-101 0 -142 58q-29 42 -40 117q-27 -58 -102 -58q-36 0 -59 20q4 -30 4 -39q0 -126 -62 -203t-183 -77q-64 0 -111.5 21t-73.5 55t-38.5 72
t-12.5 78q0 105 53 190l39 -18q-27 -62 -27 -125q0 -66 43 -111t136 -45q76 0 126.5 33t50.5 74q0 33 -27.5 104.5t-27.5 76.5q0 16 17.5 44t35.5 42h17q15 -46 38.5 -62.5t71.5 -16.5q73 0 84 46q-1 16 -1 47q0 9 19 29t37 29l12 -5q0 -118 10 -171.5t34.5 -72.5t78.5 -19z
M626 10q27 -31 60 -61q-10 -16 -25 -31.5t-25 -23.5l-10 -7q-16 12 -30.5 27t-21.5 24l-6 10q27 36 58 62z" />
    <glyph glyph-name="uniFC6E" unicode="&#xfe92;&#xfef0;" horiz-adv-x="725" arabic-form="final" 
d="M473 285q38 0 69.5 -23t69.5 -75q34 -46 57 -60t56 -14l16 -3v-107l-16 -3q-52 0 -83 23t-73 79q-29 39 -55 58t-66 19t-75.5 -18.5t-35.5 -38.5q0 -13 24 -21.5t59 -14.5t69.5 -15.5t58.5 -31t24 -54.5q0 -65 -26 -115q-25 -49 -93.5 -88t-168.5 -39q-73 0 -125.5 22
t-80 59t-39.5 76t-12 83q0 107 50 195l39 -17q-24 -60 -24 -126q0 -175 208 -175q58 0 111.5 15.5t81 34.5t27.5 31q0 7 -6 12.5t-20 9.5t-25 6.5t-33 6.5q-98 16 -124 43q-22 22 -27 65.5t8 78.5q19 50 68 86t112 36zM603 -314q-16 12 -30.5 27t-20.5 25l-7 9q27 36 58 62
q27 -31 60 -61q-10 -16 -25 -31.5t-25 -22.5z" />
    <glyph glyph-name="uniFC6F" unicode="&#xfe92;&#xfef2;" horiz-adv-x="725" arabic-form="final" 
d="M725 113l16 -3v-107l-16 -3q-52 0 -83 23t-73 79q-29 39 -55 58t-66 19t-75.5 -18.5t-35.5 -38.5q0 -13 24 -21.5t59 -14.5t69.5 -15.5t58.5 -31t24 -54.5q0 -65 -26 -115q-25 -49 -93.5 -88t-168.5 -39q-73 0 -125.5 22t-80 59t-39.5 76t-12 83q0 107 50 195l39 -17
q-24 -60 -24 -126q0 -175 208 -175q58 0 111.5 15.5t81 34.5t27.5 31q0 7 -6 12.5t-20 9.5t-25 6.5t-33 6.5q-98 16 -124 43q-22 22 -27 65.5t8 78.5q19 50 68 86t112 36q38 0 69.5 -23t69.5 -75q34 -46 57 -60t56 -14zM603 -191q27 -31 60 -61q-10 -16 -25 -31.5t-25 -22.5
l-10 -8q-16 12 -30.5 27t-20.5 25l-7 9q27 36 58 62zM350 -303q23 -26 54 -55q-9 -14 -22.5 -27.5t-22.5 -20.5l-9 -6q-21 15 -47 43q-9 -11 -20.5 -22t-18.5 -16l-7 -5q-14 10 -27.5 23.5t-19.5 21.5l-6 8q26 33 53 56q20 -22 46 -47q29 32 47 47z" />
    <glyph glyph-name="uniFC70" unicode="&#xfe98;&#xfeae;" horiz-adv-x="592" arabic-form="final" 
d="M392 414q-15 11 -28.5 24.5t-19.5 21.5l-6 8q26 34 54 57q20 -22 47 -48q32 35 48 48q23 -26 54 -56q-9 -14 -22.5 -27.5t-22.5 -20.5l-9 -7q-26 17 -48 44q-9 -11 -20.5 -22t-18.5 -16zM592 113l16 -3v-107l-16 -3q-106 0 -148 73q-19 29 -29 78q-26 -61 -98 -61
q-22 0 -40 8v-1q0 -112 -51 -199t-130 -87q-55 0 -166 72l13 41q50 -10 92 -10q48 0 87 18t60 44t32.5 50.5t11.5 42.5q0 20 -29 66t-29 52q0 14 16.5 43.5t28.5 42.5h16q17 -40 37.5 -55.5t56.5 -14.5q75 2 81 52q-1 14 -1 43q0 10 18.5 30t36.5 28l13 -5q0 -107 10 -155.5
t34 -65.5t77 -17z" />
    <glyph glyph-name="uniFC71" unicode="&#xfe98;&#xfeb0;" horiz-adv-x="592" arabic-form="final" 
d="M392 414q-15 11 -28.5 24.5t-19.5 21.5l-6 8q26 34 54 57q20 -22 47 -48q32 35 48 48q23 -26 54 -56q-9 -14 -22.5 -27.5t-22.5 -20.5l-9 -7q-26 17 -48 44q-9 -11 -20.5 -22t-18.5 -16zM203 324q-16 12 -30.5 27t-20.5 25l-7 9q27 36 58 62q27 -31 60 -61
q-10 -16 -25 -31.5t-25 -22.5zM592 113l16 -3v-107l-16 -3q-106 0 -148 73q-19 29 -29 78q-26 -61 -98 -61q-22 0 -40 8v-1q0 -112 -51 -199t-130 -87q-55 0 -166 72l13 41q50 -10 92 -10q48 0 87 18t60 44t32.5 50.5t11.5 42.5q0 20 -29 66t-29 52q0 14 16.5 43.5
t28.5 42.5h16q17 -40 37.5 -55.5t56.5 -14.5q75 2 81 52q-1 14 -1 43q0 10 18.5 30t36.5 28l13 -5q0 -107 10 -155.5t34 -65.5t77 -17z" />
    <glyph glyph-name="uniFC73" unicode="&#xfe98;&#xfee6;" horiz-adv-x="847" arabic-form="final" 
d="M633 425q-15 11 -28.5 24.5t-19.5 21.5l-6 8q26 34 54 57q20 -22 47 -48q32 35 48 48q23 -26 54 -56q-9 -14 -22.5 -27.5t-22.5 -20.5l-9 -7q-26 17 -48 44q-9 -11 -20.5 -22t-19.5 -17zM261 292q-16 12 -30.5 27t-20.5 25l-7 9q27 36 58 62q27 -31 60 -61
q-10 -16 -25 -31.5t-25 -22.5zM847 113l16 -3v-107l-16 -3q-101 0 -142 58q-29 42 -40 117q-27 -58 -102 -58q-36 0 -59 20q4 -30 4 -39q0 -126 -62 -203t-183 -77q-64 0 -111.5 21t-73.5 55t-38.5 72t-12.5 78q0 105 53 190l39 -18q-27 -62 -27 -125q0 -66 43 -111t136 -45
q76 0 126.5 33t50.5 74q0 33 -27.5 104.5t-27.5 76.5q0 16 17.5 44t35.5 42h17q15 -46 38.5 -62.5t71.5 -16.5q73 0 84 46q-1 16 -1 47q0 9 19 29t37 29l12 -5q0 -118 10 -171.5t34.5 -72.5t78.5 -19z" />
    <glyph glyph-name="uniFC74" unicode="&#xfe98;&#xfef0;" horiz-adv-x="725" arabic-form="final" 
d="M411 351q-15 11 -28.5 24.5t-19.5 21.5l-6 8q26 34 54 57q20 -22 47 -48q32 35 48 48q23 -26 54 -56q-9 -14 -22.5 -27.5t-22.5 -20.5l-9 -7q-26 17 -48 44q-9 -11 -20.5 -22t-19.5 -17zM725 113l16 -3v-107l-16 -3q-52 0 -83 23t-73 79q-29 39 -55 58t-66 19
t-75.5 -18.5t-35.5 -38.5q0 -13 24 -21.5t59 -14.5t69.5 -15.5t58.5 -31t24 -54.5q0 -65 -26 -115q-25 -49 -93.5 -88t-168.5 -39q-73 0 -125.5 22t-80 59t-39.5 76t-12 83q0 107 50 195l39 -17q-24 -60 -24 -126q0 -175 208 -175q58 0 111.5 15.5t81 34.5t27.5 31
q0 7 -6 12.5t-20 9.5t-25 6.5t-33 6.5q-98 16 -124 43q-22 22 -27 65.5t8 78.5q19 50 68 86t112 36q38 0 69.5 -23t69.5 -75q34 -46 57 -60t56 -14z" />
    <glyph glyph-name="uniFC75" unicode="&#xfe98;&#xfef2;" horiz-adv-x="725" arabic-form="final" 
d="M411 351q-15 11 -28.5 24.5t-19.5 21.5l-6 8q26 34 54 57q20 -22 47 -48q32 35 48 48q23 -26 54 -56q-9 -14 -22.5 -27.5t-22.5 -20.5l-9 -7q-26 17 -48 44q-9 -11 -20.5 -22t-19.5 -17zM725 113l16 -3v-107l-16 -3q-52 0 -83 23t-73 79q-29 39 -55 58t-66 19
t-75.5 -18.5t-35.5 -38.5q0 -13 24 -21.5t59 -14.5t69.5 -15.5t58.5 -31t24 -54.5q0 -65 -26 -115q-25 -49 -93.5 -88t-168.5 -39q-73 0 -125.5 22t-80 59t-39.5 76t-12 83q0 107 50 195l39 -17q-24 -60 -24 -126q0 -175 208 -175q58 0 111.5 15.5t81 34.5t27.5 31
q0 7 -6 12.5t-20 9.5t-25 6.5t-33 6.5q-98 16 -124 43q-22 22 -27 65.5t8 78.5q19 50 68 86t112 36q38 0 69.5 -23t69.5 -75q34 -46 57 -60t56 -14zM350 -303q23 -26 54 -55q-9 -14 -22.5 -27.5t-22.5 -20.5l-9 -6q-21 15 -47 43q-9 -11 -20.5 -22t-18.5 -16l-7 -5
q-14 10 -27.5 23.5t-19.5 21.5l-6 8q26 33 53 56q20 -22 46 -47q29 32 47 47z" />
    <glyph glyph-name="uniFC76" unicode="&#xfe9c;&#xfeae;" horiz-adv-x="592" arabic-form="final" 
d="M439 518q-13 10 -25 22.5t-18 20.5l-6 8q24 29 49 50q22 -24 50 -49q-9 -13 -21.5 -26t-20.5 -20zM393 415q-14 10 -27 23t-19 21l-6 8q24 32 52 56q19 -23 46 -48q29 32 47 48q24 -28 52 -55q-9 -13 -22 -26.5t-22 -19.5l-8 -7q-27 17 -46 43q-9 -11 -20.5 -22
t-19.5 -16zM592 113l16 -3v-107l-16 -3q-106 0 -148 73q-19 29 -29 78q-26 -61 -98 -61q-22 0 -40 8v-1q0 -112 -51 -199t-130 -87q-55 0 -166 72l13 41q50 -10 92 -10q48 0 87 18t60 44t32.5 50.5t11.5 42.5q0 20 -29 66t-29 52q0 14 16.5 43.5t28.5 42.5h16
q17 -40 37.5 -55.5t56.5 -14.5q75 2 81 52q-1 14 -1 43q0 10 18.5 30t36.5 28l13 -5q0 -107 10 -155.5t34 -65.5t77 -17z" />
    <glyph glyph-name="uniFC77" unicode="&#xfe9c;&#xfeb0;" horiz-adv-x="592" arabic-form="final" 
d="M439 518q-13 10 -25 22.5t-18 20.5l-6 8q24 29 49 50q22 -24 50 -49q-9 -13 -21.5 -26t-20.5 -20zM393 415q-14 10 -27 23t-19 21l-6 8q24 32 52 56q19 -23 46 -48q29 32 47 48q24 -28 52 -55q-9 -13 -22 -26.5t-22 -19.5l-8 -7q-27 17 -46 43q-9 -11 -20.5 -22
t-19.5 -16zM203 324q-16 12 -30.5 27t-20.5 25l-7 9q27 36 58 62q27 -31 60 -61q-10 -16 -25 -31.5t-25 -22.5zM592 113l16 -3v-107l-16 -3q-106 0 -148 73q-19 29 -29 78q-26 -61 -98 -61q-22 0 -40 8v-1q0 -112 -51 -199t-130 -87q-55 0 -166 72l13 41q50 -10 92 -10
q48 0 87 18t60 44t32.5 50.5t11.5 42.5q0 20 -29 66t-29 52q0 14 16.5 43.5t28.5 42.5h16q17 -40 37.5 -55.5t56.5 -14.5q75 2 81 52q-1 14 -1 43q0 10 18.5 30t36.5 28l13 -5q0 -107 10 -155.5t34 -65.5t77 -17z" />
    <glyph glyph-name="uniFC79" unicode="&#xfe9c;&#xfee6;" horiz-adv-x="847" arabic-form="final" 
d="M680 529q-13 10 -25 22.5t-18 20.5l-6 8q24 29 49 50q22 -24 50 -49q-9 -13 -21.5 -26t-20.5 -19zM634 426q-14 10 -27 23t-19 21l-6 8q24 32 52 56q19 -23 46 -48q29 32 47 48q24 -28 52 -55q-9 -13 -22 -26.5t-21 -20.5l-9 -6q-27 17 -46 43q-9 -11 -20.5 -22
t-18.5 -16zM261 292q-16 12 -30.5 27t-20.5 25l-7 9q27 36 58 62q27 -31 60 -61q-10 -16 -25 -31.5t-25 -22.5zM847 113l16 -3v-107l-16 -3q-101 0 -142 58q-29 42 -40 117q-27 -58 -102 -58q-36 0 -59 20q4 -30 4 -39q0 -126 -62 -203t-183 -77q-64 0 -111.5 21t-73.5 55
t-38.5 72t-12.5 78q0 105 53 190l39 -18q-27 -62 -27 -125q0 -66 43 -111t136 -45q76 0 126.5 33t50.5 74q0 33 -27.5 104.5t-27.5 76.5q0 16 17.5 44t35.5 42h17q15 -46 38.5 -62.5t71.5 -16.5q73 0 84 46q-1 16 -1 47q0 9 19 29t37 29l12 -5q0 -118 10 -171.5t34.5 -72.5
t78.5 -19z" />
    <glyph glyph-name="uniFC7A" unicode="&#xfe9c;&#xfef0;" horiz-adv-x="725" arabic-form="final" 
d="M458 455q-13 10 -25 22.5t-18 20.5l-6 8q24 29 49 50q22 -24 50 -49q-9 -13 -21.5 -26t-20.5 -19zM412 352q-14 10 -27 23t-19 21l-6 8q24 32 52 56q19 -23 46 -48q29 32 47 48q24 -28 52 -55q-9 -13 -22 -26.5t-21 -20.5l-9 -6q-27 17 -46 43q-9 -11 -20.5 -22
t-18.5 -16zM725 113l16 -3v-107l-16 -3q-52 0 -83 23t-73 79q-29 39 -55 58t-66 19t-75.5 -18.5t-35.5 -38.5q0 -13 24 -21.5t59 -14.5t69.5 -15.5t58.5 -31t24 -54.5q0 -65 -26 -115q-25 -49 -93.5 -88t-168.5 -39q-73 0 -125.5 22t-80 59t-39.5 76t-12 83q0 107 50 195
l39 -17q-24 -60 -24 -126q0 -175 208 -175q58 0 111.5 15.5t81 34.5t27.5 31q0 7 -6 12.5t-20 9.5t-25 6.5t-33 6.5q-98 16 -124 43q-22 22 -27 65.5t8 78.5q19 50 68 86t112 36q38 0 69.5 -23t69.5 -75q34 -46 57 -60t56 -14z" />
    <glyph glyph-name="uniFC7B" unicode="&#xfe9c;&#xfef2;" horiz-adv-x="725" arabic-form="final" 
d="M458 455q-13 10 -25 22.5t-18 20.5l-6 8q24 29 49 50q22 -24 50 -49q-9 -13 -21.5 -26t-20.5 -19zM412 352q-14 10 -27 23t-19 21l-6 8q24 32 52 56q19 -23 46 -48q29 32 47 48q24 -28 52 -55q-9 -13 -22 -26.5t-21 -20.5l-9 -6q-27 17 -46 43q-9 -11 -20.5 -22
t-18.5 -16zM725 113l16 -3v-107l-16 -3q-52 0 -83 23t-73 79q-29 39 -55 58t-66 19t-75.5 -18.5t-35.5 -38.5q0 -13 24 -21.5t59 -14.5t69.5 -15.5t58.5 -31t24 -54.5q0 -65 -26 -115q-25 -49 -93.5 -88t-168.5 -39q-73 0 -125.5 22t-80 59t-39.5 76t-12 83q0 107 50 195
l39 -17q-24 -60 -24 -126q0 -175 208 -175q58 0 111.5 15.5t81 34.5t27.5 31q0 7 -6 12.5t-20 9.5t-25 6.5t-33 6.5q-98 16 -124 43q-22 22 -27 65.5t8 78.5q19 50 68 86t112 36q38 0 69.5 -23t69.5 -75q34 -46 57 -60t56 -14zM350 -303q23 -26 54 -55q-9 -14 -22.5 -27.5
t-22.5 -20.5l-9 -6q-21 15 -47 43q-9 -11 -20.5 -22t-18.5 -16l-7 -5q-14 10 -27.5 23.5t-19.5 21.5l-6 8q26 33 53 56q20 -22 46 -47q29 32 47 47z" />
    <glyph glyph-name="uniFC83" unicode="&#xfedc;&#xfef0;" horiz-adv-x="806" arabic-form="final" 
d="M806 113l16 -3v-107l-16 -3q-65 0 -117.5 41.5t-131.5 158.5q-8 -42 -39 -78q57 -31 57 -91q0 -64 -27 -115q-29 -55 -98.5 -94t-162.5 -39q-74 0 -127.5 22t-81 59t-39.5 76t-12 83q0 107 50 195l39 -17q-24 -60 -24 -126q0 -175 212 -175q89 0 154 36.5t65 65.5
q0 9 -13 18t-47 16t-82 7h-34l-4 10l38 96l11 5q116 0 116 52q0 61 -132 171l-6 12q0 34 8 63t21 39q31 25 130.5 84t184.5 105l84 47l11 -11l-47 -113q-204 -110 -314 -174q48 -44 133 -144q96 -113 133.5 -142.5t91.5 -29.5z" />
    <glyph glyph-name="uniFC84" unicode="&#xfedc;&#xfef2;" horiz-adv-x="806" arabic-form="final" 
d="M806 113l16 -3v-107l-16 -3q-65 0 -117.5 41.5t-131.5 158.5q-8 -42 -39 -78q57 -31 57 -91q0 -64 -27 -115q-29 -55 -98.5 -94t-162.5 -39q-74 0 -127.5 22t-81 59t-39.5 76t-12 83q0 107 50 195l39 -17q-24 -60 -24 -126q0 -175 212 -175q89 0 154 36.5t65 65.5
q0 9 -13 18t-47 16t-82 7h-34l-4 10l38 96l11 5q116 0 116 52q0 61 -132 171l-6 12q0 34 8 63t21 39q31 25 130.5 84t184.5 105l84 47l11 -11l-47 -113q-204 -110 -314 -174q48 -44 133 -144q96 -113 133.5 -142.5t91.5 -29.5zM344 -264q23 -26 54 -55q-9 -14 -22.5 -27.5
t-22.5 -19.5l-9 -7q-21 15 -47 43q-9 -11 -20.5 -22t-18.5 -16l-7 -5q-14 10 -27.5 23.5t-19.5 21.5l-6 8q26 33 53 56q20 -22 46 -47q29 32 47 47z" />
    <glyph glyph-name="uniFC86" unicode="&#xfee0;&#xfef0;" horiz-adv-x="743" arabic-form="final" 
d="M743 113l16 -3v-107l-16 -3q-124 0 -142 127q-17 -20 -47 -33q21 -26 21 -63q0 -64 -27 -115q-29 -55 -98.5 -94t-162.5 -39q-74 0 -127.5 22t-81 59t-39.5 76t-12 83q0 107 50 195l39 -17q-24 -60 -24 -126q0 -175 212 -175q89 0 154 36.5t65 65.5q0 9 -13 18t-47 16
t-82 7l1 1l-19 -1l-5 10l39 96l10 5q180 0 180 50l-1 432l50 53h16v-481q0 -50 18 -72.5t73 -22.5z" />
    <glyph glyph-name="uniFC87" unicode="&#xfee0;&#xfef2;" horiz-adv-x="743" arabic-form="final" 
d="M743 113l16 -3v-107l-16 -3q-124 0 -142 127q-17 -20 -47 -33q21 -26 21 -63q0 -64 -27 -115q-29 -55 -98.5 -94t-162.5 -39q-74 0 -127.5 22t-81 59t-39.5 76t-12 83q0 107 50 195l39 -17q-24 -60 -24 -126q0 -175 212 -175q89 0 154 36.5t65 65.5q0 9 -13 18t-47 16
t-82 7l1 1l-19 -1l-5 10l39 96l10 5q180 0 180 50l-1 432l50 53h16v-481q0 -50 18 -72.5t73 -22.5zM346 -264q23 -26 54 -55q-9 -14 -22.5 -27.5t-22.5 -19.5l-9 -7q-21 15 -47 43q-9 -11 -20.5 -22t-18.5 -16l-7 -5q-14 10 -27.5 23.5t-19.5 21.5l-6 8q26 33 53 56
q20 -22 46 -47q29 32 47 47z" />
    <glyph glyph-name="uniFC8A" unicode="&#xfee8;&#xfeae;" horiz-adv-x="592" arabic-form="final" 
d="M439 407q-16 12 -30.5 27t-20.5 24l-7 10q27 36 58 62q27 -31 60 -61q-10 -16 -25 -31.5t-25 -23.5zM592 113l16 -3v-107l-16 -3q-106 0 -148 73q-19 29 -29 78q-26 -61 -98 -61q-22 0 -40 8v-1q0 -112 -51 -199t-130 -87q-55 0 -166 72l13 41q50 -10 92 -10q48 0 87 18
t60 44t32.5 50.5t11.5 42.5q0 20 -29 66t-29 52q0 14 16.5 43.5t28.5 42.5h16q17 -40 37.5 -55.5t56.5 -14.5q75 2 81 52q-1 14 -1 43q0 10 18.5 30t36.5 28l13 -5q0 -107 10 -155.5t34 -65.5t77 -17z" />
    <glyph glyph-name="uniFC8B" unicode="&#xfee8;&#xfeb0;" horiz-adv-x="592" arabic-form="final" 
d="M439 407q-16 12 -30.5 27t-20.5 24l-7 10q27 36 58 62q27 -31 60 -61q-10 -16 -25 -31.5t-25 -23.5zM203 324q-16 12 -30.5 27t-20.5 25l-7 9q27 36 58 62q27 -31 60 -61q-10 -16 -25 -31.5t-25 -22.5zM592 113l16 -3v-107l-16 -3q-106 0 -148 73q-19 29 -29 78
q-26 -61 -98 -61q-22 0 -40 8v-1q0 -112 -51 -199t-130 -87q-55 0 -166 72l13 41q50 -10 92 -10q48 0 87 18t60 44t32.5 50.5t11.5 42.5q0 20 -29 66t-29 52q0 14 16.5 43.5t28.5 42.5h16q17 -40 37.5 -55.5t56.5 -14.5q75 2 81 52q-1 14 -1 43q0 10 18.5 30t36.5 28l13 -5
q0 -107 10 -155.5t34 -65.5t77 -17z" />
    <glyph glyph-name="uniFC8D" unicode="&#xfee8;&#xfee6;" horiz-adv-x="847" arabic-form="final" 
d="M680 418q-16 12 -30.5 27t-21.5 25l-6 9q27 36 58 62q27 -31 60 -61q-10 -16 -25 -31.5t-25 -22.5zM261 292q-16 12 -30.5 27t-20.5 25l-7 9q27 36 58 62q27 -31 60 -61q-10 -16 -25 -31.5t-25 -22.5zM847 113l16 -3v-107l-16 -3q-101 0 -142 58q-29 42 -40 117
q-27 -58 -102 -58q-36 0 -59 20q4 -30 4 -39q0 -126 -62 -203t-183 -77q-64 0 -111.5 21t-73.5 55t-38.5 72t-12.5 78q0 105 53 190l39 -18q-27 -62 -27 -125q0 -66 43 -111t136 -45q76 0 126.5 33t50.5 74q0 33 -27.5 104.5t-27.5 76.5q0 16 17.5 44t35.5 42h17
q15 -46 38.5 -62.5t71.5 -16.5q73 0 84 46q-1 16 -1 47q0 9 19 29t37 29l12 -5q0 -118 10 -171.5t34.5 -72.5t78.5 -19z" />
    <glyph glyph-name="uniFC8E" unicode="&#xfee8;&#xfef0;" horiz-adv-x="725" arabic-form="final" 
d="M458 344q-16 12 -30.5 27t-21.5 25l-6 9q27 36 58 62q27 -31 60 -61q-10 -16 -25 -31.5t-25 -22.5zM473 285q38 0 69.5 -23t69.5 -75q34 -46 57 -60t56 -14l16 -3v-107l-16 -3q-52 0 -83 23t-73 79q-29 39 -55 58t-66 19t-75.5 -18.5t-35.5 -38.5q0 -13 24 -21.5
t59 -14.5t69.5 -15.5t58.5 -31t24 -54.5q0 -65 -26 -115q-25 -49 -93.5 -88t-168.5 -39q-73 0 -125.5 22t-80 59t-39.5 76t-12 83q0 107 50 195l39 -17q-24 -60 -24 -126q0 -175 208 -175q58 0 111.5 15.5t81 34.5t27.5 31q0 7 -6 12.5t-20 9.5t-25 6.5t-33 6.5
q-98 16 -124 43q-22 22 -27 65.5t8 78.5q19 50 68 86t112 36z" />
    <glyph glyph-name="uniFC8F" unicode="&#xfee8;&#xfef2;" horiz-adv-x="725" arabic-form="final" 
d="M458 344q-16 12 -30.5 27t-21.5 25l-6 9q27 36 58 62q27 -31 60 -61q-10 -16 -25 -31.5t-25 -22.5zM725 113l16 -3v-107l-16 -3q-52 0 -83 23t-73 79q-29 39 -55 58t-66 19t-75.5 -18.5t-35.5 -38.5q0 -13 24 -21.5t59 -14.5t69.5 -15.5t58.5 -31t24 -54.5
q0 -65 -26 -115q-25 -49 -93.5 -88t-168.5 -39q-73 0 -125.5 22t-80 59t-39.5 76t-12 83q0 107 50 195l39 -17q-24 -60 -24 -126q0 -175 208 -175q58 0 111.5 15.5t81 34.5t27.5 31q0 7 -6 12.5t-20 9.5t-25 6.5t-33 6.5q-98 16 -124 43q-22 22 -27 65.5t8 78.5q19 50 68 86
t112 36q38 0 69.5 -23t69.5 -75q34 -46 57 -60t56 -14zM350 -303q23 -26 54 -55q-9 -14 -22.5 -27.5t-22.5 -20.5l-9 -6q-21 15 -47 43q-9 -11 -20.5 -22t-18.5 -16l-7 -5q-14 10 -27.5 23.5t-19.5 21.5l-6 8q26 33 53 56q20 -22 46 -47q29 32 47 47z" />
    <glyph glyph-name="uniFC91" unicode="&#xfef4;&#xfeae;" horiz-adv-x="592" arabic-form="final" 
d="M592 113l16 -3v-107l-16 -3q-106 0 -148 73q-19 29 -29 78q-26 -61 -98 -61q-22 0 -40 8v-1q0 -112 -51 -199t-130 -87q-55 0 -166 72l13 41q50 -10 92 -10q48 0 87 18t60 44t32.5 50.5t11.5 42.5q0 20 -29 66t-29 52q0 14 16.5 43.5t28.5 42.5h16q17 -40 37.5 -55.5
t56.5 -14.5q75 2 81 52q-1 14 -1 43q0 10 18.5 30t36.5 28l13 -5q0 -107 10 -155.5t34 -65.5t77 -17zM446 -15q23 -26 54 -55q-9 -14 -22.5 -27.5t-22.5 -20.5l-9 -6q-21 15 -47 43q-9 -11 -20.5 -22t-18.5 -16l-7 -5q-14 10 -27.5 23.5t-19.5 21.5l-6 8q26 33 53 56
q20 -22 46 -47q29 32 47 47z" />
    <glyph glyph-name="uniFC92" unicode="&#xfef4;&#xfeb0;" horiz-adv-x="592" arabic-form="final" 
d="M203 324q-16 12 -30.5 27t-20.5 25l-7 9q27 36 58 62q27 -31 60 -61q-10 -16 -25 -31.5t-25 -22.5zM592 113l16 -3v-107l-16 -3q-106 0 -148 73q-19 29 -29 78q-26 -61 -98 -61q-22 0 -40 8v-1q0 -112 -51 -199t-130 -87q-55 0 -166 72l13 41q50 -10 92 -10q48 0 87 18
t60 44t32.5 50.5t11.5 42.5q0 20 -29 66t-29 52q0 14 16.5 43.5t28.5 42.5h16q17 -40 37.5 -55.5t56.5 -14.5q75 2 81 52q-1 14 -1 43q0 10 18.5 30t36.5 28l13 -5q0 -107 10 -155.5t34 -65.5t77 -17zM446 -15q23 -26 54 -55q-9 -14 -22.5 -27.5t-22.5 -20.5l-9 -6
q-21 15 -47 43q-9 -11 -20.5 -22t-18.5 -16l-7 -5q-14 10 -27.5 23.5t-19.5 21.5l-6 8q26 33 53 56q20 -22 46 -47q29 32 47 47z" />
    <glyph glyph-name="uniFC94" unicode="&#xfef4;&#xfee6;" horiz-adv-x="847" arabic-form="final" 
d="M261 292q-16 12 -30.5 27t-20.5 25l-7 9q27 36 58 62q27 -31 60 -61q-10 -16 -25 -31.5t-25 -22.5zM847 113l16 -3v-107l-16 -3q-101 0 -142 58q-29 42 -40 117q-27 -58 -102 -58q-36 0 -59 20q4 -30 4 -39q0 -126 -62 -203t-183 -77q-64 0 -111.5 21t-73.5 55t-38.5 72
t-12.5 78q0 105 53 190l39 -18q-27 -62 -27 -125q0 -66 43 -111t136 -45q76 0 126.5 33t50.5 74q0 33 -27.5 104.5t-27.5 76.5q0 16 17.5 44t35.5 42h17q15 -46 38.5 -62.5t71.5 -16.5q73 0 84 46q-1 16 -1 47q0 9 19 29t37 29l12 -5q0 -118 10 -171.5t34.5 -72.5t78.5 -19z
M673 6q23 -26 54 -55q-9 -14 -22.5 -27.5t-22.5 -19.5l-9 -7q-21 15 -47 43q-9 -11 -20.5 -22t-18.5 -16l-7 -5q-14 10 -27.5 23.5t-19.5 21.5l-6 8q26 33 53 56q20 -22 46 -47q29 32 47 47z" />
    <glyph glyph-name="uniFC95" unicode="&#xfef4;&#xfef0;" horiz-adv-x="725" arabic-form="final" 
d="M725 113l16 -3v-107l-16 -3q-52 0 -83 23t-73 79q-29 39 -55 58t-66 19t-75.5 -18.5t-35.5 -38.5q0 -13 24 -21.5t59 -14.5t69.5 -15.5t58.5 -31t24 -54.5q0 -65 -26 -115q-25 -49 -93.5 -88t-168.5 -39q-73 0 -125.5 22t-80 59t-39.5 76t-12 83q0 107 50 195l39 -17
q-24 -60 -24 -126q0 -175 208 -175q58 0 111.5 15.5t81 34.5t27.5 31q0 7 -6 12.5t-20 9.5t-25 6.5t-33 6.5q-98 16 -124 43q-22 22 -27 65.5t8 78.5q19 50 68 86t112 36q38 0 69.5 -23t69.5 -75q34 -46 57 -60t56 -14zM650 -195q23 -26 54 -55q-9 -14 -22.5 -27.5
t-22.5 -20.5l-9 -6q-21 15 -47 43q-9 -11 -20.5 -22t-18.5 -16l-7 -5q-14 10 -27.5 23.5t-19.5 21.5l-6 8q26 33 53 56q20 -22 46 -47q29 32 47 47z" />
    <glyph glyph-name="uniFC96" unicode="&#xfef4;&#xfef2;" horiz-adv-x="725" arabic-form="final" 
d="M725 113l16 -3v-107l-16 -3q-52 0 -83 23t-73 79q-29 39 -55 58t-66 19t-75.5 -18.5t-35.5 -38.5q0 -13 24 -21.5t59 -14.5t69.5 -15.5t58.5 -31t24 -54.5q0 -65 -26 -115q-25 -49 -93.5 -88t-168.5 -39q-73 0 -125.5 22t-80 59t-39.5 76t-12 83q0 107 50 195l39 -17
q-24 -60 -24 -126q0 -175 208 -175q58 0 111.5 15.5t81 34.5t27.5 31q0 7 -6 12.5t-20 9.5t-25 6.5t-33 6.5q-98 16 -124 43q-22 22 -27 65.5t8 78.5q19 50 68 86t112 36q38 0 69.5 -23t69.5 -75q34 -46 57 -60t56 -14zM650 -195q23 -26 54 -55q-9 -14 -22.5 -27.5
t-22.5 -20.5l-9 -6q-21 15 -47 43q-9 -11 -20.5 -22t-18.5 -16l-7 -5q-14 10 -27.5 23.5t-19.5 21.5l-6 8q26 33 53 56q20 -22 46 -47q29 32 47 47zM350 -303q23 -26 54 -55q-9 -14 -22.5 -27.5t-22.5 -20.5l-9 -6q-21 15 -47 43q-9 -11 -20.5 -22t-18.5 -16l-7 -5
q-14 10 -27.5 23.5t-19.5 21.5l-6 8q26 33 53 56q20 -22 46 -47q29 32 47 47z" />
    <glyph glyph-name="uniFC97" unicode="&#xfe8b;&#xfea0;" horiz-adv-x="556" arabic-form="initial" 
d="M268 572q16 30 37 48q-21 19 -21 51q0 31 19.5 55.5t49.5 24.5q28 0 42.5 -20t16.5 -41l-17 -10q-19 19 -42 19q-18 0 -29 -11t-11 -23q0 -23 44 -23q17 0 70 10l4 -9l-13 -45q-52 -6 -80 -14q-32 -7 -59 -25zM536 256l7 -14l-33 -92h-29q-84 0 -220 -72
q-83 -42 -137.5 -60t-123.5 -18l-16 3v105l16 5q77 0 130.5 11t121.5 36q52 20 76 27q-16 3 -66.5 13t-78.5 14.5t-73 9t-85 4.5l-6 13v1q22 66 48 72l15 4q16 3 19.5 4t18 5.5t20.5 7.5l19 9.5t21.5 13t19.5 15.5t20 20q12 14 36 44t36 42.5t31 25t38 12.5q30 0 48 -25.5
t18 -57.5q0 -57 -27 -102l-20 1q-5 71 -47 71q-17 0 -31.5 -11.5t-47.5 -46.5q-30 -32 -54 -51q15 -3 64.5 -13t80.5 -15.5t84.5 -9.5t106.5 -1zM231 1q27 -31 60 -61q-10 -16 -25 -31.5t-25 -22.5l-10 -8q-16 12 -30.5 27t-20.5 25l-7 9q27 36 58 62z" />
    <glyph glyph-name="uniFC98" unicode="&#xfe8b;&#xfea4;" horiz-adv-x="556" arabic-form="initial" 
d="M268 572q16 30 37 48q-21 19 -21 51q0 31 19.5 55.5t49.5 24.5q28 0 42.5 -20t16.5 -41l-17 -10q-19 19 -42 19q-18 0 -29 -11t-11 -23q0 -23 44 -23q17 0 70 10l4 -9l-13 -45q-52 -6 -80 -14q-32 -7 -59 -25zM536 256l7 -14l-33 -92h-29q-84 0 -220 -72
q-83 -42 -137.5 -60t-123.5 -18l-16 3v105l16 5q77 0 130.5 11t121.5 36q52 20 76 27q-16 3 -66.5 13t-78.5 14.5t-73 9t-85 4.5l-6 13v1q22 66 48 72l15 4q16 3 19.5 4t18 5.5t20.5 7.5l19 9.5t21.5 13t19.5 15.5t20 20q12 14 36 44t36 42.5t31 25t38 12.5q30 0 48 -25.5
t18 -57.5q0 -57 -27 -102l-20 1q-5 71 -47 71q-17 0 -31.5 -11.5t-47.5 -46.5q-30 -32 -54 -51q15 -3 64.5 -13t80.5 -15.5t84.5 -9.5t106.5 -1z" />
    <glyph glyph-name="uniFC99" unicode="&#xfe8b;&#xfea8;" horiz-adv-x="556" arabic-form="initial" 
d="M268 572q16 30 37 48q-21 19 -21 51q0 31 19.5 55.5t49.5 24.5q28 0 42.5 -20t16.5 -41l-17 -10q-19 19 -42 19q-18 0 -29 -11t-11 -23q0 -23 44 -23q17 0 70 10l4 -9l-13 -45q-52 -6 -80 -14q-32 -7 -59 -25zM103 396q-16 12 -30.5 27t-20.5 25l-7 9q27 36 58 62
q27 -31 60 -61q-10 -16 -25 -31.5t-25 -22.5zM536 256l7 -14l-33 -92h-29q-84 0 -220 -72q-83 -42 -137.5 -60t-123.5 -18l-16 3v105l16 5q77 0 130.5 11t121.5 36q52 20 76 27q-16 3 -66.5 13t-78.5 14.5t-73 9t-85 4.5l-6 13v1q22 66 48 72l15 4q16 3 19.5 4t18 5.5
t20.5 7.5l19 9.5t21.5 13t19.5 15.5t20 20q12 14 36 44t36 42.5t31 25t38 12.5q30 0 48 -25.5t18 -57.5q0 -57 -27 -102l-20 1q-5 71 -47 71q-17 0 -31.5 -11.5t-47.5 -46.5q-30 -32 -54 -51q15 -3 64.5 -13t80.5 -15.5t84.5 -9.5t106.5 -1z" />
    <glyph glyph-name="uniFC9A" unicode="&#xfe8b;&#xfee4;" horiz-adv-x="323" arabic-form="initial" 
d="M126 425q16 30 37 48q-21 19 -21 51q0 31 19.5 55.5t49.5 24.5q28 0 42.5 -20t16.5 -41l-17 -10q-19 19 -42 19q-18 0 -29 -11t-11 -23q0 -23 44 -23q17 0 70 10l4 -9l-13 -45q-52 -6 -80 -14q-32 -7 -59 -25zM300 93l2 -15l-41 -86l-13 -1q-13 5 -34 14t-32.5 13.5
t-24 8.5t-19.5 4q-9 0 -30 -8q-60 -23 -108 -23l-16 6v99l16 8q40 0 83 9q-21 35 -21 78q0 65 52 119.5t105 54.5q32 0 50 -19.5t18 -48.5q0 -47 -28 -82h-14q-3 8 -8 16t-18 16t-30 8q-30 0 -55 -21t-25 -34q0 -10 10.5 -21t32 -23t42 -22t53.5 -25t53 -25z" />
    <glyph glyph-name="uniFC9B" unicode="&#xfe8b;&#xfeec;" horiz-adv-x="569" arabic-form="initial" 
d="M332 340q16 30 37 48q-21 19 -21 51q0 31 19.5 55.5t49.5 24.5q28 0 42.5 -20t16.5 -41l-17 -10q-19 19 -42 19q-18 0 -29 -11t-11 -23q0 -23 44 -23q17 0 70 10l4 -9l-13 -45q-52 -6 -80 -14q-32 -7 -59 -25zM443 292q40 0 65 -26t25 -62q0 -43 -18 -83h-15l-5 9
q-5 8 -8 13t-10.5 13.5t-15 13t-19 8.5t-24.5 4q-49 0 -88 -35.5t-39 -103.5q0 -22 3 -44t6.5 -38t10.5 -36.5t10.5 -29.5t12.5 -28.5t10 -22.5l-52 -123h-17q-78 49 -132 131.5t-54 177.5v3q-32 -33 -89 -33l-16 3v107l16 3q82 0 99 35q13 25 38 91l39 -15
q-26 -66 -26 -129q0 -112 94 -199q-10 60 -10 115q0 123 65.5 202t143.5 79z" />
    <glyph glyph-name="uniFC9C" unicode="&#xfe91;&#xfea0;" horiz-adv-x="556" arabic-form="initial" 
d="M536 256l7 -14l-33 -92h-29q-84 0 -220 -72q-83 -42 -137.5 -60t-123.5 -18l-16 3v105l16 5q77 0 130.5 11t121.5 36q52 20 76 27q-16 3 -66.5 13t-78.5 14.5t-73 9t-85 4.5l-6 13v1q22 66 48 72l15 4q16 3 19.5 4t18 5.5t20.5 7.5l19 9.5t21.5 13t19.5 15.5t20 20
q12 14 36 44t36 42.5t31 25t38 12.5q30 0 48 -25.5t18 -57.5q0 -57 -27 -102l-20 1q-5 71 -47 71q-17 0 -31.5 -11.5t-47.5 -46.5q-30 -32 -54 -51q15 -3 64.5 -13t80.5 -15.5t84.5 -9.5t106.5 -1zM432 98q24 -29 54 -56q-9 -14 -22.5 -28t-22.5 -21l-9 -7
q-15 11 -28.5 24.5t-19.5 21.5l-5 9q24 33 53 57zM232 5q24 -29 54 -56q-9 -14 -22.5 -28t-22.5 -21l-9 -7q-15 11 -28.5 24.5t-19.5 22.5l-5 8q24 33 53 57z" />
    <glyph glyph-name="uniFC9D" unicode="&#xfe91;&#xfea4;" horiz-adv-x="556" arabic-form="initial" 
d="M536 256l7 -14l-33 -92h-29q-84 0 -220 -72q-83 -42 -137.5 -60t-123.5 -18l-16 3v105l16 5q77 0 130.5 11t121.5 36q52 20 76 27q-16 3 -66.5 13t-78.5 14.5t-73 9t-85 4.5l-6 13v1q22 66 48 72l15 4q16 3 19.5 4t18 5.5t20.5 7.5l19 9.5t21.5 13t19.5 15.5t20 20
q12 14 36 44t36 42.5t31 25t38 12.5q30 0 48 -25.5t18 -57.5q0 -57 -27 -102l-20 1q-5 71 -47 71q-17 0 -31.5 -11.5t-47.5 -46.5q-30 -32 -54 -51q15 -3 64.5 -13t80.5 -15.5t84.5 -9.5t106.5 -1zM431 94q27 -31 60 -61q-10 -16 -25 -31.5t-25 -23.5l-10 -7
q-16 12 -30.5 27t-20.5 24l-7 10q27 36 58 62z" />
    <glyph glyph-name="uniFC9E" unicode="&#xfe91;&#xfea8;" horiz-adv-x="556" arabic-form="initial" 
d="M103 396q-16 12 -30.5 27t-20.5 25l-7 9q27 36 58 62q27 -31 60 -61q-10 -16 -25 -31.5t-25 -22.5zM536 256l7 -14l-33 -92h-29q-84 0 -220 -72q-83 -42 -137.5 -60t-123.5 -18l-16 3v105l16 5q77 0 130.5 11t121.5 36q52 20 76 27q-16 3 -66.5 13t-78.5 14.5t-73 9
t-85 4.5l-6 13v1q22 66 48 72l15 4q16 3 19.5 4t18 5.5t20.5 7.5l19 9.5t21.5 13t19.5 15.5t20 20q12 14 36 44t36 42.5t31 25t38 12.5q30 0 48 -25.5t18 -57.5q0 -57 -27 -102l-20 1q-5 71 -47 71q-17 0 -31.5 -11.5t-47.5 -46.5q-30 -32 -54 -51q15 -3 64.5 -13
t80.5 -15.5t84.5 -9.5t106.5 -1zM431 94q27 -31 60 -61q-10 -16 -25 -31.5t-25 -23.5l-10 -7q-16 12 -30.5 27t-20.5 24l-7 10q27 36 58 62z" />
    <glyph glyph-name="uniFC9F" unicode="&#xfe91;&#xfee4;" horiz-adv-x="323" arabic-form="initial" 
d="M300 93l2 -15l-41 -86l-13 -1q-13 5 -34 14t-32.5 13.5t-24 8.5t-19.5 4q-9 0 -30 -8q-60 -23 -108 -23l-16 6v99l16 8q40 0 83 9q-21 35 -21 78q0 65 52 119.5t105 54.5q32 0 50 -19.5t18 -48.5q0 -47 -28 -82h-14q-3 8 -8 16t-18 16t-30 8q-30 0 -55 -21t-25 -34
q0 -10 10.5 -21t32 -23t42 -22t53.5 -25t53 -25zM191 -39q27 -31 60 -61q-10 -16 -25 -31.5t-25 -22.5l-10 -8q-16 12 -30.5 27t-20.5 25l-7 9q27 36 58 62z" />
    <glyph glyph-name="uniFCA0" unicode="&#xfe91;&#xfeec;" horiz-adv-x="569" arabic-form="initial" 
d="M443 292q40 0 65 -26t25 -62q0 -43 -18 -83h-15l-5 9q-5 8 -8 13t-10.5 13.5t-15 13t-19 8.5t-24.5 4q-49 0 -88 -35.5t-39 -103.5q0 -22 3 -44t6.5 -38t10.5 -36.5t10.5 -29.5t12.5 -28.5t10 -22.5l-52 -123h-17q-78 49 -132 131.5t-54 177.5v3q-32 -33 -89 -33l-16 3
v107l16 3q82 0 99 35q13 25 38 91l39 -15q-26 -66 -26 -129q0 -112 94 -199q-10 60 -10 115q0 123 65.5 202t143.5 79zM424 89q27 -31 60 -61q-10 -16 -25 -31.5t-25 -22.5l-10 -8q-16 12 -30.5 27t-21.5 25l-6 9q27 36 58 62z" />
    <glyph glyph-name="uniFCA1" unicode="&#xfe97;&#xfea0;" horiz-adv-x="556" arabic-form="initial" 
d="M303 583q-15 11 -28.5 24.5t-19.5 21.5l-6 8q26 34 54 57q20 -22 47 -48q32 35 48 48q23 -26 54 -56q-9 -14 -22.5 -27.5t-22.5 -20.5l-9 -7q-26 17 -48 44q-9 -11 -20.5 -22t-19.5 -17zM536 256l7 -14l-33 -92h-29q-84 0 -220 -72q-83 -42 -137.5 -60t-123.5 -18l-16 3
v105l16 5q77 0 130.5 11t121.5 36q52 20 76 27q-16 3 -66.5 13t-78.5 14.5t-73 9t-85 4.5l-6 13v1q22 66 48 72l15 4q16 3 19.5 4t18 5.5t20.5 7.5l19 9.5t21.5 13t19.5 15.5t20 20q12 14 36 44t36 42.5t31 25t38 12.5q30 0 48 -25.5t18 -57.5q0 -57 -27 -102l-20 1
q-5 71 -47 71q-17 0 -31.5 -11.5t-47.5 -46.5q-30 -32 -54 -51q15 -3 64.5 -13t80.5 -15.5t84.5 -9.5t106.5 -1zM232 5q24 -29 54 -56q-9 -14 -22.5 -28t-22.5 -21l-9 -7q-15 11 -28.5 24.5t-19.5 22.5l-5 8q24 33 53 57z" />
    <glyph glyph-name="uniFCA2" unicode="&#xfe97;&#xfea4;" horiz-adv-x="556" arabic-form="initial" 
d="M303 583q-15 11 -28.5 24.5t-19.5 21.5l-6 8q26 34 54 57q20 -22 47 -48q32 35 48 48q23 -26 54 -56q-9 -14 -22.5 -27.5t-22.5 -20.5l-9 -7q-26 17 -48 44q-9 -11 -20.5 -22t-19.5 -17zM536 256l7 -14l-33 -92h-29q-84 0 -220 -72q-83 -42 -137.5 -60t-123.5 -18l-16 3
v105l16 5q77 0 130.5 11t121.5 36q52 20 76 27q-16 3 -66.5 13t-78.5 14.5t-73 9t-85 4.5l-6 13v1q22 66 48 72l15 4q16 3 19.5 4t18 5.5t20.5 7.5l19 9.5t21.5 13t19.5 15.5t20 20q12 14 36 44t36 42.5t31 25t38 12.5q30 0 48 -25.5t18 -57.5q0 -57 -27 -102l-20 1
q-5 71 -47 71q-17 0 -31.5 -11.5t-47.5 -46.5q-30 -32 -54 -51q15 -3 64.5 -13t80.5 -15.5t84.5 -9.5t106.5 -1z" />
    <glyph glyph-name="uniFCA3" unicode="&#xfe97;&#xfea8;" horiz-adv-x="556" arabic-form="initial" 
d="M303 583q-15 11 -28.5 24.5t-19.5 21.5l-6 8q26 34 54 57q20 -22 47 -48q32 35 48 48q23 -26 54 -56q-9 -14 -22.5 -27.5t-22.5 -20.5l-9 -7q-26 17 -48 44q-9 -11 -20.5 -22t-19.5 -17zM103 396q-16 12 -30.5 27t-20.5 25l-7 9q27 36 58 62q27 -31 60 -61
q-10 -16 -25 -31.5t-25 -22.5zM536 256l7 -14l-33 -92h-29q-84 0 -220 -72q-83 -42 -137.5 -60t-123.5 -18l-16 3v105l16 5q77 0 130.5 11t121.5 36q52 20 76 27q-16 3 -66.5 13t-78.5 14.5t-73 9t-85 4.5l-6 13v1q22 66 48 72l15 4q16 3 19.5 4t18 5.5t20.5 7.5l19 9.5
t21.5 13t19.5 15.5t20 20q12 14 36 44t36 42.5t31 25t38 12.5q30 0 48 -25.5t18 -57.5q0 -57 -27 -102l-20 1q-5 71 -47 71q-17 0 -31.5 -11.5t-47.5 -46.5q-30 -32 -54 -51q15 -3 64.5 -13t80.5 -15.5t84.5 -9.5t106.5 -1z" />
    <glyph glyph-name="uniFCA4" unicode="&#xfe97;&#xfee4;" horiz-adv-x="323" arabic-form="initial" 
d="M161 436q-15 11 -28.5 24.5t-19.5 21.5l-6 8q26 34 54 57q20 -22 47 -48q32 35 48 48q23 -26 54 -56q-9 -14 -22.5 -27.5t-22.5 -20.5l-9 -7q-26 17 -48 44q-9 -11 -20.5 -22t-19.5 -16zM109 209q0 -10 10.5 -21t32 -23t42 -22t53.5 -25t53 -25l2 -15l-41 -86l-13 -1
q-13 5 -34 14t-32.5 13.5t-24 8.5t-19.5 4q-9 0 -30 -8q-60 -23 -108 -23l-16 6v99l16 8q40 0 83 9q-21 35 -21 78q0 65 52 119.5t105 54.5q32 0 50 -19.5t18 -48.5q0 -47 -28 -82h-14q-3 8 -8 16t-18 16t-30 8q-30 0 -55 -21t-25 -34z" />
    <glyph glyph-name="uniFCA5" unicode="&#xfe97;&#xfeec;" horiz-adv-x="569" arabic-form="initial" 
d="M367 351q-15 11 -28.5 24.5t-19.5 21.5l-6 8q26 34 54 57q20 -22 47 -48q32 35 48 48q23 -26 54 -56q-9 -14 -22.5 -27.5t-22.5 -20.5l-9 -7q-26 17 -48 44q-9 -11 -20.5 -22t-19.5 -17zM443 292q40 0 65 -26t25 -62q0 -43 -18 -83h-15l-5 9q-5 8 -8 13t-10.5 13.5
t-15 13t-19 8.5t-24.5 4q-49 0 -88 -35.5t-39 -103.5q0 -22 3 -44t6.5 -38t10.5 -36.5t10.5 -29.5t12.5 -28.5t10 -22.5l-52 -123h-17q-78 49 -132 131.5t-54 177.5v3q-32 -33 -89 -33l-16 3v107l16 3q82 0 99 35q13 25 38 91l39 -15q-26 -66 -26 -129q0 -112 94 -199
q-10 60 -10 115q0 123 65.5 202t143.5 79z" />
    <glyph glyph-name="uniFCA6" unicode="&#xfe9b;&#xfee4;" horiz-adv-x="323" arabic-form="initial" 
d="M208 540q-13 10 -25 22.5t-18 20.5l-6 8q24 29 49 50q22 -24 50 -49q-9 -13 -21.5 -26t-20.5 -20zM162 437q-14 10 -27 23t-19 21l-6 8q24 32 52 56q19 -23 46 -48q29 32 47 48q24 -28 52 -55q-9 -13 -22 -26.5t-21 -19.5l-9 -7q-27 17 -46 43q-9 -11 -20.5 -22
t-18.5 -16zM109 209q0 -10 10.5 -21t32 -23t42 -22t53.5 -25t53 -25l2 -15l-41 -86l-13 -1q-13 5 -34 14t-32.5 13.5t-24 8.5t-19.5 4q-9 0 -30 -8q-60 -23 -108 -23l-16 6v99l16 8q40 0 83 9q-21 35 -21 78q0 65 52 119.5t105 54.5q32 0 50 -19.5t18 -48.5q0 -47 -28 -82
h-14q-3 8 -8 16t-18 16t-30 8q-30 0 -55 -21t-25 -34z" />
    <glyph glyph-name="uniFCB0" unicode="&#xfeb3;&#xfee4;" horiz-adv-x="811" arabic-form="initial" 
d="M740 372q35 -63 35 -130q0 -54 -29.5 -102t-63.5 -48q-32 0 -75 18.5t-57 38.5q-28 -57 -95 -57q-28 0 -52.5 13t-35.5 23.5t-33 35.5q-20 23 -30.5 33t-31 21t-43.5 11q-39 0 -69.5 -17.5t-30.5 -35.5q0 -4 4 -8t13.5 -9.5t19 -10t27 -12t31 -13.5t37.5 -15.5t40 -16.5
l1 -14l-41 -85l-13 -1q-102 41 -113 41q-10 0 -27 -7q-69 -25 -108 -25l-16 6v99l16 8q42 0 85 9q-7 25 -7 48q0 63 54 116t115 53q27 0 50.5 -11.5t35 -23t30.5 -33.5q21 -24 29.5 -33.5t29 -21t43.5 -11.5q47 0 58 23q14 27 41 97l44 -13q-9 -47 -9 -67q0 -15 40 -31.5
t60 -16.5q17 0 17 10t-16 44t-16 40q0 15 13.5 41.5t26.5 39.5h16z" />
    <glyph glyph-name="uniFCB3" unicode="&#xfebb;&#xfee4;" horiz-adv-x="909" arabic-form="initial" 
d="M703 452q65 0 117.5 -52.5t52.5 -112.5q0 -42 -17 -81t-51 -62q-86 -58 -250 -58q-90 0 -138 19t-84 59q-36 41 -55 52q-22 13 -49 13q-39 0 -69.5 -17.5t-30.5 -35.5q0 -4 4 -8t13.5 -9.5t19 -10t27 -12t31 -13.5t37.5 -15.5t40 -16.5l1 -14l-41 -85l-13 -1
q-102 41 -113 41q-10 0 -27 -7q-61 -25 -108 -25l-16 6v99l16 8q42 0 85 9q-7 25 -7 48q0 63 54 116t115 53q10 0 19 -1.5t16 -3t15 -5.5t12.5 -6t12 -8t10.5 -8.5t10.5 -10.5t9 -9.5t9.5 -11t9 -10.5q23 -27 43 -39q64 93 141 159.5t149 66.5zM573 198q71 0 130 10.5t86 23
t27 21.5q0 6 -9 19.5t-25.5 29t-44.5 27t-60 11.5q-56 0 -109 -36t-111 -96q40 -10 116 -10z" />
    <glyph glyph-name="uniFCB7" unicode="&#xfebf;&#xfee4;" horiz-adv-x="909" arabic-form="initial" 
d="M695 512q-16 12 -30.5 27t-20.5 25l-7 9q27 36 58 62q27 -31 60 -61q-10 -16 -25 -31.5t-25 -22.5zM703 452q65 0 117.5 -52.5t52.5 -112.5q0 -42 -17 -81t-51 -62q-86 -58 -250 -58q-90 0 -138 19t-84 59q-36 41 -55 52q-22 13 -49 13q-39 0 -69.5 -17.5t-30.5 -35.5
q0 -4 4 -8t13.5 -9.5t19 -10t27 -12t31 -13.5t37.5 -15.5t40 -16.5l1 -14l-41 -85l-13 -1q-102 41 -113 41q-10 0 -27 -7q-61 -25 -108 -25l-16 6v99l16 8q42 0 85 9q-7 25 -7 48q0 63 54 116t115 53q10 0 19 -1.5t16 -3t15 -5.5t12.5 -6t12 -8t10.5 -8.5t10.5 -10.5t9 -9.5
t9.5 -11t9 -10.5q23 -27 43 -39q64 93 141 159.5t149 66.5zM573 198q71 0 130 10.5t86 23t27 21.5q0 6 -9 19.5t-25.5 29t-44.5 27t-60 11.5q-56 0 -109 -36t-111 -96q40 -10 116 -10z" />
    <glyph glyph-name="uniFCC9" unicode="&#xfedf;&#xfea0;" horiz-adv-x="560" arabic-form="initial" 
d="M536 252l7 -13l-33 -89h-29q-84 0 -220 -72q-83 -42 -137.5 -60t-123.5 -18l-16 3v105l16 5q77 0 130.5 11t121.5 36q2 1 27.5 10.5t42.5 14.5q-14 3 -52 10.5t-60 11.5t-56 9.5t-65.5 7.5t-62.5 2l-6 13q14 68 43 73q160 26 179 32q18 7 18 14v225q-18 29 -18 51
q0 15 17.5 42t35.5 39l23 -9v-28q0 -14 9.5 -28t41.5 -50v-24l-43 -55v-91q0 -53 -17 -88t-69 -58q168 -38 296 -32zM227 -1q27 -31 60 -61q-10 -16 -25 -31.5t-25 -22.5l-10 -8q-16 12 -30.5 27t-20.5 25l-7 9q27 36 58 62z" />
    <glyph glyph-name="uniFCCA" unicode="&#xfedf;&#xfea4;" horiz-adv-x="560" arabic-form="initial" 
d="M536 252l7 -13l-33 -89h-29q-84 0 -220 -72q-83 -42 -137.5 -60t-123.5 -18l-16 3v105l16 5q77 0 130.5 11t121.5 36q2 1 27.5 10.5t42.5 14.5q-14 3 -52 10.5t-60 11.5t-56 9.5t-65.5 7.5t-62.5 2l-6 13q14 68 43 73q160 26 179 32q18 7 18 14v225q-18 29 -18 51
q0 15 17.5 42t35.5 39l23 -9v-28q0 -14 9.5 -28t41.5 -50v-24l-43 -55v-91q0 -53 -17 -88t-69 -58q168 -38 296 -32z" />
    <glyph glyph-name="uniFCCB" unicode="&#xfedf;&#xfea8;" horiz-adv-x="560" arabic-form="initial" 
d="M536 252l7 -13l-33 -89h-29q-84 0 -220 -72q-83 -42 -137.5 -60t-123.5 -18l-16 3v105l16 5q77 0 130.5 11t121.5 36q2 1 27.5 10.5t42.5 14.5q-14 3 -52 10.5t-60 11.5t-56 9.5t-65.5 7.5t-62.5 2l-6 13q14 68 43 73q160 26 179 32q18 7 18 14v225q-18 29 -18 51
q0 15 17.5 42t35.5 39l23 -9v-28q0 -14 9.5 -28t41.5 -50v-24l-43 -55v-91q0 -53 -17 -88t-69 -58q168 -38 296 -32zM113 391q-16 12 -30.5 27t-20.5 24l-7 10q27 36 58 62q27 -31 60 -61q-10 -16 -25 -31.5t-25 -23.5z" />
    <glyph glyph-name="uniFCCC" unicode="&#xfedf;&#xfee4;" horiz-adv-x="319" arabic-form="initial" 
d="M302 84l1 -14l-42 -85l-12 -1q-84 49 -100 49q-14 0 -45 -11q-66 -22 -104 -22l-16 3v107l16 3q22 0 109 15q-17 32 -17 80v349q-18 27 -18 50q0 15 17.5 42t35.5 40l23 -10v-28q0 -14 9 -27t42 -50v-25l-43 -54v-306q6 -10 18 -21t30 -23.5t31 -21t35.5 -22t29.5 -17.5z
" />
    <glyph glyph-name="uniFCD2" unicode="&#xfee7;&#xfea0;" horiz-adv-x="556" arabic-form="initial" 
d="M350 576q-16 12 -30.5 27t-21.5 25l-6 9q27 36 58 62q27 -31 60 -61q-10 -16 -25 -31.5t-25 -22.5zM536 256l7 -14l-33 -92h-29q-84 0 -220 -72q-83 -42 -137.5 -60t-123.5 -18l-16 3v105l16 5q77 0 130.5 11t121.5 36q52 20 76 27q-16 3 -66.5 13t-78.5 14.5t-73 9
t-85 4.5l-6 13v1q22 66 48 72l15 4q16 3 19.5 4t18 5.5t20.5 7.5l19 9.5t21.5 13t19.5 15.5t20 20q12 14 36 44t36 42.5t31 25t38 12.5q30 0 48 -25.5t18 -57.5q0 -57 -27 -102l-20 1q-5 71 -47 71q-17 0 -31.5 -11.5t-47.5 -46.5q-30 -32 -54 -51q15 -3 64.5 -13
t80.5 -15.5t84.5 -9.5t106.5 -1zM231 1q27 -31 60 -61q-10 -16 -25 -31.5t-25 -22.5l-10 -8q-16 12 -30.5 27t-20.5 25l-7 9q27 36 58 62z" />
    <glyph glyph-name="uniFCD3" unicode="&#xfee7;&#xfea4;" horiz-adv-x="556" arabic-form="initial" 
d="M350 576q-16 12 -30.5 27t-21.5 25l-6 9q27 36 58 62q27 -31 60 -61q-10 -16 -25 -31.5t-25 -22.5zM536 256l7 -14l-33 -92h-29q-84 0 -220 -72q-83 -42 -137.5 -60t-123.5 -18l-16 3v105l16 5q77 0 130.5 11t121.5 36q52 20 76 27q-16 3 -66.5 13t-78.5 14.5t-73 9
t-85 4.5l-6 13v1q22 66 48 72l15 4q16 3 19.5 4t18 5.5t20.5 7.5l19 9.5t21.5 13t19.5 15.5t20 20q12 14 36 44t36 42.5t31 25t38 12.5q30 0 48 -25.5t18 -57.5q0 -57 -27 -102l-20 1q-5 71 -47 71q-17 0 -31.5 -11.5t-47.5 -46.5q-30 -32 -54 -51q15 -3 64.5 -13
t80.5 -15.5t84.5 -9.5t106.5 -1z" />
    <glyph glyph-name="uniFCD4" unicode="&#xfee7;&#xfea8;" horiz-adv-x="556" arabic-form="initial" 
d="M350 576q-16 12 -30.5 27t-21.5 25l-6 9q27 36 58 62q27 -31 60 -61q-10 -16 -25 -31.5t-25 -22.5zM103 396q-16 12 -30.5 27t-20.5 25l-7 9q27 36 58 62q27 -31 60 -61q-10 -16 -25 -31.5t-25 -22.5zM536 256l7 -14l-33 -92h-29q-84 0 -220 -72q-83 -42 -137.5 -60
t-123.5 -18l-16 3v105l16 5q77 0 130.5 11t121.5 36q52 20 76 27q-16 3 -66.5 13t-78.5 14.5t-73 9t-85 4.5l-6 13v1q22 66 48 72l15 4q16 3 19.5 4t18 5.5t20.5 7.5l19 9.5t21.5 13t19.5 15.5t20 20q12 14 36 44t36 42.5t31 25t38 12.5q30 0 48 -25.5t18 -57.5
q0 -57 -27 -102l-20 1q-5 71 -47 71q-17 0 -31.5 -11.5t-47.5 -46.5q-30 -32 -54 -51q15 -3 64.5 -13t80.5 -15.5t84.5 -9.5t106.5 -1z" />
    <glyph glyph-name="uniFCD5" unicode="&#xfee7;&#xfee4;" horiz-adv-x="323" arabic-form="initial" 
d="M208 429q-16 12 -30.5 27t-21.5 24l-6 10q27 36 58 62q27 -31 60 -61q-10 -16 -25 -31.5t-25 -23.5zM300 93l2 -15l-41 -86l-13 -1q-13 5 -34 14t-32.5 13.5t-24 8.5t-19.5 4q-9 0 -30 -8q-60 -23 -108 -23l-16 6v99l16 8q40 0 83 9q-21 35 -21 78q0 65 52 119.5
t105 54.5q32 0 50 -19.5t18 -48.5q0 -47 -28 -82h-14q-3 8 -8 16t-18 16t-30 8q-30 0 -55 -21t-25 -34q0 -10 10.5 -21t32 -23t42 -22t53.5 -25t53 -25z" />
    <glyph glyph-name="uniFCD6" unicode="&#xfee7;&#xfeec;" horiz-adv-x="569" arabic-form="initial" 
d="M414 344q-16 12 -30.5 27t-21.5 25l-6 9q27 36 58 62q27 -31 60 -61q-10 -16 -25 -31.5t-25 -22.5zM443 292q40 0 65 -26t25 -62q0 -43 -18 -83h-15l-5 9q-5 8 -8 13t-10.5 13.5t-15 13t-19 8.5t-24.5 4q-49 0 -88 -35.5t-39 -103.5q0 -22 3 -44t6.5 -38t10.5 -36.5
t10.5 -29.5t12.5 -28.5t10 -22.5l-52 -123h-17q-78 49 -132 131.5t-54 177.5v3q-32 -33 -89 -33l-16 3v107l16 3q82 0 99 35q13 25 38 91l39 -15q-26 -66 -26 -129q0 -112 94 -199q-10 60 -10 115q0 123 65.5 202t143.5 79z" />
    <glyph glyph-name="uniFCDA" unicode="&#xfef3;&#xfea0;" horiz-adv-x="556" arabic-form="initial" 
d="M481 150q-84 0 -220 -72q-83 -42 -137.5 -60t-123.5 -18l-16 3v105l16 5q77 0 130.5 11t121.5 36q52 20 76 27q-16 3 -66.5 13t-78.5 14.5t-73 9t-85 4.5l-6 13v1q22 66 48 72l15 4q16 3 19.5 4t18 5.5t20.5 7.5l19 9.5t21.5 13t19.5 15.5t20 20q12 14 36 44t36 42.5
t31 25t38 12.5q30 0 48 -25.5t18 -57.5q0 -57 -27 -102l-20 1q-5 71 -47 71q-17 0 -31.5 -11.5t-47.5 -46.5q-30 -32 -54 -51q15 -3 64.5 -13t80.5 -15.5t84.5 -9.5t106.5 -1l7 -14l-33 -92h-29zM478 90q23 -26 54 -55q-9 -14 -22.5 -27.5t-22.5 -19.5l-9 -7q-21 15 -47 43
q-9 -11 -20.5 -22t-18.5 -16l-7 -5q-14 10 -27.5 23.5t-19.5 21.5l-6 8q26 33 53 56q20 -22 46 -47q29 32 47 47zM232 5q24 -29 54 -56q-9 -14 -22.5 -28t-22.5 -21l-9 -7q-15 11 -28.5 24.5t-19.5 22.5l-5 8q24 33 53 57z" />
    <glyph glyph-name="uniFCDB" unicode="&#xfef3;&#xfea4;" horiz-adv-x="556" arabic-form="initial" 
d="M510 150h-29q-84 0 -220 -72q-83 -42 -137.5 -60t-123.5 -18l-16 3v105l16 5q77 0 130.5 11t121.5 36q52 20 76 27q-16 3 -66.5 13t-78.5 14.5t-73 9t-85 4.5l-6 13v1q22 66 48 72l15 4q16 3 19.5 4t18 5.5t20.5 7.5l19 9.5t21.5 13t19.5 15.5t20 20q12 14 36 44t36 42.5
t31 25t38 12.5q30 0 48 -25.5t18 -57.5q0 -57 -27 -102l-20 1q-5 71 -47 71q-17 0 -31.5 -11.5t-47.5 -46.5q-30 -32 -54 -51q15 -3 64.5 -13t80.5 -15.5t84.5 -9.5t106.5 -1l7 -14zM478 90q23 -26 54 -55q-9 -14 -22.5 -27.5t-22.5 -19.5l-9 -7q-21 15 -47 43
q-9 -11 -20.5 -22t-18.5 -16l-7 -5q-14 10 -27.5 23.5t-19.5 21.5l-6 8q26 33 53 56q20 -22 46 -47q29 32 47 47z" />
    <glyph glyph-name="uniFCDC" unicode="&#xfef3;&#xfea8;" horiz-adv-x="556" arabic-form="initial" 
d="M103 396q-16 12 -30.5 27t-20.5 25l-7 9q27 36 58 62q27 -31 60 -61q-10 -16 -25 -31.5t-25 -22.5zM510 150h-29q-84 0 -220 -72q-83 -42 -137.5 -60t-123.5 -18l-16 3v105l16 5q77 0 130.5 11t121.5 36q52 20 76 27q-16 3 -66.5 13t-78.5 14.5t-73 9t-85 4.5l-6 13v1
q22 66 48 72l15 4q16 3 19.5 4t18 5.5t20.5 7.5l19 9.5t21.5 13t19.5 15.5t20 20q12 14 36 44t36 42.5t31 25t38 12.5q30 0 48 -25.5t18 -57.5q0 -57 -27 -102l-20 1q-5 71 -47 71q-17 0 -31.5 -11.5t-47.5 -46.5q-30 -32 -54 -51q15 -3 64.5 -13t80.5 -15.5t84.5 -9.5
t106.5 -1l7 -14zM478 90q23 -26 54 -55q-9 -14 -22.5 -27.5t-22.5 -19.5l-9 -7q-21 15 -47 43q-9 -11 -20.5 -22t-18.5 -16l-7 -5q-14 10 -27.5 23.5t-19.5 21.5l-6 8q26 33 53 56q20 -22 46 -47q29 32 47 47z" />
    <glyph glyph-name="uniFCDD" unicode="&#xfef3;&#xfee4;" horiz-adv-x="323" arabic-form="initial" 
d="M138 31q-9 0 -30 -8q-60 -23 -108 -23l-16 6v99l16 8q40 0 83 9q-21 35 -21 78q0 65 52 119.5t105 54.5q32 0 50 -19.5t18 -48.5q0 -47 -28 -82h-14q-3 8 -8 16t-18 16t-30 8q-30 0 -55 -21t-25 -34q0 -10 10.5 -21t32 -23t42 -22t53.5 -25t53 -25l2 -15l-41 -86l-13 -1
q-13 5 -34 14t-32.5 13.5t-24 8.5t-19.5 4zM238 -43q23 -26 54 -55q-9 -14 -22.5 -27.5t-22.5 -20.5l-9 -6q-21 15 -47 43q-9 -11 -20.5 -22t-18.5 -16l-7 -5q-14 10 -27.5 23.5t-19.5 21.5l-6 8q26 33 53 56q20 -22 46 -47q29 32 47 47z" />
    <glyph glyph-name="uniFCDE" unicode="&#xfef3;&#xfeec;" horiz-adv-x="569" arabic-form="initial" 
d="M418 182q-49 0 -88 -35.5t-39 -103.5q0 -22 3 -44t6.5 -38t10.5 -36.5t10.5 -29.5t12.5 -28.5t10 -22.5l-52 -123h-17q-78 49 -132 131.5t-54 177.5v3q-32 -33 -89 -33l-16 3v107l16 3q82 0 99 35q13 25 38 91l39 -15q-26 -66 -26 -129q0 -112 94 -199q-10 60 -10 115
q0 123 65.5 202t143.5 79q40 0 65 -26t25 -62q0 -43 -18 -83h-15l-5 9q-5 8 -8 13t-10.5 13.5t-15 13t-19 8.5t-24.5 4zM471 85q23 -26 54 -55q-9 -14 -22.5 -27.5t-22.5 -20.5l-9 -6q-21 15 -47 43q-9 -11 -20.5 -22t-18.5 -16l-7 -5q-14 10 -27.5 23.5t-19.5 21.5l-6 8
q26 33 53 56q20 -22 46 -47q29 32 47 47z" />
    <glyph glyph-name="uniFCFB" unicode="&#xfeb3;&#xfef0;" horiz-adv-x="1074" arabic-form="isolated" 
d="M1003 310q35 -63 35 -130q0 -54 -29.5 -102t-63.5 -48q-32 0 -76.5 19.5t-56.5 38.5q-31 -58 -99 -58q-33 0 -59 14.5t-40.5 31t-44.5 56.5q-29 39 -55 58t-66 19t-75.5 -18.5t-35.5 -38.5q0 -13 24 -21.5t59 -14.5t69.5 -15.5t58.5 -31t24 -54.5q0 -65 -26 -115
t-94 -88.5t-168 -38.5q-73 0 -125.5 22t-80 59t-39.5 76t-12 83q0 107 50 195l39 -17q-24 -60 -24 -126q0 -175 208 -175q58 0 111.5 15.5t81 34.5t27.5 31q0 7 -6 12.5t-20 9.5t-25 6.5t-33 6.5q-98 16 -124 43q-22 22 -27 65.5t8 78.5q19 50 68 86t112 36q37 0 69 -23
t70 -73q34 -47 57.5 -61.5t56.5 -14.5q49 0 60 23q14 27 41 97l44 -13q-9 -47 -9 -67q0 -15 40 -31.5t60 -16.5q17 0 17 10t-16 44t-16 40q0 15 13.5 41.5t26.5 39.5h16z" />
    <glyph glyph-name="uniFCFC" unicode="&#xfeb3;&#xfef2;" horiz-adv-x="1074" arabic-form="isolated" 
d="M1003 310q35 -63 35 -130q0 -54 -29.5 -102t-63.5 -48q-32 0 -76.5 19.5t-56.5 38.5q-31 -58 -99 -58q-33 0 -59 14.5t-40.5 31t-44.5 56.5q-29 39 -55 58t-66 19t-75.5 -18.5t-35.5 -38.5q0 -13 24 -21.5t59 -14.5t69.5 -15.5t58.5 -31t24 -54.5q0 -65 -26 -115
t-94 -88.5t-168 -38.5q-73 0 -125.5 22t-80 59t-39.5 76t-12 83q0 107 50 195l39 -17q-24 -60 -24 -126q0 -175 208 -175q58 0 111.5 15.5t81 34.5t27.5 31q0 7 -6 12.5t-20 9.5t-25 6.5t-33 6.5q-98 16 -124 43q-22 22 -27 65.5t8 78.5q19 50 68 86t112 36q37 0 69 -23
t70 -73q34 -47 57.5 -61.5t56.5 -14.5q49 0 60 23q14 27 41 97l44 -13q-9 -47 -9 -67q0 -15 40 -31.5t60 -16.5q17 0 17 10t-16 44t-16 40q0 15 13.5 41.5t26.5 39.5h16zM350 -273q23 -26 54 -55q-9 -14 -22.5 -27.5t-22.5 -20.5l-9 -6q-21 15 -47 43q-9 -11 -20.5 -22
t-18.5 -16l-7 -5q-14 10 -27.5 23.5t-19.5 21.5l-6 8q26 33 53 56q20 -22 46 -47q29 32 47 47z" />
    <glyph glyph-name="uniFCFD" unicode="&#xfeb7;&#xfef0;" horiz-adv-x="1074" arabic-form="isolated" 
d="M833 431q-13 10 -25 22.5t-18 20.5l-6 8q24 29 49 50q22 -24 50 -49q-9 -13 -21.5 -26t-20.5 -19zM787 328q-14 10 -27 23t-19 21l-6 8q24 32 52 56q19 -23 46 -48q29 32 47 48q24 -28 52 -55q-9 -13 -22 -26.5t-22 -20.5l-8 -6q-27 17 -46 43q-9 -11 -20.5 -22
t-19.5 -16zM1003 310q35 -63 35 -130q0 -54 -29.5 -102t-63.5 -48q-32 0 -76.5 19.5t-56.5 38.5q-31 -58 -99 -58q-33 0 -59 14.5t-40.5 31t-44.5 56.5q-29 39 -55 58t-66 19t-75.5 -18.5t-35.5 -38.5q0 -13 24 -21.5t59 -14.5t69.5 -15.5t58.5 -31t24 -54.5q0 -65 -26 -115
t-94 -88.5t-168 -38.5q-73 0 -125.5 22t-80 59t-39.5 76t-12 83q0 107 50 195l39 -17q-24 -60 -24 -126q0 -175 208 -175q58 0 111.5 15.5t81 34.5t27.5 31q0 7 -6 12.5t-20 9.5t-25 6.5t-33 6.5q-98 16 -124 43q-22 22 -27 65.5t8 78.5q19 50 68 86t112 36q37 0 69 -23
t70 -73q34 -47 57.5 -61.5t56.5 -14.5q49 0 60 23q14 27 41 97l44 -13q-9 -47 -9 -67q0 -15 40 -31.5t60 -16.5q17 0 17 10t-16 44t-16 40q0 15 13.5 41.5t26.5 39.5h16z" />
    <glyph glyph-name="uniFCFE" unicode="&#xfeb7;&#xfef2;" horiz-adv-x="1074" arabic-form="isolated" 
d="M833 431q-13 10 -25 22.5t-18 20.5l-6 8q24 29 49 50q22 -24 50 -49q-9 -13 -21.5 -26t-20.5 -19zM787 328q-14 10 -27 23t-19 21l-6 8q24 32 52 56q19 -23 46 -48q29 32 47 48q24 -28 52 -55q-9 -13 -22 -26.5t-22 -20.5l-8 -6q-27 17 -46 43q-9 -11 -20.5 -22
t-19.5 -16zM1003 310q35 -63 35 -130q0 -54 -29.5 -102t-63.5 -48q-32 0 -76.5 19.5t-56.5 38.5q-31 -58 -99 -58q-33 0 -59 14.5t-40.5 31t-44.5 56.5q-29 39 -55 58t-66 19t-75.5 -18.5t-35.5 -38.5q0 -13 24 -21.5t59 -14.5t69.5 -15.5t58.5 -31t24 -54.5q0 -65 -26 -115
t-94 -88.5t-168 -38.5q-73 0 -125.5 22t-80 59t-39.5 76t-12 83q0 107 50 195l39 -17q-24 -60 -24 -126q0 -175 208 -175q58 0 111.5 15.5t81 34.5t27.5 31q0 7 -6 12.5t-20 9.5t-25 6.5t-33 6.5q-98 16 -124 43q-22 22 -27 65.5t8 78.5q19 50 68 86t112 36q37 0 69 -23
t70 -73q34 -47 57.5 -61.5t56.5 -14.5q49 0 60 23q14 27 41 97l44 -13q-9 -47 -9 -67q0 -15 40 -31.5t60 -16.5q17 0 17 10t-16 44t-16 40q0 15 13.5 41.5t26.5 39.5h16zM350 -273q23 -26 54 -55q-9 -14 -22.5 -27.5t-22.5 -20.5l-9 -6q-21 15 -47 43q-9 -11 -20.5 -22
t-18.5 -16l-7 -5q-14 10 -27.5 23.5t-19.5 21.5l-6 8q26 33 53 56q20 -22 46 -47q29 32 47 47z" />
    <glyph glyph-name="uniFD05" unicode="&#xfebb;&#xfef0;" horiz-adv-x="1153" arabic-form="isolated" 
d="M947 393q65 0 117.5 -52.5t52.5 -112.5q0 -95 -68 -143q-85 -58 -250 -58q-86 0 -136 23.5t-94 83.5q-29 39 -55 57.5t-66 18.5t-75.5 -18.5t-35.5 -38.5q0 -16 36.5 -26t81 -16.5t81 -30.5t36.5 -64q0 -62 -26 -114q-23 -50 -92 -88.5t-170 -38.5q-73 0 -125.5 22
t-80 59t-39.5 76t-12 83q0 107 50 195l39 -18q-24 -60 -24 -125q0 -176 208 -176q44 0 87 9.5t71 23t45 27t17 22.5q0 13 -20 19.5t-63 14.5q-99 16 -125 43q-22 23 -27 66.5t8 77.5q18 50 67 86t113 36q37 0 68.5 -22.5t68.5 -73.5q26 -37 48 -52q64 93 140.5 159t148.5 66
zM817 139q71 0 130 10.5t86 23t27 21.5q0 6 -9 19.5t-25.5 29t-44.5 27t-60 11.5q-57 0 -110.5 -36.5t-111.5 -97.5q33 -8 118 -8z" />
    <glyph glyph-name="uniFD06" unicode="&#xfebb;&#xfef2;" horiz-adv-x="1153" arabic-form="isolated" 
d="M947 393q65 0 117.5 -52.5t52.5 -112.5q0 -95 -68 -143q-85 -58 -250 -58q-86 0 -136 23.5t-94 83.5q-29 39 -55 57.5t-66 18.5t-75.5 -18.5t-35.5 -38.5q0 -16 36.5 -26t81 -16.5t81 -30.5t36.5 -64q0 -62 -26 -114q-23 -50 -92 -88.5t-170 -38.5q-73 0 -125.5 22
t-80 59t-39.5 76t-12 83q0 107 50 195l39 -18q-24 -60 -24 -125q0 -176 208 -176q44 0 87 9.5t71 23t45 27t17 22.5q0 13 -20 19.5t-63 14.5q-99 16 -125 43q-22 23 -27 66.5t8 77.5q18 50 67 86t113 36q37 0 68.5 -22.5t68.5 -73.5q26 -37 48 -52q64 93 140.5 159t148.5 66
zM817 139q71 0 130 10.5t86 23t27 21.5q0 6 -9 19.5t-25.5 29t-44.5 27t-60 11.5q-57 0 -110.5 -36.5t-111.5 -97.5q33 -8 118 -8zM346 -272q23 -26 54 -55q-9 -14 -22.5 -27.5t-22.5 -19.5l-9 -7q-21 15 -47 43q-9 -11 -20.5 -22t-18.5 -16l-7 -5q-14 10 -27.5 23.5
t-19.5 21.5l-6 8q26 33 53 56q20 -22 46 -47q29 32 47 47z" />
    <glyph glyph-name="uniFD07" unicode="&#xfebf;&#xfef0;" horiz-adv-x="1153" arabic-form="isolated" 
d="M933 456q-16 12 -30.5 27t-20.5 25l-7 9q27 36 58 62q27 -31 60 -61q-10 -16 -25 -31.5t-25 -22.5zM947 393q65 0 117.5 -52.5t52.5 -112.5q0 -95 -68 -143q-85 -58 -250 -58q-86 0 -136 23.5t-94 83.5q-29 39 -55 57.5t-66 18.5t-75.5 -18.5t-35.5 -38.5q0 -16 36.5 -26
t81 -16.5t81 -30.5t36.5 -64q0 -62 -26 -114q-23 -50 -92 -88.5t-170 -38.5q-73 0 -125.5 22t-80 59t-39.5 76t-12 83q0 107 50 195l39 -18q-24 -60 -24 -125q0 -176 208 -176q44 0 87 9.5t71 23t45 27t17 22.5q0 13 -20 19.5t-63 14.5q-99 16 -125 43q-22 23 -27 66.5
t8 77.5q18 50 67 86t113 36q37 0 68.5 -22.5t68.5 -73.5q26 -37 48 -52q64 93 140.5 159t148.5 66zM817 139q71 0 130 10.5t86 23t27 21.5q0 6 -9 19.5t-25.5 29t-44.5 27t-60 11.5q-57 0 -110.5 -36.5t-111.5 -97.5q33 -8 118 -8z" />
    <glyph glyph-name="uniFD08" unicode="&#xfebf;&#xfef2;" horiz-adv-x="1153" arabic-form="isolated" 
d="M933 456q-16 12 -30.5 27t-20.5 25l-7 9q27 36 58 62q27 -31 60 -61q-10 -16 -25 -31.5t-25 -22.5zM947 393q65 0 117.5 -52.5t52.5 -112.5q0 -95 -68 -143q-85 -58 -250 -58q-86 0 -136 23.5t-94 83.5q-29 39 -55 57.5t-66 18.5t-75.5 -18.5t-35.5 -38.5q0 -16 36.5 -26
t81 -16.5t81 -30.5t36.5 -64q0 -62 -26 -114q-23 -50 -92 -88.5t-170 -38.5q-73 0 -125.5 22t-80 59t-39.5 76t-12 83q0 107 50 195l39 -18q-24 -60 -24 -125q0 -176 208 -176q44 0 87 9.5t71 23t45 27t17 22.5q0 13 -20 19.5t-63 14.5q-99 16 -125 43q-22 23 -27 66.5
t8 77.5q18 50 67 86t113 36q37 0 68.5 -22.5t68.5 -73.5q26 -37 48 -52q64 93 140.5 159t148.5 66zM817 139q71 0 130 10.5t86 23t27 21.5q0 6 -9 19.5t-25.5 29t-44.5 27t-60 11.5q-57 0 -110.5 -36.5t-111.5 -97.5q33 -8 118 -8zM346 -272q23 -26 54 -55
q-9 -14 -22.5 -27.5t-22.5 -19.5l-9 -7q-21 15 -47 43q-9 -11 -20.5 -22t-18.5 -16l-7 -5q-14 10 -27.5 23.5t-19.5 21.5l-6 8q26 33 53 56q20 -22 46 -47q29 32 47 47z" />
    <glyph glyph-name="uniFD0C" unicode="&#xfeb7;&#xfee2;" horiz-adv-x="896" arabic-form="isolated" 
d="M650 516q-13 10 -25 22.5t-18 20.5l-6 8q24 29 49 50q22 -24 50 -49q-9 -13 -21.5 -26t-20.5 -20zM604 413q-14 10 -27 23t-19 21l-6 8q24 32 52 56q19 -23 46 -48q29 32 47 48q24 -28 52 -55q-9 -13 -22 -26.5t-21 -19.5l-9 -7q-27 17 -46 43q-9 -11 -20.5 -22
t-18.5 -16zM824 383q5 -7 12.5 -23t15.5 -47t8 -59q0 -55 -31 -103t-66 -48q-31 0 -73 18.5t-56 38.5q-28 -57 -94 -57q-12 0 -22.5 2t-18 4t-17.5 8.5t-14 8.5t-13.5 11.5l-11.5 11.5t-12 13.5t-11 12.5q-21 23 -31 33t-32.5 21t-47.5 11q-51 0 -90 -24t-39 -49
q0 -9 28.5 -21.5t74.5 -28.5t62 -23l3 -14l-31 -86l-12 -2q-66 18 -127 18q-36 0 -59.5 -10t-23.5 -25q0 -11 20 -103.5t20 -111.5q0 -24 -7.5 -61t-15.5 -62l-8 -25h-27q0 54 -26 176.5t-26 139.5q0 48 25 91.5t59 67.5q14 10 34 16q-15 30 -15 68q0 70 65.5 124.5
t136.5 54.5q30 0 55 -12t36.5 -23t30.5 -33q3 -3 11 -13t11.5 -14t11.5 -12t13.5 -11.5t13.5 -8t17.5 -6t19.5 -1.5q46 0 58 23q13 26 40 98l43 -14q-9 -47 -9 -67q0 -15 41 -31.5t61 -16.5q16 0 16 10t-16 44t-16 40q0 15 14.5 41.5t28.5 39.5h13z" />
    <glyph glyph-name="uniFD0D" unicode="&#xfeb7;&#xfeae;" horiz-adv-x="889" arabic-form="isolated" 
d="M648 433q-13 10 -25 22.5t-18 20.5l-6 8q24 29 49 50q22 -24 50 -49q-9 -13 -21.5 -26t-20.5 -19zM602 330q-14 10 -27 23t-19 21l-6 8q24 32 52 56q19 -23 46 -48q29 32 47 48q24 -28 52 -55q-9 -13 -22 -26.5t-21 -20.5l-9 -6q-27 17 -46 43q-9 -11 -20.5 -22
t-18.5 -16zM819 310q34 -61 34 -130q0 -54 -29 -102t-63 -48q-32 0 -76 19t-57 39q-30 -58 -111 -58q-114 0 -128 119q-44 -11 -115 -17q3 -18 3 -36q0 -112 -51 -198.5t-130 -86.5q-55 0 -166 72l13 41q50 -10 92 -10q48 0 87 18t60 43.5t32.5 50t11.5 42.5q0 10 -24 45
t-24 43q0 14 18.5 43.5t31.5 42.5h15q127 4 207 33l14 -14q0 -8 -20 -78q15 -40 84 -40q62 0 74 23q20 43 40 97l44 -13q-9 -47 -9 -67q0 -15 40.5 -31.5t60.5 -16.5q17 0 17 10t-16 44t-16 40q0 15 13.5 41.5t26.5 39.5h16z" />
    <glyph glyph-name="uniFD0E" unicode="&#xfeb3;&#xfeae;" horiz-adv-x="889" arabic-form="isolated" 
d="M819 310q34 -61 34 -130q0 -54 -29 -102t-63 -48q-32 0 -76 19t-57 39q-30 -58 -111 -58q-114 0 -128 119q-44 -11 -115 -17q3 -18 3 -36q0 -112 -51 -198.5t-130 -86.5q-55 0 -166 72l13 41q50 -10 92 -10q48 0 87 18t60 43.5t32.5 50t11.5 42.5q0 10 -24 45t-24 43
q0 14 18.5 43.5t31.5 42.5h15q127 4 207 33l14 -14q0 -8 -20 -78q15 -40 84 -40q62 0 74 23q20 43 40 97l44 -13q-9 -47 -9 -67q0 -15 40.5 -31.5t60.5 -16.5q17 0 17 10t-16 44t-16 40q0 15 13.5 41.5t26.5 39.5h16z" />
    <glyph glyph-name="uniFD0F" unicode="&#xfebb;&#xfeae;" horiz-adv-x="993" arabic-form="isolated" 
d="M787 395q65 0 117.5 -52.5t52.5 -113.5q0 -42 -17.5 -81t-51.5 -62q-86 -58 -256 -58q-221 0 -238 122q-53 -12 -120 -18q3 -18 3 -36q0 -112 -51 -198.5t-130 -86.5q-55 0 -166 72l13 41q50 -10 92 -10q48 0 87 18t60 43.5t32.5 50t11.5 42.5q0 10 -24 45t-24 43
q0 14 18.5 43.5t31.5 42.5h15q127 4 207 33l14 -14q0 -1 -16 -65q15 -22 45 -33q64 95 142 163.5t152 68.5zM650 141q73 0 133.5 10.5t88.5 22.5t28 21t-14.5 28.5t-48.5 39t-76 19.5q-57 0 -110 -36t-111 -97q48 -8 110 -8z" />
    <glyph glyph-name="uniFD10" unicode="&#xfebf;&#xfeae;" horiz-adv-x="993" arabic-form="isolated" 
d="M773 454q-16 12 -30.5 27t-20.5 25l-7 9q27 36 58 62q27 -31 60 -61q-10 -16 -25 -31.5t-25 -22.5zM787 395q65 0 117.5 -52.5t52.5 -113.5q0 -42 -17.5 -81t-51.5 -62q-86 -58 -256 -58q-221 0 -238 122q-53 -12 -120 -18q3 -18 3 -36q0 -112 -51 -198.5t-130 -86.5
q-55 0 -166 72l13 41q50 -10 92 -10q48 0 87 18t60 43.5t32.5 50t11.5 42.5q0 10 -24 45t-24 43q0 14 18.5 43.5t31.5 42.5h15q127 4 207 33l14 -14q0 -1 -16 -65q15 -22 45 -33q64 95 142 163.5t152 68.5zM650 141q73 0 133.5 10.5t88.5 22.5t28 21t-14.5 28.5t-48.5 39
t-76 19.5q-57 0 -110 -36t-111 -97q48 -8 110 -8z" />
    <glyph glyph-name="uniFD17" unicode="&#xfeb4;&#xfef0;" horiz-adv-x="1152" arabic-form="final" 
d="M1152 113l16 -3v-107l-16 -3q-121 0 -154 72q-27 -72 -76 -72q-28 0 -65 18t-48 35q-31 -53 -96 -53q-33 0 -59 14.5t-40.5 31t-44.5 56.5q-29 39 -55 58t-66 19t-75.5 -18.5t-35.5 -38.5q0 -13 24 -21.5t59 -14.5t69.5 -15.5t58.5 -31t24 -54.5q0 -65 -26 -115
q-25 -49 -93.5 -88t-168.5 -39q-73 0 -125.5 22t-80 59t-39.5 76t-12 83q0 107 50 195l39 -17q-24 -60 -24 -126q0 -175 208 -175q58 0 111.5 15.5t81 34.5t27.5 31q0 7 -6 12.5t-20 9.5t-25 6.5t-33 6.5q-98 16 -124 43q-22 22 -27 65.5t8 78.5q19 50 68 86t112 36
q37 0 69 -23t70 -73q34 -47 57.5 -61.5t56.5 -14.5q49 0 60 23q14 27 41 97l44 -13q-13 -53 -13 -74q0 -12 30 -25t51 -13q8 0 16.5 22t23.5 73q2 8 3.5 12.5t3.5 12t4 13.5l45 -12q-6 -24 -6 -51q0 -66 123 -65z" />
    <glyph glyph-name="uniFD18" unicode="&#xfeb4;&#xfef2;" horiz-adv-x="1152" arabic-form="final" 
d="M1152 113l16 -3v-107l-16 -3q-121 0 -154 72q-27 -72 -76 -72q-28 0 -65 18t-48 35q-31 -53 -96 -53q-33 0 -59 14.5t-40.5 31t-44.5 56.5q-29 39 -55 58t-66 19t-75.5 -18.5t-35.5 -38.5q0 -13 24 -21.5t59 -14.5t69.5 -15.5t58.5 -31t24 -54.5q0 -65 -26 -115
q-25 -49 -93.5 -88t-168.5 -39q-73 0 -125.5 22t-80 59t-39.5 76t-12 83q0 107 50 195l39 -17q-24 -60 -24 -126q0 -175 208 -175q58 0 111.5 15.5t81 34.5t27.5 31q0 7 -6 12.5t-20 9.5t-25 6.5t-33 6.5q-98 16 -124 43q-22 22 -27 65.5t8 78.5q19 50 68 86t112 36
q37 0 69 -23t70 -73q34 -47 57.5 -61.5t56.5 -14.5q49 0 60 23q14 27 41 97l44 -13q-13 -53 -13 -74q0 -12 30 -25t51 -13q8 0 16.5 22t23.5 73q2 8 3.5 12.5t3.5 12t4 13.5l45 -12q-6 -24 -6 -51q0 -66 123 -65zM350 -303q23 -26 54 -55q-9 -14 -22.5 -27.5t-22.5 -20.5
l-9 -6q-21 15 -47 43q-9 -11 -20.5 -22t-18.5 -16l-7 -5q-14 10 -27.5 23.5t-19.5 21.5l-6 8q26 33 53 56q20 -22 46 -47q29 32 47 47z" />
    <glyph glyph-name="uniFD19" unicode="&#xfeb8;&#xfef0;" horiz-adv-x="1152" arabic-form="final" 
d="M833 401q-13 10 -25 22.5t-18 20.5l-6 8q24 29 49 50q22 -24 50 -49q-9 -13 -21.5 -26t-20.5 -19zM787 298q-14 10 -27 23t-19 21l-6 8q24 32 52 56q19 -23 46 -48q29 32 47 48q24 -28 52 -55q-9 -13 -22 -26.5t-22 -20.5l-8 -6q-27 17 -46 43q-9 -11 -20.5 -22
t-19.5 -16zM1152 113l16 -3v-107l-16 -3q-121 0 -154 72q-27 -72 -76 -72q-28 0 -65 18t-48 35q-31 -53 -96 -53q-33 0 -59 14.5t-40.5 31t-44.5 56.5q-29 39 -55 58t-66 19t-75.5 -18.5t-35.5 -38.5q0 -13 24 -21.5t59 -14.5t69.5 -15.5t58.5 -31t24 -54.5q0 -65 -26 -115
q-25 -49 -93.5 -88t-168.5 -39q-73 0 -125.5 22t-80 59t-39.5 76t-12 83q0 107 50 195l39 -17q-24 -60 -24 -126q0 -175 208 -175q58 0 111.5 15.5t81 34.5t27.5 31q0 7 -6 12.5t-20 9.5t-25 6.5t-33 6.5q-98 16 -124 43q-22 22 -27 65.5t8 78.5q19 50 68 86t112 36
q37 0 69 -23t70 -73q34 -47 57.5 -61.5t56.5 -14.5q49 0 60 23q14 27 41 97l44 -13q-13 -53 -13 -74q0 -12 30 -25t51 -13q8 0 16.5 22t23.5 73q2 8 3.5 12.5t3.5 12t4 13.5l45 -12q-6 -24 -6 -51q0 -66 123 -65z" />
    <glyph glyph-name="uniFD1A" unicode="&#xfeb8;&#xfef2;" horiz-adv-x="1152" arabic-form="final" 
d="M833 401q-13 10 -25 22.5t-18 20.5l-6 8q24 29 49 50q22 -24 50 -49q-9 -13 -21.5 -26t-20.5 -19zM787 298q-14 10 -27 23t-19 21l-6 8q24 32 52 56q19 -23 46 -48q29 32 47 48q24 -28 52 -55q-9 -13 -22 -26.5t-22 -20.5l-8 -6q-27 17 -46 43q-9 -11 -20.5 -22
t-19.5 -16zM1152 113l16 -3v-107l-16 -3q-121 0 -154 72q-27 -72 -76 -72q-28 0 -65 18t-48 35q-31 -53 -96 -53q-33 0 -59 14.5t-40.5 31t-44.5 56.5q-29 39 -55 58t-66 19t-75.5 -18.5t-35.5 -38.5q0 -13 24 -21.5t59 -14.5t69.5 -15.5t58.5 -31t24 -54.5q0 -65 -26 -115
q-25 -49 -93.5 -88t-168.5 -39q-73 0 -125.5 22t-80 59t-39.5 76t-12 83q0 107 50 195l39 -17q-24 -60 -24 -126q0 -175 208 -175q58 0 111.5 15.5t81 34.5t27.5 31q0 7 -6 12.5t-20 9.5t-25 6.5t-33 6.5q-98 16 -124 43q-22 22 -27 65.5t8 78.5q19 50 68 86t112 36
q37 0 69 -23t70 -73q34 -47 57.5 -61.5t56.5 -14.5q49 0 60 23q14 27 41 97l44 -13q-13 -53 -13 -74q0 -12 30 -25t51 -13q8 0 16.5 22t23.5 73q2 8 3.5 12.5t3.5 12t4 13.5l45 -12q-6 -24 -6 -51q0 -66 123 -65zM350 -303q23 -26 54 -55q-9 -14 -22.5 -27.5t-22.5 -20.5
l-9 -6q-21 15 -47 43q-9 -11 -20.5 -22t-18.5 -16l-7 -5q-14 10 -27.5 23.5t-19.5 21.5l-6 8q26 33 53 56q20 -22 46 -47q29 32 47 47z" />
    <glyph glyph-name="uniFD21" unicode="&#xfebc;&#xfef0;" horiz-adv-x="1174" arabic-form="final" 
d="M1174 113l16 -3v-107l-16 -3q-92 0 -145 45q-87 -46 -230 -46q-86 0 -136 23.5t-94 83.5q-29 39 -55 57.5t-66 18.5t-75.5 -18.5t-35.5 -38.5q0 -16 36.5 -26t81 -16.5t81 -30.5t36.5 -64q0 -62 -26 -114q-23 -50 -92 -88.5t-170 -38.5q-73 0 -125.5 22t-80 59t-39.5 76
t-12 83q0 107 50 195l39 -18q-24 -60 -24 -125q0 -176 208 -176q44 0 87 9.5t71 23t45 27t17 22.5q0 13 -20 19.5t-63 14.5q-99 16 -125 43q-22 23 -27 66.5t8 77.5q18 50 67 86t113 36q37 0 68.5 -22.5t68.5 -73.5q26 -37 48 -52q64 93 140.5 159t148.5 66
q65 0 117.5 -52.5t52.5 -112.5q0 -44 -17 -79q32 -8 74 -8zM699 119q33 -8 118 -8q71 0 130 10.5t86 23t27 21.5q0 6 -9 19.5t-25.5 29t-44.5 27t-60 11.5q-57 0 -110.5 -36.5t-111.5 -97.5z" />
    <glyph glyph-name="uniFD22" unicode="&#xfebc;&#xfef2;" horiz-adv-x="1174" arabic-form="final" 
d="M1174 113l16 -3v-107l-16 -3q-92 0 -145 45q-87 -46 -230 -46q-86 0 -136 23.5t-94 83.5q-29 39 -55 57.5t-66 18.5t-75.5 -18.5t-35.5 -38.5q0 -16 36.5 -26t81 -16.5t81 -30.5t36.5 -64q0 -62 -26 -114q-23 -50 -92 -88.5t-170 -38.5q-73 0 -125.5 22t-80 59t-39.5 76
t-12 83q0 107 50 195l39 -18q-24 -60 -24 -125q0 -176 208 -176q44 0 87 9.5t71 23t45 27t17 22.5q0 13 -20 19.5t-63 14.5q-99 16 -125 43q-22 23 -27 66.5t8 77.5q18 50 67 86t113 36q37 0 68.5 -22.5t68.5 -73.5q26 -37 48 -52q64 93 140.5 159t148.5 66
q65 0 117.5 -52.5t52.5 -112.5q0 -44 -17 -79q32 -8 74 -8zM699 119q33 -8 118 -8q71 0 130 10.5t86 23t27 21.5q0 6 -9 19.5t-25.5 29t-44.5 27t-60 11.5q-57 0 -110.5 -36.5t-111.5 -97.5zM346 -300q23 -26 54 -55q-9 -14 -22.5 -27.5t-22.5 -19.5l-9 -7q-21 15 -47 43
q-9 -11 -20.5 -22t-18.5 -16l-7 -5q-14 10 -27.5 23.5t-19.5 21.5l-6 8q26 33 53 56q20 -22 46 -47q29 32 47 47z" />
    <glyph glyph-name="uniFD23" unicode="&#xfec0;&#xfef0;" horiz-adv-x="1174" arabic-form="final" 
d="M933 428q-16 12 -30.5 27t-20.5 25l-7 9q27 36 58 62q27 -31 60 -61q-10 -16 -25 -31.5t-25 -22.5zM1174 113l16 -3v-107l-16 -3q-92 0 -145 45q-87 -46 -230 -46q-86 0 -136 23.5t-94 83.5q-29 39 -55 57.5t-66 18.5t-75.5 -18.5t-35.5 -38.5q0 -16 36.5 -26t81 -16.5
t81 -30.5t36.5 -64q0 -62 -26 -114q-23 -50 -92 -88.5t-170 -38.5q-73 0 -125.5 22t-80 59t-39.5 76t-12 83q0 107 50 195l39 -18q-24 -60 -24 -125q0 -176 208 -176q44 0 87 9.5t71 23t45 27t17 22.5q0 13 -20 19.5t-63 14.5q-99 16 -125 43q-22 23 -27 66.5t8 77.5
q18 50 67 86t113 36q37 0 68.5 -22.5t68.5 -73.5q26 -37 48 -52q64 93 140.5 159t148.5 66q65 0 117.5 -52.5t52.5 -112.5q0 -44 -17 -79q32 -8 74 -8zM699 119q33 -8 118 -8q71 0 130 10.5t86 23t27 21.5q0 6 -9 19.5t-25.5 29t-44.5 27t-60 11.5q-57 0 -110.5 -36.5
t-111.5 -97.5z" />
    </font>
</defs>
</svg>
