<?xml version="1.0" standalone="no"?>
<!DOCTYPE svg PUBLIC "-//W3C//DTD SVG 1.1//EN" "http://www.w3.org/Graphics/SVG/1.1/DTD/svg11.dtd" >
<svg xmlns="http://www.w3.org/2000/svg" xmlns:xlink="http://www.w3.org/1999/xlink" version="1.1">
<metadata>
Created by FontForge 20190801 at Tue May  2 17:44:19 2017
 By www-data
Copyright (c)2014 Commercial Type.
</metadata>
<defs>
<font id="DrukWideSuper" horiz-adv-x="700" >
  <font-face 
    font-family="DrukWideSuper"
    font-weight="1000"
    font-stretch="normal"
    units-per-em="1000"
    panose-1="0 0 0 0 0 0 0 0 0 0"
    ascent="812"
    descent="-188"
    x-height="538"
    cap-height="744"
    bbox="-124 -331 2925 1210"
    underline-thickness="131"
    underline-position="-20"
    unicode-range="U+0020-FB02"
  />
<missing-glyph horiz-adv-x="500" 
 />
    <glyph glyph-name="f_f" unicode="ff" horiz-adv-x="1109" 
d="M485 0h-365v340h-112v198h112v32q0 89 52 131.5t164 42.5h255v-166h-79q-16 0 -21.5 -6.5t-5.5 -22.5v-11h140v32q0 89 52 131.5t164 42.5h255v-166h-79q-16 0 -21.5 -6.5t-5.5 -22.5v-11h106v-198h-106v-340h-365v340h-140v-340z" />
    <glyph glyph-name="f_i" unicode="fi" horiz-adv-x="1012" 
d="M587 744v-166h-75q-16 0 -21.5 -6.5t-5.5 -22.5v-11h102v-198h-102v-340h-365v340h-112v198h112v32q0 89 52 131.5t164 42.5h251zM988 744v-175h-364v175h364zM988 538v-538h-364v538h364z" />
    <glyph glyph-name="f_l" unicode="fl" horiz-adv-x="1012" 
d="M587 744v-166h-75q-16 0 -21.5 -6.5t-5.5 -22.5v-11h102v-198h-102v-340h-365v340h-112v198h112v32q0 89 52 131.5t164 42.5h251zM988 744v-744h-364v744h364z" />
    <glyph glyph-name="emdash.alt" unicode="&#x2014;&#x2014;" horiz-adv-x="2946" 
d="M2925 378v-163h-2904v163h2904z" />
    <glyph glyph-name=".notdef" horiz-adv-x="500" 
 />
    <glyph glyph-name=".null" horiz-adv-x="0" 
 />
    <glyph glyph-name="nonmarkingreturn" horiz-adv-x="333" 
 />
    <glyph glyph-name="space" unicode=" " horiz-adv-x="296" 
 />
    <glyph glyph-name="exclam" unicode="!" horiz-adv-x="491" 
d="M-2 744h495l-134 -478h-227zM425 232v-232h-359v232h359z" />
    <glyph glyph-name="quotedbl" unicode="&#x22;" horiz-adv-x="644" 
d="M621 744v-291h-282v291h282zM305 744v-290h-282v290h282z" />
    <glyph glyph-name="numbersign" unicode="#" horiz-adv-x="938" 
d="M518 329l35 122h-135l-35 -122h135zM424 0l52 181h-135l-52 -181h-209l51 181h-131l42 148h131l35 122h-131l42 148h131l41 145h211l-42 -145h135l42 145h211l-42 -145h132l-43 -148h-132l-35 -122h132l-43 -148h-132l-52 -181h-209z" />
    <glyph glyph-name="dollar" unicode="$" horiz-adv-x="1115" 
d="M404 536q0 -18 19.5 -28.5t72.5 -16.5v90q-56 -3 -74 -13t-18 -30v-2zM691 232q0 21 -16.5 33t-72.5 17v-107q52 4 70.5 18t18.5 35v4zM602 -75h-106v62q-94 0 -170 10t-127 25t-88.5 37.5t-58 44.5t-32.5 49t-15.5 47.5t-3.5 44.5v10h403q1 -15 4 -25t11.5 -22t28 -20
t48.5 -12v112l-128 5q-105 4 -177.5 24t-110 53t-52.5 69t-15 83v9q0 54 23.5 93.5t78 69t149.5 44.5t232 15v57h106v-57q141 -1 238.5 -18.5t148.5 -50.5t72.5 -72t21.5 -89v-7h-393q-1 11 -4.5 18.5t-12 17.5t-26.5 16.5t-45 10.5v-94l128 -4q206 -7 293.5 -59.5
t87.5 -162.5v-14q0 -44 -11.5 -78.5t-44.5 -69t-88 -57.5t-147.5 -37.5t-217.5 -15.5v-62z" />
    <glyph glyph-name="percent" unicode="%" horiz-adv-x="1522" 
d="M335 322q-81 0 -141.5 14t-94.5 35.5t-55 51t-27.5 55.5t-6.5 55v13q0 29 6.5 54.5t28 54t56 49t95 34t141.5 13.5h16q81 0 141.5 -13.5t95 -34t56 -49t28 -54t6.5 -54.5v-13q0 -29 -6.5 -55t-27.5 -55.5t-55 -51t-94.5 -35.5t-141.5 -14h-20zM1057 744h248l-843 -744
h-247zM345 470q41 0 61 19.5t20 47.5v3q0 28 -20 47t-61 19t-61 -19t-20 -47v-3q0 -28 20 -47.5t61 -19.5zM1187 -8h-20q-81 0 -141.5 14t-94.5 35.5t-55 51t-27.5 55.5t-6.5 55v13q0 29 6.5 54.5t28 54t56 49t95 34t141.5 13.5h16q81 0 141.5 -13.5t95 -34t56 -49t28 -54
t6.5 -54.5v-13q0 -29 -6.5 -55t-27.5 -55.5t-55 -51t-94.5 -35.5t-141.5 -14zM1177 140q41 0 61 19.5t20 47.5v3q0 28 -20 47t-61 19t-61 -19t-20 -47v-3q0 -28 20 -47.5t61 -19.5z" />
    <glyph glyph-name="ampersand" unicode="&#x26;" horiz-adv-x="1231" 
d="M488 578q0 -21 17.5 -39.5t66.5 -53.5q48 17 71.5 35.5t23.5 46.5q0 53 -93 53q-86 0 -86 -42zM555 152q39 0 71 3l-239 160q-14 -26 -14 -50v-3q0 -47 43 -78.5t139 -31.5zM1153 -11q-204 -4 -328 47q-130 -51 -343 -51q-247 0 -363.5 57t-116.5 149v8q0 153 268 196
q-58 46 -81 87t-23 89v8q0 37 19 67.5t61 57t119.5 41t184.5 14.5h60q101 0 172.5 -14t108 -38.5t52 -50.5t15.5 -57v-5q0 -66 -64.5 -109.5t-215.5 -70.5l181 -119q39 68 39 156h294q0 -134 -110 -242q45 -4 157 -4z" />
    <glyph glyph-name="quotesingle" unicode="'" horiz-adv-x="329" 
d="M306 744v-291h-283v291h283z" />
    <glyph glyph-name="parenleft" unicode="(" horiz-adv-x="403" 
d="M9 345q0 139 66 256.5t183 206.5h161q-142 -210 -142 -463q0 -239 142 -476h-161q-249 199 -249 476z" />
    <glyph glyph-name="parenright" unicode=")" horiz-adv-x="403" 
d="M-16 -131q142 237 142 476q0 253 -142 463h161q117 -89 183 -206.5t66 -256.5q0 -277 -249 -476h-161z" />
    <glyph glyph-name="asterisk" unicode="*" horiz-adv-x="500" 
d="M317 629l99 89l82 -158l-146 -28l146 -30l-82 -159l-102 80l35 -115h-197l37 115l-104 -80l-83 159l147 30l-147 28l83 158l100 -89l-33 115h197z" />
    <glyph glyph-name="plus" unicode="+" horiz-adv-x="626" 
d="M615 222h-196v-176h-213v176h-195v174h195v175h213v-175h196v-174z" />
    <glyph glyph-name="comma" unicode="," horiz-adv-x="401" 
d="M302 -135h-186q46 75 51 135h-146v232h359v-186q0 -44 -24.5 -95.5t-53.5 -85.5z" />
    <glyph glyph-name="hyphen" unicode="-" horiz-adv-x="389" 
d="M21 404h347v-214h-347v214z" />
    <glyph glyph-name="period" unicode="." horiz-adv-x="401" 
d="M380 232v-232h-359v232h359z" />
    <glyph glyph-name="slash" unicode="/" horiz-adv-x="525" 
d="M544 808l-324 -939h-262l322 939h264z" />
    <glyph glyph-name="zero" unicode="0" horiz-adv-x="1194" 
d="M1182 387v-30q0 -50 -10.5 -95t-46 -98t-94 -90.5t-164 -63t-246.5 -25.5h-47q-102 0 -186 13.5t-141 35t-100.5 52.5t-68.5 63.5t-40.5 71t-20.5 70t-5 66.5v30q0 35 5 67t20.5 70.5t40.5 70.5t68.5 63.5t100.5 53t141 34.5t186 13h47q102 0 185.5 -13t140.5 -35
t100.5 -53t68.5 -63t40.5 -70.5t20.5 -70.5t5 -67zM791 370v12q0 57 -46 99t-148 42q-103 0 -148.5 -42t-45.5 -99v-12q0 -58 46 -102t148 -44q103 0 148.5 44t45.5 102z" />
    <glyph glyph-name="one" unicode="1" horiz-adv-x="614" 
d="M205 399h-193v184q202 6 262 161h311v-744h-380v399z" />
    <glyph glyph-name="two" unicode="2" horiz-adv-x="1081" 
d="M1063 0h-1050v92q0 20 0.5 31.5t4.5 37t11.5 42.5t23.5 44t38.5 47.5t58.5 45.5t81 45t108.5 41t139.5 37q45 11 87 18q58 12 74.5 20t16.5 22v1q0 12 -8 19.5t-34.5 12.5t-73.5 5q-39 0 -67 -7.5t-41 -16t-20 -23.5t-7.5 -20t-1.5 -17h-381v5q0 40 7 72t36 72.5
t78.5 67.5t142 46t219.5 19h48q124 0 215 -12.5t145 -32.5t86 -51.5t43 -64t11 -74.5v-8q0 -43 -16.5 -74.5t-46.5 -54t-86 -40.5t-122 -31.5t-167 -27.5q-16 -2 -40.5 -6.5t-34.5 -5.5q-119 -19 -161.5 -34t-42.5 -34h396v73h330v-281z" />
    <glyph glyph-name="three" unicode="3" horiz-adv-x="1130" 
d="M576 -15h-51q-133 0 -232.5 20.5t-153.5 50t-87 70.5t-42 74.5t-9 70.5v9h386q1 -8 2.5 -14.5t10.5 -19.5t24.5 -22.5t48 -16.5t75.5 -7q65 0 102.5 7.5t48.5 17.5t11 25v2q0 39 -69 39h-223v188h224q61 0 61 32v1q0 14 -7.5 22t-42.5 14.5t-104 6.5q-153 0 -158 -65
h-382v11q0 32 8 61.5t39.5 67.5t84 64.5t151 45.5t231.5 19h47q101 0 181.5 -6.5t134 -16.5t93 -25.5t61 -31t34 -36.5t16 -37.5t3.5 -38.5v-4q0 -50 -44 -82.5t-112 -42.5q81 -11 135 -55.5t54 -126.5v-6q0 -265 -550 -265z" />
    <glyph glyph-name="four" unicode="4" horiz-adv-x="1122" 
d="M9 319l514 430h427v-401h164v-229h-164v-119h-383v119h-558v200zM567 348v198l-237 -198h237z" />
    <glyph glyph-name="five" unicode="5" horiz-adv-x="1063" 
d="M566 -15h-50q-101 0 -182 10.5t-132 26t-88 40t-55 45t-28 49t-11.5 44.5t-1.5 38v6h389q11 -22 30 -33q35 -19 104 -19q122 0 122 72v2q0 31 -29 50.5t-93 19.5q-110 0 -134 -56h-378v464h974v-195h-592v-98q83 60 259 60h8q112 0 188.5 -18.5t116.5 -54t56 -75.5
t16 -93v-6q0 -43 -10.5 -79t-42 -74.5t-83.5 -65t-142 -43.5t-211 -17z" />
    <glyph glyph-name="six" unicode="6" horiz-adv-x="1130" 
d="M585 -15h-47q-99 0 -180 14.5t-134.5 37.5t-94 56t-62 65.5t-35 72t-17 68.5t-3.5 61v24q0 31 3.5 59.5t16.5 68t34.5 72t62 66t95 56.5t137.5 38t185 15h47q121 0 213 -16.5t144.5 -41.5t85 -59t43 -64t10.5 -62v-5h-380q-36 49 -125 49q-94 0 -136.5 -41.5t-42.5 -95.5
v-7q93 67 307 67h12q220 0 310 -55.5t90 -161.5v-9q0 -42 -9 -75.5t-42 -72t-89 -64.5t-158 -43t-241 -17zM423 247q0 -29 33 -44.5t123 -15.5q88 0 120.5 15.5t32.5 44.5v1q0 59 -153 59q-89 0 -122.5 -15.5t-33.5 -43.5v-1z" />
    <glyph glyph-name="seven" unicode="7" horiz-adv-x="1043" 
d="M741 0h-415v78q0 71 33.5 131.5t131.5 141.5q30 24 89.5 69t89.5 70t30 33h-329v-127h-351v348h1009v-185q-112 -130 -166 -206q-68 -97 -95 -178t-27 -175z" />
    <glyph glyph-name="eight" unicode="8" horiz-adv-x="1111" 
d="M1090 561v-6q0 -62 -50.5 -105t-141.5 -56q97 -14 153 -59.5t56 -113.5v-7q0 -36 -8 -64t-39.5 -60.5t-86.5 -54t-156 -36t-241 -14.5h-41q-101 0 -182.5 7.5t-136 19.5t-94.5 31t-62.5 37.5t-35.5 43.5t-16.5 45t-3.5 45v7q0 68 57.5 113.5t151.5 59.5
q-90 14 -141.5 56.5t-51.5 104.5v6q0 22 4 40t17 39t35 37.5t61 32t92 26t131 17t175 6.5h43q134 0 231.5 -12.5t150.5 -30.5t83.5 -46.5t38.5 -52.5t8 -56zM693 523v3q0 14 -9.5 22.5t-41 14t-87.5 5.5q-58 0 -89 -5.5t-39.5 -14t-8.5 -22.5v-3q0 -15 9 -23.5t40.5 -14.5
t87.5 -6q81 0 109.5 11t28.5 33zM713 241v3q0 49 -158 49q-156 0 -156 -49v-3q0 -51 156 -51q158 0 158 51z" />
    <glyph glyph-name="nine" unicode="9" horiz-adv-x="1131" 
d="M708 497q0 29 -33 44.5t-123 15.5q-153 0 -153 -60v-1q0 -59 153 -59q89 0 122.5 15.5t33.5 43.5v1zM540 -15q-102 0 -184 11.5t-134.5 31.5t-89.5 44t-56 52.5t-26.5 53t-7.5 50.5v5h376q26 -49 131 -49q94 0 135.5 42t41.5 97v5q-87 -68 -296 -68h-12q-412 0 -412 238
v9q0 42 11 75.5t44.5 67.5t89.5 57t151.5 37.5t223.5 14.5h48q103 0 186.5 -14t139 -36t97.5 -54t64.5 -63.5t36 -69.5t17.5 -66.5t4 -59.5v-24q0 -32 -3 -60.5t-15.5 -69.5t-34 -74.5t-62 -68.5t-94.5 -59t-137 -39.5t-186 -15.5h-47z" />
    <glyph glyph-name="colon" unicode=":" horiz-adv-x="403" 
d="M381 515v-232h-359v232h359zM381 232v-232h-359v232h359z" />
    <glyph glyph-name="semicolon" unicode=";" horiz-adv-x="403" 
d="M381 515v-232h-359v232h359zM303 -135h-186q46 75 51 135h-146v232h359v-186q0 -44 -24.5 -95.5t-53.5 -85.5z" />
    <glyph glyph-name="less" unicode="&#x3c;" horiz-adv-x="547" 
d="M535 53l-524 154v193l524 153v-181l-321 -70l321 -68v-181z" />
    <glyph glyph-name="equal" unicode="=" horiz-adv-x="589" 
d="M13 489h563v-163h-563v163zM13 292h563v-163h-563v163z" />
    <glyph glyph-name="greater" unicode="&#x3e;" horiz-adv-x="527" 
d="M12 53v181l309 68l-309 70v181l504 -153v-193z" />
    <glyph glyph-name="question" unicode="?" horiz-adv-x="1008" 
d="M638 265h-357v50q0 33 3 50.5t16 40.5t44 37.5t82 24.5l133 26q42 8 59 16.5t17 21.5v1q0 11 -7 16.5t-33 9.5t-76 4q-51 0 -83 -6t-46 -17.5t-18 -21.5t-5 -26h-365v12q0 25 1.5 42.5t11.5 46t28 48.5t54 43.5t85.5 38t127 24.5t175.5 10h48q120 0 208.5 -13.5
t138.5 -33.5t79.5 -51t38 -59.5t8.5 -64.5v-9q0 -67 -42 -119.5t-143 -73.5l-135 -27q-27 -6 -37.5 -15t-10.5 -25v-1zM640 232v-232h-359v232h359z" />
    <glyph glyph-name="at" unicode="@" horiz-adv-x="1335" 
d="M669 -149q-122 0 -221 14.5t-166.5 38t-117.5 59t-78.5 72t-45.5 83.5t-22 86.5t-5 86.5v12q0 46 4.5 83.5t20.5 84t43.5 82.5t77.5 72t118 60t168.5 38.5t226.5 14.5h16q99 0 182 -8.5t143.5 -22t109 -35.5t80.5 -44t55 -51.5t35 -54.5t19 -58t8.5 -56t1.5 -53v-11
q0 -46 -8 -86t-31.5 -81.5t-61 -71t-100.5 -48.5t-145 -19h-18q-179 0 -226 77q-94 -77 -239 -77h-13q-56 0 -99.5 11.5t-69.5 31t-44.5 45t-24 53t-8 55.5t3.5 53l10 68q28 187 242 187h14q154 0 239 -77l8 73h352l-46 -362q-4 -32 24 -32q48 0 80 54.5t32 153.5v2
q0 28 -0.5 44t-5.5 44t-13.5 44.5t-26 40t-42.5 38t-63.5 31t-87.5 25.5t-116.5 15t-149.5 6h-16q-98 0 -177.5 -10.5t-133.5 -28t-93.5 -44.5t-62.5 -55t-36.5 -64.5t-17.5 -67.5t-4 -70v-11q0 -36 3.5 -65.5t16.5 -66.5t35 -65.5t61.5 -57.5t93 -47.5t133.5 -30.5t179 -12
q126 0 223 9.5t159.5 27t90 29t61.5 29.5l46 -94q-28 -16 -55.5 -27.5t-93 -30t-176 -28.5t-255.5 -10zM717 276l4 35q6 41 -6.5 61.5t-47.5 20.5q-21 0 -34 -12t-17.5 -26t-8.5 -38l-7 -38q-14 -89 47 -89q20 0 34 8t21 22.5t10 26.5t5 29z" />
    <glyph glyph-name="A" unicode="A" horiz-adv-x="1222" 
d="M680 309l-91 206l-89 -206h180zM816 0l-39 89h-372l-39 -89h-384l351 744h534l373 -744h-424z" />
    <glyph glyph-name="B" unicode="B" horiz-adv-x="1174" 
d="M28 0v744h819q282 0 282 -167v-6q0 -59 -43 -97.5t-105 -50.5q192 -34 192 -197v-8q0 -97 -77 -157.5t-249 -60.5h-819zM674 551h-266v-72h266q67 0 67 36v2q0 20 -15 27t-52 7zM689 292h-281v-92h281q46 0 63 12t17 35v2q0 22 -17 32.5t-63 10.5z" />
    <glyph glyph-name="C" unicode="C" horiz-adv-x="1192" 
d="M626 -15h-35q-579 0 -579 374v30q0 37 5 70t20.5 71.5t41 70t70 62t103.5 51t146 33t193 12.5h35q102 0 186 -12t140.5 -31t99 -47t67 -55.5t39.5 -60t19.5 -58t4.5 -52.5v-15h-385q-22 94 -194 94q-200 0 -200 -139v-12q0 -27 8.5 -50.5t28.5 -46.5t62 -36.5t101 -13.5
q50 0 87.5 9.5t56.5 21t31 28.5t14.5 25t4.5 18h385v-26q0 -38 -9.5 -74t-44.5 -82t-92 -79t-163 -56.5t-247 -23.5z" />
    <glyph glyph-name="D" unicode="D" horiz-adv-x="1193" 
d="M28 0v744h596q124 0 221 -18.5t159.5 -50t103 -76.5t57.5 -96t17 -111v-31q0 -60 -13.5 -109t-51.5 -97.5t-98.5 -81.5t-161 -53t-233.5 -20h-596zM408 513v-283h152q229 0 229 142v6q0 135 -229 135h-152z" />
    <glyph glyph-name="E" unicode="E" horiz-adv-x="949" 
d="M28 744h897v-208h-523v-58h517v-204h-517v-64h527v-210h-901v744z" />
    <glyph glyph-name="F" unicode="F" horiz-adv-x="928" 
d="M28 744h880v-208h-506v-60h498v-207h-498v-269h-374v744z" />
    <glyph glyph-name="G" unicode="G" horiz-adv-x="1225" 
d="M553 -15h-26q-120 0 -213 23t-148.5 59.5t-91.5 87.5t-49 100.5t-13 104.5v30q0 369 572 369h32q109 0 197.5 -11t147.5 -28.5t103 -43t68 -50.5t38.5 -56.5t18.5 -55t4 -50.5v-1h-388q-24 71 -195 71q-106 0 -156.5 -41t-50.5 -112v-9q0 -75 49.5 -121t154.5 -46
q42 0 76 5t54.5 12t34 16.5t18.5 17.5t5 15h-201v152h604v-423h-255q-5 16 -18.5 40t-26.5 38q-111 -93 -345 -93z" />
    <glyph glyph-name="H" unicode="H" horiz-adv-x="1214" 
d="M28 0v744h380v-247h398v247h380v-744h-380v265h-398v-265h-380z" />
    <glyph glyph-name="I" unicode="I" horiz-adv-x="435" 
d="M407 744v-744h-379v744h379z" />
    <glyph glyph-name="J" unicode="J" horiz-adv-x="1041" 
d="M453 -11q-90 0 -162 15t-117.5 37.5t-79.5 56.5t-50.5 64t-26 69.5t-11.5 63.5t-2 54v7h360q7 -51 36 -74q34 -26 98 -26h2q136 0 136 134v354h381v-359q0 -40 -3 -72t-14.5 -75t-31 -75.5t-56.5 -66.5t-87.5 -56.5t-127 -36.5t-171.5 -14h-73z" />
    <glyph glyph-name="K" unicode="K" horiz-adv-x="1190" 
d="M408 0h-380v744h380v-264l338 264h462l-442 -334l444 -410h-496l-306 297v-297z" />
    <glyph glyph-name="L" unicode="L" horiz-adv-x="942" 
d="M28 744h380v-479h516v-265h-896v744z" />
    <glyph glyph-name="M" unicode="M" horiz-adv-x="1391" 
d="M28 0v744h501l175 -331l182 331h477v-744h-378v368l-200 -368h-181l-199 368v-368h-377z" />
    <glyph glyph-name="N" unicode="N" horiz-adv-x="1215" 
d="M28 744h429l350 -338v338h380v-744h-387l-392 372v-372h-380v744z" />
    <glyph glyph-name="O" unicode="O" horiz-adv-x="1232" 
d="M591 759h50q579 0 579 -370v-30q0 -36 -5.5 -69t-21.5 -71.5t-42.5 -71t-71 -63.5t-103.5 -52t-145 -34t-190 -13h-50q-144 0 -252 25t-169 62t-98 90t-48.5 99t-11.5 98v30q0 370 579 370zM828 383q0 57 -50.5 98t-162.5 41q-113 0 -162.5 -40.5t-49.5 -98.5v-12
q0 -59 51 -103t161 -44q111 0 162 43t51 102v14z" />
    <glyph glyph-name="P" unicode="P" horiz-adv-x="1137" 
d="M767 203h-359v-203h-380v744h739q365 0 365 -254v-26q0 -261 -365 -261zM408 526v-98h266q67 0 67 48v2q0 48 -67 48h-266z" />
    <glyph glyph-name="Q" unicode="Q" horiz-adv-x="1232" 
d="M474 -155v144q-114 9 -199.5 37.5t-134.5 65.5t-79 86t-39.5 91.5t-9.5 89.5v30q0 370 579 370h50q579 0 579 -370v-30q0 -45 -8.5 -86t-36 -88t-71.5 -83t-121.5 -66t-180.5 -42l151 -149h-479zM828 383q0 57 -50.5 98t-162.5 41q-113 0 -162.5 -40.5t-49.5 -98.5v-12
q0 -59 51 -103t161 -44q111 0 162 43t51 102v14z" />
    <glyph glyph-name="R" unicode="R" horiz-adv-x="1164" 
d="M408 447h277q69 0 69 47t-69 47h-277v-94zM408 238v-238h-380v744h822q293 0 293 -188v-9q0 -40 -16.5 -72t-44.5 -51.5t-55 -31t-56 -17.5q87 -16 131.5 -64.5t44.5 -122.5v-113q0 -46 13 -69v-6h-391q-5 5 -5 23v90q0 125 -144 125h-212z" />
    <glyph glyph-name="S" unicode="S" horiz-adv-x="1136" 
d="M493 -15q-129 0 -224 18.5t-145 44.5t-79 64.5t-36.5 68t-7.5 64.5v8h445q2 -80 118 -80q114 0 114 52v3q0 15 -7 24t-39 18t-92 11l-157 5q-110 4 -186 24t-114.5 54.5t-54 72t-15.5 85.5v9q0 112 107 169t365 57h127q144 0 244 -18t152.5 -51.5t74 -73t21.5 -91.5v-5
h-436q-5 60 -114 60q-64 0 -86 -9.5t-22 -29.5v-2q0 -22 30.5 -32.5t113.5 -12.5l150 -4q214 -6 303 -60t89 -169v-14q0 -43 -12 -78t-45.5 -70t-88.5 -59t-147 -38.5t-215 -14.5h-131z" />
    <glyph glyph-name="T" unicode="T" horiz-adv-x="1056" 
d="M338 0v488h-321v256h1022v-256h-321v-488h-380z" />
    <glyph glyph-name="U" unicode="U" horiz-adv-x="1196" 
d="M21 399v345h382v-306q0 -171 194 -171h2q56 0 95.5 14.5t60 40.5t29.5 54t9 62v306h382v-345q0 -53 -9 -101t-43.5 -107.5t-91 -102t-162 -72t-247.5 -29.5h-50q-103 0 -186.5 15.5t-140 40t-98.5 60t-65.5 71.5t-38 78.5t-18.5 76t-4 70.5z" />
    <glyph glyph-name="V" unicode="V" horiz-adv-x="1190" 
d="M880 0h-543l-354 744h431l205 -459l194 459h394z" />
    <glyph glyph-name="W" unicode="W" horiz-adv-x="1744" 
d="M759 0h-515l-260 744h436l125 -439l117 439h455l115 -447l118 447h410l-267 -744h-509l-111 413z" />
    <glyph glyph-name="X" unicode="X" horiz-adv-x="1209" 
d="M430 0h-447l287 393l-269 351h460l151 -221l151 221h432l-253 -352l284 -392h-457l-169 232z" />
    <glyph glyph-name="Y" unicode="Y" horiz-adv-x="1186" 
d="M405 0v264l-425 480h438l191 -224l194 224h403l-421 -485v-259h-380z" />
    <glyph glyph-name="Z" unicode="Z" horiz-adv-x="1027" 
d="M19 744h989v-179l-443 -311h446v-254h-995v181l431 322h-428v241z" />
    <glyph glyph-name="bracketleft" unicode="[" horiz-adv-x="414" 
d="M27 -131v939h377v-133h-121v-673h121v-133h-377z" />
    <glyph glyph-name="backslash" unicode="\" horiz-adv-x="525" 
d="M307 -131l-324 939h264l320 -939h-260z" />
    <glyph glyph-name="bracketright" unicode="]" horiz-adv-x="414" 
d="M10 -131v133h121v673h-121v133h377v-939h-377z" />
    <glyph glyph-name="asciicircum" unicode="^" horiz-adv-x="799" 
d="M489 417l-97 146l-101 -146h-294l233 327h338l234 -327h-313z" />
    <glyph glyph-name="underscore" unicode="_" horiz-adv-x="892" 
d="M-5 -184v163h902v-163h-902z" />
    <glyph glyph-name="grave" unicode="`" 
d="M563 569h-308l-119 175h342z" />
    <glyph glyph-name="a" unicode="a" horiz-adv-x="927" 
d="M516 215v36l-116 -31q-39 -11 -39 -38v-1q0 -17 14 -30.5t46 -13.5q45 0 70 22.5t25 55.5zM519 68q-18 -17 -45 -32t-85.5 -30.5t-128.5 -15.5h-6q-125 0 -185.5 49t-60.5 119v20q0 61 45.5 99.5t156.5 47.5l283 23q24 2 24 22v1q0 34 -74 34h-2q-36 0 -55.5 -9.5
t-22.5 -16.5t-4 -18h-338v12q0 27 5 47.5t27.5 46.5t62 43t115 29t180.5 12h57q110 0 189.5 -12.5t121 -29.5t65.5 -43t29 -45t5 -43v-184q0 -17 14 -17h31v-177h-313q-79 0 -91 68z" />
    <glyph glyph-name="b" unicode="b" horiz-adv-x="972" 
d="M24 744h364v-276q14 13 38 27t83 30.5t127 16.5h26q87 0 149.5 -22.5t94.5 -61.5t45.5 -81t13.5 -92v-25q0 -51 -15 -94.5t-48.5 -83.5t-99 -63t-156.5 -23h-27q-139 0 -240 66q-8 -29 -12 -62h-343v744zM388 271v-4q0 -43 27.5 -74t77.5 -31h5q52 0 75.5 30.5t23.5 74.5
v4q0 45 -23 75t-75 30h-6q-52 0 -78.5 -30.5t-26.5 -74.5z" />
    <glyph glyph-name="c" unicode="c" horiz-adv-x="953" 
d="M517 -15h-70q-68 0 -125.5 6.5t-99 17.5t-75 27.5t-55.5 33t-38 39t-24 40.5t-13 41.5t-6 39t-1 35.5v14q0 26 2 45.5t11.5 50t26 53t49 47.5t77.5 41t114 26.5t156 10.5h72q83 0 150 -10t110.5 -26t76 -39t49.5 -44.5t27 -47.5t12.5 -44t2.5 -38v-3h-369
q-1 10 -4.5 21.5t-12.5 27.5t-29 26t-49 10h-5q-98 0 -98 -109v-1q0 -121 98 -121h5q29 0 49 11.5t29 28.5t12.5 29.5t4.5 22.5h369v-3q0 -19 -2 -36t-11.5 -45t-25.5 -50t-48.5 -47t-76 -42t-112 -28t-153.5 -11z" />
    <glyph glyph-name="d" unicode="d" horiz-adv-x="971" 
d="M583 271v8q0 37 -25 66.5t-79 29.5h-4q-52 0 -74 -29.5t-22 -68.5v-5q0 -43 21.5 -74t73.5 -31h4q55 0 80 31t25 73zM583 744h364v-744h-364v71q-82 -75 -247 -75h-25q-80 0 -140.5 22.5t-94 61t-49.5 83.5t-16 96v25q0 49 15.5 92.5t48 82t92 61t138.5 22.5h25
q162 0 253 -63v265z" />
    <glyph glyph-name="e" unicode="e" horiz-adv-x="954" 
d="M586 347q-11 60 -108 60q-57 0 -80.5 -16t-27.5 -44h216zM946 204q0 -219 -450 -219h-45q-85 0 -154 10.5t-114 27.5t-78.5 42t-51 48.5t-28 54t-13 52t-2.5 47.5v14q0 26 2.5 47t13 50t28.5 52t51.5 47t78.5 40t114 26t154 10h44q87 0 157 -10.5t116.5 -26.5t80 -41.5
t52 -50t29 -57.5t13 -57.5t2.5 -56.5v-14h-577q7 -88 111 -88q96 0 107 55h359v-2z" />
    <glyph glyph-name="f" unicode="f" horiz-adv-x="604" 
d="M591 744v-166h-79q-16 0 -21.5 -6.5t-5.5 -22.5v-11h106v-198h-106v-340h-365v340h-112v198h112v32q0 89 52 131.5t164 42.5h255z" />
    <glyph glyph-name="g" unicode="g" horiz-adv-x="985" 
d="M484 367h-5q-53 0 -78 -25t-25 -61v-3q0 -39 25 -66.5t78 -27.5h5q56 0 84.5 27.5t28.5 66.5v3q0 35 -29 60.5t-84 25.5zM531 -196h-89q-95 0 -168 12.5t-115.5 32t-69.5 46t-36 51t-9 50.5v4h364q8 -34 78 -34h3q51 0 79.5 26t28.5 76v32q-80 -80 -262 -80h-23
q-85 0 -146.5 22.5t-93.5 61.5t-46.5 81.5t-14.5 90.5v12q0 48 15 90.5t48 80.5t94.5 60t145.5 22h24q77 0 137 -14t78.5 -24t43.5 -27v62h364v-464q0 -53 -19 -97.5t-64 -85t-133.5 -64t-213.5 -23.5z" />
    <glyph glyph-name="h" unicode="h" horiz-adv-x="982" 
d="M24 0v744h364v-307q113 113 298 113h5q65 0 115 -15.5t78 -37t45.5 -50t23 -50.5t5.5 -41v-356h-364v241q0 103 -103 103q-53 0 -78 -29t-25 -73v-242h-364z" />
    <glyph glyph-name="i" unicode="i" horiz-adv-x="412" 
d="M388 744v-175h-364v175h364zM388 538v-538h-364v538h364z" />
    <glyph glyph-name="j" unicode="j" horiz-adv-x="412" 
d="M388 744v-175h-364v175h364zM-36 -20h27q21 0 27 6.5t6 28.5v523h364v-562q0 -164 -131 -164h-293v168z" />
    <glyph glyph-name="k" unicode="k" horiz-adv-x="909" 
d="M388 0h-364v744h364v-401l119 195h382l-151 -224l185 -314h-400l-135 229v-229z" />
    <glyph glyph-name="l" unicode="l" horiz-adv-x="412" 
d="M388 744v-744h-364v744h364z" />
    <glyph glyph-name="m" unicode="m" horiz-adv-x="1499" 
d="M388 0h-364v538h364v-101q118 113 286 113h4q179 0 236 -120q45 46 121.5 83t183.5 37h3q62 0 109.5 -15.5t73.5 -37.5t43 -50.5t22 -50t5 -40.5v-356h-364v244q0 100 -89 100q-46 0 -68 -28t-22 -71v-245h-364v244q0 100 -89 100q-46 0 -68.5 -28.5t-22.5 -70.5v-245z
" />
    <glyph glyph-name="n" unicode="n" horiz-adv-x="982" 
d="M24 0v538h364v-101q113 113 298 113h5q65 0 115 -15.5t78 -37t45.5 -50t23 -50.5t5.5 -41v-356h-364v241q0 103 -103 103q-53 0 -78 -29t-25 -73v-242h-364z" />
    <glyph glyph-name="o" unicode="o" horiz-adv-x="999" 
d="M459 -15q-85 0 -154 10.5t-114.5 27.5t-80 42t-53 49t-30 53.5t-14.5 51.5t-3 46v14q0 28 5.5 53.5t20 59t46 60.5t78.5 51t123.5 37t174.5 13h84q86 0 155.5 -10.5t115.5 -26.5t80 -40.5t52 -48t28.5 -52.5t13 -50t2.5 -45v-16q0 -36 -6 -67t-32.5 -72.5t-71.5 -70
t-132.5 -49t-206.5 -20.5h-81zM501 154q35 0 59.5 12t37 31.5t17.5 39t5 39.5q0 42 -26.5 75.5t-92.5 33.5h-3q-66 0 -92.5 -33.5t-26.5 -75.5q0 -21 5 -40t17 -39t37 -31.5t60 -11.5h3z" />
    <glyph glyph-name="p" unicode="p" horiz-adv-x="976" 
d="M388 270v-4q0 -40 26.5 -72.5t80.5 -32.5h6q50 0 72.5 32t22.5 72v4q0 43 -22.5 74.5t-72.5 31.5h-6q-55 0 -81 -31t-26 -74zM24 538h364v-71q90 75 243 75h27q73 0 129 -15.5t89 -40t53.5 -58.5t28 -66.5t7.5 -68.5v-25q0 -39 -8.5 -75t-30.5 -73t-56.5 -63.5t-92 -43.5
t-130.5 -17h-26q-140 0 -233 51v-235h-364v726z" />
    <glyph glyph-name="q" unicode="q" horiz-adv-x="970" 
d="M605 538h342v-726h-365v260q-93 -75 -253 -75h-27q-65 0 -117 16.5t-84 42.5t-53 61.5t-29 70.5t-8 72v25q0 48 14.5 90.5t46 81t91 61.5t139.5 23h27q163 0 260 -74q14 33 16 71zM582 271v8q0 38 -25 67t-79 29h-5q-50 0 -72 -29t-22 -69v-5q0 -43 21.5 -74t71.5 -31h5
q55 0 80 30.5t25 73.5z" />
    <glyph glyph-name="r" unicode="r" horiz-adv-x="890" 
d="M388 257v-257h-364v538h362v-106q100 118 240 118h12q63 0 109.5 -18t71 -43.5t39.5 -60t18.5 -60t3.5 -51.5v-99h-358v54q0 76 -64 76q-70 0 -70 -91z" />
    <glyph glyph-name="s" unicode="s" horiz-adv-x="875" 
d="M386 -15q-385 0 -385 191v8h367q2 -52 60 -52h2q57 0 57 35v1q0 18 -15.5 27t-58.5 10l-147 6q-76 4 -128.5 19t-79 39.5t-37.5 51.5t-11 61v7q0 53 30 87t116 55.5t231 21.5h78q115 0 193.5 -12.5t118.5 -36t55.5 -50.5t15.5 -63v-9h-357q-1 10 -3.5 17t-16.5 15t-40 8
h-2q-36 0 -48 -7t-12 -22q0 -29 75 -33l147 -6q112 -5 174.5 -27.5t83.5 -57t21 -91.5v-9q0 -32 -8 -56.5t-33.5 -49.5t-68.5 -41t-117.5 -26.5t-175.5 -10.5h-81z" />
    <glyph glyph-name="t" unicode="t" horiz-adv-x="584" 
d="M569 0h-301q-160 0 -160 154v186h-100v198h100v157h364v-157h97v-198h-97v-89q0 -31 8.5 -40t38.5 -9h50v-202z" />
    <glyph glyph-name="u" unicode="u" horiz-adv-x="975" 
d="M951 538v-538h-364v101q-13 -15 -32 -30t-54.5 -36t-90 -34t-118.5 -13h-6q-65 0 -114.5 15.5t-76.5 37.5t-44 51.5t-22 52t-5 43.5v350h364v-241q0 -103 99 -103q52 0 76 30t24 72v242h364z" />
    <glyph glyph-name="v" unicode="v" horiz-adv-x="933" 
d="M206 0l-220 538h389l99 -322l91 322h382l-209 -538h-532z" />
    <glyph glyph-name="w" unicode="w" horiz-adv-x="1360" 
d="M630 0h-451l-192 538h379l73 -321l69 321h367l67 -318l71 318h360l-184 -538h-435l-62 258z" />
    <glyph glyph-name="x" unicode="x" horiz-adv-x="951" 
d="M378 0h-388l184 284l-188 254h397l91 -144l78 144h392l-174 -250l195 -288h-401l-91 162z" />
    <glyph glyph-name="y" unicode="y" horiz-adv-x="905" 
d="M115 -188v177h115q24 0 24 18v1q0 11 -19 49l-249 481h386l105 -305l84 305h358l-215 -535q-41 -101 -95 -146t-130 -45h-364z" />
    <glyph glyph-name="z" unicode="z" horiz-adv-x="800" 
d="M785 0h-770v177l336 176h-337v185h771v-177l-328 -165h328v-196z" />
    <glyph glyph-name="braceleft" unicode="{" horiz-adv-x="441" 
d="M431 -131h-213q-186 0 -186 114q0 45 43.5 139.5t43.5 116.5q0 38 -41 38h-76v128h76q41 0 41 30q0 24 -43.5 116t-43.5 136q0 121 186 121h213v-133h-99q-46 0 -46 -30q0 -15 33 -91.5t33 -108.5q0 -42 -28.5 -66.5t-95.5 -36.5q67 -11 95.5 -32.5t28.5 -57.5t-33 -116
t-33 -94q0 -40 54 -40h91v-133z" />
    <glyph glyph-name="bar" unicode="|" horiz-adv-x="345" 
d="M291 808v-939h-237v939h237z" />
    <glyph glyph-name="braceright" unicode="}" horiz-adv-x="441" 
d="M10 -131v133h91q53 0 53 40q0 14 -32.5 94t-32.5 116t28 57.5t95 32.5q-67 12 -95 36.5t-28 66.5q0 32 32.5 108.5t32.5 91.5q0 30 -46 30h-98v133h213q184 0 184 -121q0 -44 -42.5 -136t-42.5 -116q0 -30 41 -30h76v-128h-76q-41 0 -41 -38q0 -22 42.5 -116.5
t42.5 -139.5q0 -114 -184 -114h-213z" />
    <glyph glyph-name="asciitilde" unicode="~" horiz-adv-x="731" 
d="M535 214q-60 0 -102 16t-94 49q-8 5 -20 13t-17 11t-12 6.5t-11.5 5t-8.5 1.5q-16 0 -16 -23v-90h-242v183q0 33 9 63.5t29 58.5t56.5 45t86.5 17q60 0 103 -14.5t94 -46.5q57 -35 68 -35t14.5 6.5t3.5 22.5v82h243v-208q0 -66 -44.5 -114.5t-139.5 -48.5z" />
    <glyph glyph-name="exclamdown" unicode="&#xa1;" horiz-adv-x="430" 
d="M463 -206h-496l134 478h228zM35 306v232h360v-232h-360z" />
    <glyph glyph-name="cent" unicode="&#xa2;" horiz-adv-x="978" 
d="M379 276q0 -94 62 -116v221q-62 -18 -62 -104v-1zM546 -77h-105v62q-86 1 -154.5 12.5t-112.5 28t-76.5 42t-49 48t-25.5 53t-11 50.5t-2 46v14q0 25 2 44.5t11.5 49.5t26 52t48.5 47t76.5 41.5t112.5 27.5t154 12v60h105v-60q82 -1 149 -11.5t110 -26.5t75.5 -39t49 -44
t26.5 -47t12.5 -43.5t2.5 -37.5v-3h-369q-4 58 -56 79v-218q52 23 56 85h369v-3q0 -19 -2 -35.5t-11 -44t-25 -49.5t-48 -47t-75.5 -42t-111.5 -28.5t-152 -12.5v-62z" />
    <glyph glyph-name="sterling" unicode="&#xa3;" horiz-adv-x="1053" 
d="M1038 266v-266h-1028v181h69q94 0 94 60v2q0 28 -8 65h-155v126h124q-12 53 -12 87v7q0 35 7.5 63t34 59.5t70.5 53t122.5 35.5t185.5 14h40q113 0 196 -16t128.5 -40.5t72 -62.5t34 -71.5t7.5 -77.5v-11h-366q-2 18 -4 27t-9.5 24t-26 22.5t-46.5 7.5q-49 0 -67.5 -20
t-18.5 -62q0 -11 2 -39h360v-126h-347v-14q0 -73 -92 -113h242v85h391z" />
    <glyph glyph-name="yen" unicode="&#xa5;" horiz-adv-x="1139" 
d="M385 0v165h-240v89h240v35h-240v87h176l-341 368h426l182 -217l186 217h385l-332 -368h178v-87h-240v-35h240v-89h-240v-165h-380z" />
    <glyph glyph-name="brokenbar" unicode="&#xa6;" horiz-adv-x="345" 
d="M291 808v-430h-237v430h237zM291 333v-464h-237v464h237z" />
    <glyph glyph-name="section" unicode="&#xa7;" horiz-adv-x="1035" 
d="M532 -208h-80q-107 0 -184 14t-119 34.5t-66 53t-30 60.5t-6 65v7h346q1 -14 3.5 -23t12 -23.5t32.5 -22.5t59 -8q87 0 87 40v2q0 23 -24 35t-98 22l-220 30q-241 33 -241 184v10q0 64 46 105t124 55q-98 47 -98 140v10q0 41 20 71.5t65.5 54.5t127.5 36.5t198 12.5h84
q108 0 184 -12.5t116.5 -30.5t62.5 -49t27 -56t5 -64v-4h-340q-1 13 -3.5 20.5t-11.5 19.5t-31.5 18t-56.5 6h-6q-50 0 -68.5 -7t-18.5 -23v-3q0 -31 93 -45l302 -46q116 -18 161 -60t45 -110v-11q0 -64 -52.5 -99.5t-120.5 -47.5q94 -38 94 -150v-7q0 -204 -420 -204z
M674 218q20 10 20 32q0 23 -19.5 37.5t-84.5 26.5l-244 44q-25 -8 -25 -33q0 -22 21 -38.5t88 -27.5z" />
    <glyph glyph-name="dieresis" unicode="&#xa8;" 
d="M649 744v-175h-281v175h281zM330 744v-175h-280v175h280z" />
    <glyph glyph-name="copyright" unicode="&#xa9;" horiz-adv-x="1217" 
d="M612 -15h-8q-137 0 -242.5 21t-170.5 55.5t-106.5 84t-57 101t-15.5 112.5v28q0 60 15.5 111t56.5 100.5t105.5 84t169.5 55.5t242 21h13q137 0 243 -21.5t170.5 -56t105.5 -84t56.5 -100.5t15.5 -110v-28q0 -374 -593 -374zM165 359q0 -64 20.5 -111.5t69 -85.5
t135 -57.5t211.5 -19.5h13q101 0 177 13t125 36t80 58t43.5 75.5t12.5 91.5v28q0 64 -21 111.5t-69.5 85t-135.5 57t-212 19.5h-13q-124 0 -210.5 -19.5t-135 -57t-69.5 -85t-21 -111.5v-28zM632 147h-13q-375 0 -375 212v34q0 207 373 207h9q86 0 152 -13t103.5 -32
t61.5 -45t31.5 -48.5t7.5 -46.5v-12h-283q-9 43 -84 43q-83 0 -83 -65v-4q0 -73 83 -73q74 0 84 49h283v-16q0 -25 -7 -47.5t-29.5 -49.5t-59 -46.5t-102 -33t-152.5 -13.5z" />
    <glyph glyph-name="ordfeminine" unicode="&#xaa;" horiz-adv-x="680" 
d="M307 481q30 0 47.5 15t17.5 37v20l-76 -20q-29 -8 -29 -26v-1q0 -25 40 -25zM375 429q-80 -51 -188 -51h-5q-97 0 -138.5 32.5t-41.5 79.5v12q0 41 37.5 65.5t128.5 31.5l179 14q25 2 25 18v1q0 23 -49 23h-1q-54 0 -54 -29h-256v8q0 16 3 28t19 30.5t44.5 30t86 20
t137.5 8.5h38q80 0 138.5 -8t88.5 -19.5t47 -28.5t20.5 -29.5t3.5 -28.5v-115q0 -12 10 -12h26v-124h-240q-50 0 -59 43z" />
    <glyph glyph-name="guillemotleft" unicode="&#xab;" horiz-adv-x="621" 
d="M238 286l110 -179h-231l-114 179l114 175h230zM512 286l103 -179h-231l-110 179l111 175h230z" />
    <glyph glyph-name="registered" unicode="&#xae;" horiz-adv-x="708" 
d="M336 759h37q78 0 137.5 -13t94 -33t56 -48.5t29 -55.5t7.5 -57v-14q0 -32 -8 -59.5t-29.5 -56t-56.5 -48.5t-94 -32.5t-136 -12.5h-37q-96 0 -163 18t-100.5 50t-47.5 66t-14 75v14q0 39 13 72t46 65.5t100.5 51t165.5 18.5zM358 393q69 0 117.5 10t73.5 23.5t39 36.5
t16.5 40t2.5 42t-3 42t-17 39.5t-39 36t-73.5 23t-116.5 9.5h-6q-69 0 -117.5 -9.5t-74 -23t-39.5 -35.5t-17 -39.5t-3 -42.5t2.5 -41.5t16.5 -39.5t39 -37t74.5 -24t118.5 -10h6zM332 565h37q22 0 22 18q0 17 -22 17h-37v-35zM332 508v-71h-149v218h252q62 0 84 -16t22 -43
v-1q0 -42 -60 -50q60 -9 60 -56v-27q0 -14 5 -21v-4h-153q-2 4 -2 10v27q0 19 -6.5 26.5t-28.5 7.5h-24z" />
    <glyph glyph-name="macron" unicode="&#xaf;" 
d="M95 577v142h509v-142h-509z" />
    <glyph glyph-name="degree" unicode="&#xb0;" horiz-adv-x="462" 
d="M231 335q-96 0 -159.5 58.5t-63.5 151.5t63.5 151.5t159.5 58.5t159.5 -58.5t63.5 -151.5t-63.5 -151.5t-159.5 -58.5zM231 472q34 0 54.5 20.5t20.5 52.5t-20.5 52.5t-54.5 20.5q-33 0 -54 -20.5t-21 -52.5t21 -52.5t54 -20.5z" />
    <glyph glyph-name="acute" unicode="&#xb4;" 
d="M136 569l85 175h342l-119 -175h-308z" />
    <glyph glyph-name="paragraph" unicode="&#xb6;" horiz-adv-x="869" 
d="M342 0v292h-63q-143 0 -209.5 61t-66.5 158v21q0 98 61 155t213 57h588v-152h-74v-592h-178v592h-93v-592h-178z" />
    <glyph glyph-name="periodcentered" unicode="&#xb7;" horiz-adv-x="401" 
d="M380 472v-232h-359v232h359z" />
    <glyph glyph-name="cedilla" unicode="&#xb8;" 
d="M143 -262v97h114q28 0 28 21q0 20 -28 20h-70v124h159v-46q122 0 166 -26.5t44 -78.5v-2q0 -53 -44.5 -81t-166.5 -28h-202z" />
    <glyph glyph-name="ordmasculine" unicode="&#xba;" horiz-adv-x="694" 
d="M374 376h-54q-314 0 -314 185v9q0 181 313 181h57q83 0 144 -13t92.5 -31t49.5 -45t22 -47t4 -45v-9q0 -25 -4 -45.5t-22.5 -48t-50.5 -46t-93 -32t-144 -13.5zM346 494h2q39 0 55 22t16 50q0 27 -16 47.5t-55 20.5h-2q-39 0 -55 -20.5t-16 -47.5q0 -72 71 -72z" />
    <glyph glyph-name="guillemotright" unicode="&#xbb;" horiz-adv-x="621" 
d="M109 286l-103 175h231l110 -175l-109 -179h-232zM505 107h-232l111 179l-110 175h231l113 -175z" />
    <glyph glyph-name="onequarter" unicode="&#xbc;" horiz-adv-x="1144" 
d="M121 566h-110v114q53 1 86.5 11.5t44.5 22t20 30.5h221v-368h-262v190zM870 744h239l-894 -744h-232zM532 196l278 172h262v-168h67v-121h-67v-79h-253v79h-287v117zM692 200h127v77z" />
    <glyph glyph-name="onehalf" unicode="&#xbd;" horiz-adv-x="1231" 
d="M869 744h239l-894 -744h-232zM121 566h-110v114q53 1 86.5 11.5t44.5 22t20 30.5h221v-368h-262v190zM1223 0h-608v56q0 28 3.5 44.5t19 37.5t45 35t84 29t134.5 26q45 6 59 12.5t14 16.5v1q0 20 -54 20q-56 0 -59 -34h-241v3q0 18 3 31.5t19.5 34t45 33.5t86.5 23
t138 10h18q89 0 150 -9t91.5 -26.5t42.5 -37t12 -45.5v-5q0 -35 -21.5 -55.5t-84 -35.5t-177.5 -22q-119 -8 -134 -22h414v-121z" />
    <glyph glyph-name="threequarters" unicode="&#xbe;" horiz-adv-x="1324" 
d="M329 365h-34q-75 0 -130.5 10t-85.5 25t-48 35t-23 36t-5 33v5h238q4 -29 67 -29q70 0 70 23v1q0 18 -39 18h-94v94h91q34 0 34 15v1q0 21 -62 21q-60 0 -64 -24h-234v6q0 10 2 20.5t17.5 30t42 34t82.5 25.5t132 11h40q93 0 154 -7t89.5 -21t38 -28t9.5 -34v-5
q0 -59 -90 -69q50 -6 81.5 -30t31.5 -65v-3q0 -27 -10 -46.5t-39.5 -40t-95.5 -31.5t-166 -11zM1049 744h239l-894 -744h-232zM712 196l278 172h262v-168h67v-121h-67v-79h-253v79h-287v117zM872 200h127v77z" />
    <glyph glyph-name="questiondown" unicode="&#xbf;" horiz-adv-x="1010" 
d="M371 273h358v-50q0 -26 -1.5 -40.5t-9 -35t-22.5 -32.5t-43 -24.5t-70 -20.5l-133 -26q-42 -8 -59 -16.5t-17 -21.5v-1q0 -11 7 -16.5t33 -9.5t76 -4q51 0 83 6t46 17.5t18 21.5t5 26h366v-12q0 -25 -1.5 -42.5t-11.5 -46t-28 -48.5t-54 -43.5t-86 -38t-127.5 -24.5
t-175.5 -10h-48q-121 0 -209.5 13.5t-138.5 33.5t-79.5 51t-38 59.5t-8.5 64.5v9q0 67 42 119.5t144 73.5l135 27q27 6 37.5 14.5t10.5 25.5v1zM369 306v232h360v-232h-360z" />
    <glyph glyph-name="Agrave" unicode="&#xc0;" horiz-adv-x="1222" 
d="M680 309l-91 206l-89 -206h180zM816 0l-39 89h-372l-39 -89h-384l351 744h534l373 -744h-424zM707 940l59 -164h-318l-95 164h354z" />
    <glyph glyph-name="Aacute" unicode="&#xc1;" horiz-adv-x="1222" 
d="M680 309l-91 206l-89 -206h180zM816 0l-39 89h-372l-39 -89h-384l351 744h534l373 -744h-424zM443 776l58 164h354l-94 -164h-318z" />
    <glyph glyph-name="Acircumflex" unicode="&#xc2;" horiz-adv-x="1222" 
d="M680 309l-91 206l-89 -206h180zM816 0l-39 89h-372l-39 -89h-384l351 744h534l373 -744h-424zM771 940l171 -165h-288l-54 58l-55 -58h-285l169 165h342z" />
    <glyph glyph-name="Atilde" unicode="&#xc3;" horiz-adv-x="1222" 
d="M680 309l-91 206l-89 -206h180zM816 0l-39 89h-372l-39 -89h-384l351 744h534l373 -744h-424zM739 775q-10 0 -20 0.5t-17 1t-17 2.5l-15 3t-17.5 4.5t-17 5t-21.5 6.5t-24 7q-46 15 -61 15t-15 -21v-24h-188v90q0 99 136 99h2q25 0 48.5 -3.5t41 -8t64.5 -18.5
q42 -13 55 -13q14 0 14 16v27h191v-77q0 -112 -136 -112h-3z" />
    <glyph glyph-name="Adieresis" unicode="&#xc4;" horiz-adv-x="1222" 
d="M680 309l-91 206l-89 -206h180zM816 0l-39 89h-372l-39 -89h-384l351 744h534l373 -744h-424zM912 940v-164h-291v164h291zM581 940v-164h-290v164h290z" />
    <glyph glyph-name="Aring" unicode="&#xc5;" horiz-adv-x="1222" 
d="M680 309l-91 206l-89 -206h180zM816 0l-39 89h-372l-39 -89h-384l351 744h534l373 -744h-424zM390 894q0 123 213 123t213 -123q0 -122 -213 -122t-213 122zM529 895q0 -43 74 -43t74 43q0 42 -74 42t-74 -42z" />
    <glyph glyph-name="AE" unicode="&#xc6;" horiz-adv-x="1592" 
d="M702 310v240l-151 -240h151zM702 0v90h-289l-57 -90h-376l488 744h1101v-208h-493v-58h487v-204h-487v-64h497v-210h-871z" />
    <glyph glyph-name="Ccedilla" unicode="&#xc7;" horiz-adv-x="1192" 
d="M418 -262v97h114q28 0 28 21q0 20 -28 20h-70v115q-450 39 -450 368v30q0 37 5 70t20.5 71.5t41 70t70 62t103.5 51t146 33t193 12.5h35q102 0 186 -12t140.5 -31t99 -47t67 -55.5t39.5 -60t19.5 -58t4.5 -52.5v-15h-385q-22 94 -194 94q-200 0 -200 -139v-12
q0 -27 8.5 -50.5t28.5 -46.5t62 -36.5t101 -13.5q50 0 87.5 9.5t56.5 21t31 28.5t14.5 25t4.5 18h385v-26q0 -38 -9.5 -74t-44.5 -82t-92 -79t-163 -56.5t-247 -23.5h-5v-31q122 0 166 -26.5t44 -78.5v-2q0 -53 -44.5 -81t-166.5 -28h-202z" />
    <glyph glyph-name="Egrave" unicode="&#xc8;" horiz-adv-x="949" 
d="M28 744h897v-208h-523v-58h517v-204h-517v-64h527v-210h-901v744zM598 940l59 -164h-318l-95 164h354z" />
    <glyph glyph-name="Eacute" unicode="&#xc9;" horiz-adv-x="949" 
d="M28 744h897v-208h-523v-58h517v-204h-517v-64h527v-210h-901v744zM323 776l58 164h354l-94 -164h-318z" />
    <glyph glyph-name="Ecircumflex" unicode="&#xca;" horiz-adv-x="949" 
d="M28 744h897v-208h-523v-58h517v-204h-517v-64h527v-210h-901v744zM659 940l171 -165h-288l-54 58l-55 -58h-285l169 165h342z" />
    <glyph glyph-name="Edieresis" unicode="&#xcb;" horiz-adv-x="949" 
d="M28 744h897v-208h-523v-58h517v-204h-517v-64h527v-210h-901v744zM796 940v-164h-291v164h291zM465 940v-164h-290v164h290z" />
    <glyph glyph-name="Igrave" unicode="&#xcc;" horiz-adv-x="435" 
d="M407 744v-744h-379v744h379zM317 940l59 -164h-318l-95 164h354z" />
    <glyph glyph-name="Iacute" unicode="&#xcd;" horiz-adv-x="435" 
d="M407 744v-744h-379v744h379zM59 776l58 164h354l-94 -164h-318z" />
    <glyph glyph-name="Icircumflex" unicode="&#xce;" horiz-adv-x="435" 
d="M407 744v-744h-379v744h379zM387 940l171 -165h-288l-54 58l-55 -58h-285l169 165h342z" />
    <glyph glyph-name="Idieresis" unicode="&#xcf;" horiz-adv-x="435" 
d="M407 744v-744h-379v744h379zM528 940v-164h-291v164h291zM197 940v-164h-290v164h290z" />
    <glyph glyph-name="Eth" unicode="&#xd0;" horiz-adv-x="1226" 
d="M61 0v287h-59v175h59v282h596q124 0 221 -18.5t159.5 -50t103 -76.5t57.5 -96t17 -111v-31q0 -60 -13.5 -109t-51.5 -97.5t-98.5 -81.5t-161 -53t-233.5 -20h-596zM441 513v-51h244v-175h-244v-57h152q229 0 229 142v6q0 135 -229 135h-152z" />
    <glyph glyph-name="Ntilde" unicode="&#xd1;" horiz-adv-x="1215" 
d="M28 744h429l350 -338v338h380v-744h-387l-392 372v-372h-380v744zM743 775q-10 0 -20 0.5t-17 1t-17 2.5l-15 3t-17.5 4.5t-17 5t-21.5 6.5t-24 7q-46 15 -61 15t-15 -21v-24h-188v90q0 99 136 99h2q25 0 48.5 -3.5t41 -8t64.5 -18.5q42 -13 55 -13q14 0 14 16v27h191
v-77q0 -112 -136 -112h-3z" />
    <glyph glyph-name="Ograve" unicode="&#xd2;" horiz-adv-x="1232" 
d="M718 940l56 -157h-318l-92 157h354zM591 759h50q579 0 579 -370v-30q0 -36 -5.5 -69t-21.5 -71.5t-42.5 -71t-71 -63.5t-103.5 -52t-145 -34t-190 -13h-50q-144 0 -252 25t-169 62t-98 90t-48.5 99t-11.5 98v30q0 370 579 370zM828 383q0 57 -50.5 98t-162.5 41
q-113 0 -162.5 -40.5t-49.5 -98.5v-12q0 -59 51 -103t161 -44q111 0 162 43t51 102v14z" />
    <glyph glyph-name="Oacute" unicode="&#xd3;" horiz-adv-x="1232" 
d="M458 783l56 157h354l-92 -157h-318zM591 759h50q579 0 579 -370v-30q0 -36 -5.5 -69t-21.5 -71.5t-42.5 -71t-71 -63.5t-103.5 -52t-145 -34t-190 -13h-50q-144 0 -252 25t-169 62t-98 90t-48.5 99t-11.5 98v30q0 370 579 370zM828 383q0 57 -50.5 98t-162.5 41
q-113 0 -162.5 -40.5t-49.5 -98.5v-12q0 -59 51 -103t161 -44q111 0 162 43t51 102v14z" />
    <glyph glyph-name="Ocircumflex" unicode="&#xd4;" horiz-adv-x="1232" 
d="M794 940l164 -158h-289l-54 58l-55 -58h-286l162 158h358zM591 759h50q579 0 579 -370v-30q0 -36 -5.5 -69t-21.5 -71.5t-42.5 -71t-71 -63.5t-103.5 -52t-145 -34t-190 -13h-50q-144 0 -252 25t-169 62t-98 90t-48.5 99t-11.5 98v30q0 370 579 370zM828 383
q0 57 -50.5 98t-162.5 41q-113 0 -162.5 -40.5t-49.5 -98.5v-12q0 -59 51 -103t161 -44q111 0 162 43t51 102v14z" />
    <glyph glyph-name="Otilde" unicode="&#xd5;" horiz-adv-x="1232" 
d="M591 759h50q579 0 579 -370v-30q0 -36 -5.5 -69t-21.5 -71.5t-42.5 -71t-71 -63.5t-103.5 -52t-145 -34t-190 -13h-50q-144 0 -252 25t-169 62t-98 90t-48.5 99t-11.5 98v30q0 370 579 370zM828 383q0 57 -50.5 98t-162.5 41q-113 0 -162.5 -40.5t-49.5 -98.5v-12
q0 -59 51 -103t161 -44q111 0 162 43t51 102v14zM752 782q-10 0 -20 0.5t-17 1t-17 2.5l-15 3t-17.5 4.5t-17 5t-21.5 6.5t-24 7q-46 15 -61 15t-15 -21v-24h-188v90q0 99 136 99h2q25 0 48.5 -3.5t41 -8t64.5 -18.5q42 -13 55 -13q14 0 14 16v27h191v-77q0 -112 -136 -112
h-3z" />
    <glyph glyph-name="Odieresis" unicode="&#xd6;" horiz-adv-x="1232" 
d="M929 940v-157h-293v157h293zM596 940v-157h-292v157h292zM591 759h50q579 0 579 -370v-30q0 -36 -5.5 -69t-21.5 -71.5t-42.5 -71t-71 -63.5t-103.5 -52t-145 -34t-190 -13h-50q-144 0 -252 25t-169 62t-98 90t-48.5 99t-11.5 98v30q0 370 579 370zM828 383
q0 57 -50.5 98t-162.5 41q-113 0 -162.5 -40.5t-49.5 -98.5v-12q0 -59 51 -103t161 -44q111 0 162 43t51 102v14z" />
    <glyph glyph-name="multiply" unicode="&#xd7;" horiz-adv-x="571" 
d="M453 35l-165 149l-163 -149l-125 139l149 136l-147 133l115 139l165 -149l163 149l126 -139l-149 -137l146 -132z" />
    <glyph glyph-name="Oslash" unicode="&#xd8;" horiz-adv-x="1247" 
d="M598 -13q-181 0 -306 41l-38 -28h-264l142 105q-122 95 -122 252v30q0 36 5.5 69t22 71t43 70t72 62.5t105.5 51.5t147 33.5t193 12.5h48q172 0 297 -40l36 27h263l-138 -102q131 -97 131 -255v-30q0 -43 -8.5 -81t-30 -82t-64.5 -79.5t-105 -65t-159.5 -46t-221.5 -16.5
h-48zM622 215q119 0 175.5 44t56.5 111v14q0 34 -15 63l-305 -231q27 -1 88 -1zM391 370q0 -33 14 -63l298 225h-81q-121 0 -176 -41.5t-55 -106.5v-14z" />
    <glyph glyph-name="Ugrave" unicode="&#xd9;" horiz-adv-x="1196" 
d="M21 399v345h382v-306q0 -171 194 -171h2q56 0 95.5 14.5t60 40.5t29.5 54t9 62v306h382v-345q0 -53 -9 -101t-43.5 -107.5t-91 -102t-162 -72t-247.5 -29.5h-50q-103 0 -186.5 15.5t-140 40t-98.5 60t-65.5 71.5t-38 78.5t-18.5 76t-4 70.5zM702 940l59 -164h-318
l-95 164h354z" />
    <glyph glyph-name="Uacute" unicode="&#xda;" horiz-adv-x="1196" 
d="M21 399v345h382v-306q0 -171 194 -171h2q56 0 95.5 14.5t60 40.5t29.5 54t9 62v306h382v-345q0 -53 -9 -101t-43.5 -107.5t-91 -102t-162 -72t-247.5 -29.5h-50q-103 0 -186.5 15.5t-140 40t-98.5 60t-65.5 71.5t-38 78.5t-18.5 76t-4 70.5zM435 776l58 164h354l-94 -164
h-318z" />
    <glyph glyph-name="Ucircumflex" unicode="&#xdb;" horiz-adv-x="1196" 
d="M21 399v345h382v-306q0 -171 194 -171h2q56 0 95.5 14.5t60 40.5t29.5 54t9 62v306h382v-345q0 -53 -9 -101t-43.5 -107.5t-91 -102t-162 -72t-247.5 -29.5h-50q-103 0 -186.5 15.5t-140 40t-98.5 60t-65.5 71.5t-38 78.5t-18.5 76t-4 70.5zM768 940l171 -165h-288
l-54 58l-55 -58h-285l169 165h342z" />
    <glyph glyph-name="Udieresis" unicode="&#xdc;" horiz-adv-x="1196" 
d="M21 399v345h382v-306q0 -171 194 -171h2q56 0 95.5 14.5t60 40.5t29.5 54t9 62v306h382v-345q0 -53 -9 -101t-43.5 -107.5t-91 -102t-162 -72t-247.5 -29.5h-50q-103 0 -186.5 15.5t-140 40t-98.5 60t-65.5 71.5t-38 78.5t-18.5 76t-4 70.5zM909 940v-164h-291v164h291z
M578 940v-164h-290v164h290z" />
    <glyph glyph-name="Yacute" unicode="&#xdd;" horiz-adv-x="1186" 
d="M405 0v264l-425 480h438l191 -224l194 224h403l-421 -485v-259h-380zM446 776l58 164h354l-94 -164h-318z" />
    <glyph glyph-name="Thorn" unicode="&#xde;" horiz-adv-x="1125" 
d="M743 104h-335v-104h-380v744h380v-95h335q88 0 155 -13.5t108.5 -36t67 -56t35.5 -69.5t10 -81v-25q0 -45 -10 -82t-36 -71.5t-67 -58.5t-108 -38t-155 -14zM408 431v-102h253q67 0 67 50v3q0 49 -67 49h-253z" />
    <glyph glyph-name="germandbls" unicode="&#xdf;" horiz-adv-x="996" 
d="M787 442q90 -12 147 -64.5t57 -136.5v-12q0 -45 -13.5 -83t-44 -72.5t-90.5 -54t-144 -19.5h-277v191h111q80 0 80 54v3q0 53 -79 53h-112v191h109q68 0 68 42v2q0 46 -88 46h-36q-53 0 -70 -14.5t-17 -44.5v-523h-364v537q0 37 7.5 64t32.5 55.5t68 46.5t119 29.5
t180 11.5h113q105 0 181.5 -11.5t116 -27t62 -40t27.5 -43.5t5 -44v-9q0 -52 -43.5 -85.5t-105.5 -41.5z" />
    <glyph glyph-name="agrave" unicode="&#xe0;" horiz-adv-x="927" 
d="M604 574h-308l-117 170h342zM516 215v36l-116 -31q-39 -11 -39 -38v-1q0 -17 14 -30.5t46 -13.5q45 0 70 22.5t25 55.5zM519 68q-18 -17 -45 -32t-85.5 -30.5t-128.5 -15.5h-6q-125 0 -185.5 49t-60.5 119v20q0 61 45.5 99.5t156.5 47.5l283 23q24 2 24 22v1q0 34 -74 34
h-2q-36 0 -55.5 -9.5t-22.5 -16.5t-4 -18h-338v12q0 27 5 47.5t27.5 46.5t62 43t115 29t180.5 12h57q110 0 189.5 -12.5t121 -29.5t65.5 -43t29 -45t5 -43v-184q0 -17 14 -17h31v-177h-313q-79 0 -91 68z" />
    <glyph glyph-name="aacute" unicode="&#xe1;" horiz-adv-x="927" 
d="M291 574l83 170h342l-117 -170h-308zM516 215v36l-116 -31q-39 -11 -39 -38v-1q0 -17 14 -30.5t46 -13.5q45 0 70 22.5t25 55.5zM519 68q-18 -17 -45 -32t-85.5 -30.5t-128.5 -15.5h-6q-125 0 -185.5 49t-60.5 119v20q0 61 45.5 99.5t156.5 47.5l283 23q24 2 24 22v1
q0 34 -74 34h-2q-36 0 -55.5 -9.5t-22.5 -16.5t-4 -18h-338v12q0 27 5 47.5t27.5 46.5t62 43t115 29t180.5 12h57q110 0 189.5 -12.5t121 -29.5t65.5 -43t29 -45t5 -43v-184q0 -17 14 -17h31v-177h-313q-79 0 -91 68z" />
    <glyph glyph-name="acircumflex" unicode="&#xe2;" horiz-adv-x="927" 
d="M615 744l155 -170h-278l-52 65l-51 -65h-275l156 170h345zM516 215v36l-116 -31q-39 -11 -39 -38v-1q0 -17 14 -30.5t46 -13.5q45 0 70 22.5t25 55.5zM519 68q-18 -17 -45 -32t-85.5 -30.5t-128.5 -15.5h-6q-125 0 -185.5 49t-60.5 119v20q0 61 45.5 99.5t156.5 47.5
l283 23q24 2 24 22v1q0 34 -74 34h-2q-36 0 -55.5 -9.5t-22.5 -16.5t-4 -18h-338v12q0 27 5 47.5t27.5 46.5t62 43t115 29t180.5 12h57q110 0 189.5 -12.5t121 -29.5t65.5 -43t29 -45t5 -43v-184q0 -17 14 -17h31v-177h-313q-79 0 -91 68z" />
    <glyph glyph-name="atilde" unicode="&#xe3;" horiz-adv-x="927" 
d="M516 215v36l-116 -31q-39 -11 -39 -38v-1q0 -17 14 -30.5t46 -13.5q45 0 70 22.5t25 55.5zM519 68q-18 -17 -45 -32t-85.5 -30.5t-128.5 -15.5h-6q-125 0 -185.5 49t-60.5 119v20q0 61 45.5 99.5t156.5 47.5l283 23q24 2 24 22v1q0 34 -74 34h-2q-36 0 -55.5 -9.5
t-22.5 -16.5t-4 -18h-338v12q0 27 5 47.5t27.5 46.5t62 43t115 29t180.5 12h57q110 0 189.5 -12.5t121 -29.5t65.5 -43t29 -45t5 -43v-184q0 -17 14 -17h31v-177h-313q-79 0 -91 68zM579 573q-25 0 -47 3.5t-39 8.5t-59 18q-43 14 -55 14q-16 0 -16 -21v-23h-189v88
q0 99 136 99h2q58 0 150 -30q41 -13 51 -13q14 0 14 16v27h190v-75q0 -20 -4 -36t-16.5 -35t-42 -30t-73.5 -11h-2z" />
    <glyph glyph-name="adieresis" unicode="&#xe4;" horiz-adv-x="927" 
d="M743 744v-170h-282v170h282zM423 744v-170h-281v170h281zM516 215v36l-116 -31q-39 -11 -39 -38v-1q0 -17 14 -30.5t46 -13.5q45 0 70 22.5t25 55.5zM519 68q-18 -17 -45 -32t-85.5 -30.5t-128.5 -15.5h-6q-125 0 -185.5 49t-60.5 119v20q0 61 45.5 99.5t156.5 47.5
l283 23q24 2 24 22v1q0 34 -74 34h-2q-36 0 -55.5 -9.5t-22.5 -16.5t-4 -18h-338v12q0 27 5 47.5t27.5 46.5t62 43t115 29t180.5 12h57q110 0 189.5 -12.5t121 -29.5t65.5 -43t29 -45t5 -43v-184q0 -17 14 -17h31v-177h-313q-79 0 -91 68z" />
    <glyph glyph-name="aring" unicode="&#xe5;" horiz-adv-x="927" 
d="M230 692q0 123 211 123t211 -123q0 -122 -211 -122t-211 122zM369 693q0 -43 72 -43t72 43q0 42 -72 42t-72 -42zM516 215v36l-116 -31q-39 -11 -39 -38v-1q0 -17 14 -30.5t46 -13.5q45 0 70 22.5t25 55.5zM519 68q-18 -17 -45 -32t-85.5 -30.5t-128.5 -15.5h-6
q-125 0 -185.5 49t-60.5 119v20q0 61 45.5 99.5t156.5 47.5l283 23q24 2 24 22v1q0 34 -74 34h-2q-36 0 -55.5 -9.5t-22.5 -16.5t-4 -18h-338v12q0 27 5 47.5t27.5 46.5t62 43t115 29t180.5 12h57q110 0 189.5 -12.5t121 -29.5t65.5 -43t29 -45t5 -43v-184q0 -17 14 -17h31
v-177h-313q-79 0 -91 68z" />
    <glyph glyph-name="ae" unicode="&#xe6;" horiz-adv-x="1460" 
d="M985 407q-101 0 -109 -60h216q-10 60 -107 60zM421 137q45 0 70 22.5t25 55.5v36l-116 -31q-39 -11 -39 -38v-1q0 -17 14 -30.5t46 -13.5zM1452 203q0 -29 -8 -54t-36 -56.5t-74.5 -53.5t-131.5 -37t-199 -15h-45q-258 0 -372 98q-24 -19 -43.5 -31.5t-56.5 -29.5
t-90 -25.5t-119 -8.5h-7q-137 0 -199.5 48.5t-62.5 119.5v20q0 61 45.5 99.5t156.5 47.5l283 23q24 3 24 22v1q0 34 -74 34h-2q-36 0 -55.5 -9.5t-22.5 -16.5t-4 -18h-337v12q0 25 4 43.5t25.5 46t60.5 45t115.5 30.5t183.5 13h53q170 0 247 -48q88 47 249 47h43
q88 0 158 -10.5t116.5 -26.5t80 -41.5t51.5 -49.5t28 -56.5t12.5 -56.5t2.5 -55v-15h-577q7 -88 111 -88q92 0 108 55h358v-3z" />
    <glyph glyph-name="ccedilla" unicode="&#xe7;" horiz-adv-x="953" 
d="M272 -262v97h114q28 0 28 21q0 20 -28 20h-70v116q-84 10 -144 34t-90.5 51t-47.5 65.5t-20.5 63.5t-3.5 59v14q0 26 2 45.5t11.5 50t26 53t49 47.5t77.5 41t114 26.5t156 10.5h72q83 0 150 -10t110.5 -26t76 -39t49.5 -44.5t27 -47.5t12.5 -44t2.5 -38v-3h-369
q-1 10 -4.5 21.5t-12.5 27.5t-29 26t-49 10h-5q-98 0 -98 -109v-1q0 -121 98 -121h5q29 0 49 11.5t29 28.5t12.5 29.5t4.5 22.5h369v-3q0 -19 -2 -36t-11.5 -45t-25.5 -50t-48.5 -47t-76 -42t-112 -28t-153.5 -11h-42v-31q122 0 166 -26.5t44 -78.5v-2q0 -53 -44.5 -81
t-166.5 -28h-202z" />
    <glyph glyph-name="egrave" unicode="&#xe8;" horiz-adv-x="954" 
d="M633 576h-308l-116 168h342zM586 347q-11 60 -108 60q-57 0 -80.5 -16t-27.5 -44h216zM946 204q0 -219 -450 -219h-45q-85 0 -154 10.5t-114 27.5t-78.5 42t-51 48.5t-28 54t-13 52t-2.5 47.5v14q0 26 2.5 47t13 50t28.5 52t51.5 47t78.5 40t114 26t154 10h44
q87 0 157 -10.5t116.5 -26.5t80 -41.5t52 -50t29 -57.5t13 -57.5t2.5 -56.5v-14h-577q7 -88 111 -88q96 0 107 55h359v-2z" />
    <glyph glyph-name="eacute" unicode="&#xe9;" horiz-adv-x="954" 
d="M326 576l82 168h342l-116 -168h-308zM586 347q-11 60 -108 60q-57 0 -80.5 -16t-27.5 -44h216zM946 204q0 -219 -450 -219h-45q-85 0 -154 10.5t-114 27.5t-78.5 42t-51 48.5t-28 54t-13 52t-2.5 47.5v14q0 26 2.5 47t13 50t28.5 52t51.5 47t78.5 40t114 26t154 10h44
q87 0 157 -10.5t116.5 -26.5t80 -41.5t52 -50t29 -57.5t13 -57.5t2.5 -56.5v-14h-577q7 -88 111 -88q96 0 107 55h359v-2z" />
    <glyph glyph-name="ecircumflex" unicode="&#xea;" horiz-adv-x="954" 
d="M652 744l155 -168h-278l-52 63l-51 -63h-275l156 168h345zM586 347q-11 60 -108 60q-57 0 -80.5 -16t-27.5 -44h216zM946 204q0 -219 -450 -219h-45q-85 0 -154 10.5t-114 27.5t-78.5 42t-51 48.5t-28 54t-13 52t-2.5 47.5v14q0 26 2.5 47t13 50t28.5 52t51.5 47t78.5 40
t114 26t154 10h44q87 0 157 -10.5t116.5 -26.5t80 -41.5t52 -50t29 -57.5t13 -57.5t2.5 -56.5v-14h-577q7 -88 111 -88q96 0 107 55h359v-2z" />
    <glyph glyph-name="edieresis" unicode="&#xeb;" horiz-adv-x="954" 
d="M781 744v-168h-283v168h283zM460 744v-168h-282v168h282zM586 347q-11 60 -108 60q-57 0 -80.5 -16t-27.5 -44h216zM946 204q0 -219 -450 -219h-45q-85 0 -154 10.5t-114 27.5t-78.5 42t-51 48.5t-28 54t-13 52t-2.5 47.5v14q0 26 2.5 47t13 50t28.5 52t51.5 47t78.5 40
t114 26t154 10h44q87 0 157 -10.5t116.5 -26.5t80 -41.5t52 -50t29 -57.5t13 -57.5t2.5 -56.5v-14h-577q7 -88 111 -88q96 0 107 55h359v-2z" />
    <glyph glyph-name="igrave" unicode="&#xec;" horiz-adv-x="412" 
d="M388 538v-538h-364v538h364zM361 569h-308l-119 175h342z" />
    <glyph glyph-name="iacute" unicode="&#xed;" horiz-adv-x="412" 
d="M388 538v-538h-364v538h364zM52 569l85 175h342l-119 -175h-308z" />
    <glyph glyph-name="icircumflex" unicode="&#xee;" horiz-adv-x="412" 
d="M354 744l113 -175h-222l-41 70l-40 -70h-219l114 175h295zM388 538v-538h-364v538h364z" />
    <glyph glyph-name="idieresis" unicode="&#xef;" horiz-adv-x="412" 
d="M435 744v-175h-214v175h214zM191 744v-175h-214v175h214zM388 538v-538h-364v538h364z" />
    <glyph glyph-name="eth" unicode="&#xf0;" horiz-adv-x="999" 
d="M466 -15q-106 0 -188 17t-131.5 43.5t-81 63.5t-43.5 73t-12 76v21q0 49 13.5 90.5t46 80t96 60.5t152.5 22h10q136 0 222 -37l-115 83l-284 -29v93l171 17l-118 85h423l65 -47l222 23v-94l-107 -11q101 -73 141.5 -145.5t40.5 -167.5v-20q0 -42 -7.5 -77t-36.5 -78
t-77 -72.5t-137 -49.5t-210 -20h-55zM501 154q35 0 59.5 12t37 31.5t17.5 39t5 39.5q0 42 -26.5 75.5t-92.5 33.5h-3q-66 0 -92.5 -33.5t-26.5 -75.5q0 -21 5 -40t17 -39t37 -31.5t60 -11.5h3z" />
    <glyph glyph-name="ntilde" unicode="&#xf1;" horiz-adv-x="982" 
d="M24 0v538h364v-101q113 113 298 113h5q65 0 115 -15.5t78 -37t45.5 -50t23 -50.5t5.5 -41v-356h-364v241q0 103 -103 103q-53 0 -78 -29t-25 -73v-242h-364zM629 568q-25 0 -47 3.5t-39 8.5t-59 18q-43 14 -55 14q-16 0 -16 -21v-23h-189v88q0 99 136 99h2q58 0 150 -30
q41 -13 51 -13q14 0 14 16v27h190v-75q0 -20 -4 -36t-16.5 -35t-42 -30t-73.5 -11h-2z" />
    <glyph glyph-name="ograve" unicode="&#xf2;" horiz-adv-x="999" 
d="M654 576h-308l-116 168h342zM459 -15q-85 0 -154 10.5t-114.5 27.5t-80 42t-53 49t-30 53.5t-14.5 51.5t-3 46v14q0 28 5.5 53.5t20 59t46 60.5t78.5 51t123.5 37t174.5 13h84q86 0 155.5 -10.5t115.5 -26.5t80 -40.5t52 -48t28.5 -52.5t13 -50t2.5 -45v-16q0 -36 -6 -67
t-32.5 -72.5t-71.5 -70t-132.5 -49t-206.5 -20.5h-81zM501 154q35 0 59.5 12t37 31.5t17.5 39t5 39.5q0 42 -26.5 75.5t-92.5 33.5h-3q-66 0 -92.5 -33.5t-26.5 -75.5q0 -21 5 -40t17 -39t37 -31.5t60 -11.5h3z" />
    <glyph glyph-name="oacute" unicode="&#xf3;" horiz-adv-x="999" 
d="M344 576l82 168h342l-116 -168h-308zM459 -15q-85 0 -154 10.5t-114.5 27.5t-80 42t-53 49t-30 53.5t-14.5 51.5t-3 46v14q0 28 5.5 53.5t20 59t46 60.5t78.5 51t123.5 37t174.5 13h84q86 0 155.5 -10.5t115.5 -26.5t80 -40.5t52 -48t28.5 -52.5t13 -50t2.5 -45v-16
q0 -36 -6 -67t-32.5 -72.5t-71.5 -70t-132.5 -49t-206.5 -20.5h-81zM501 154q35 0 59.5 12t37 31.5t17.5 39t5 39.5q0 42 -26.5 75.5t-92.5 33.5h-3q-66 0 -92.5 -33.5t-26.5 -75.5q0 -21 5 -40t17 -39t37 -31.5t60 -11.5h3z" />
    <glyph glyph-name="ocircumflex" unicode="&#xf4;" horiz-adv-x="999" 
d="M672 744l155 -168h-278l-52 63l-51 -63h-275l156 168h345zM459 -15q-85 0 -154 10.5t-114.5 27.5t-80 42t-53 49t-30 53.5t-14.5 51.5t-3 46v14q0 28 5.5 53.5t20 59t46 60.5t78.5 51t123.5 37t174.5 13h84q86 0 155.5 -10.5t115.5 -26.5t80 -40.5t52 -48t28.5 -52.5
t13 -50t2.5 -45v-16q0 -36 -6 -67t-32.5 -72.5t-71.5 -70t-132.5 -49t-206.5 -20.5h-81zM501 154q35 0 59.5 12t37 31.5t17.5 39t5 39.5q0 42 -26.5 75.5t-92.5 33.5h-3q-66 0 -92.5 -33.5t-26.5 -75.5q0 -21 5 -40t17 -39t37 -31.5t60 -11.5h3z" />
    <glyph glyph-name="otilde" unicode="&#xf5;" horiz-adv-x="999" 
d="M459 -15q-85 0 -154 10.5t-114.5 27.5t-80 42t-53 49t-30 53.5t-14.5 51.5t-3 46v14q0 28 5.5 53.5t20 59t46 60.5t78.5 51t123.5 37t174.5 13h84q86 0 155.5 -10.5t115.5 -26.5t80 -40.5t52 -48t28.5 -52.5t13 -50t2.5 -45v-16q0 -36 -6 -67t-32.5 -72.5t-71.5 -70
t-132.5 -49t-206.5 -20.5h-81zM501 154q35 0 59.5 12t37 31.5t17.5 39t5 39.5q0 42 -26.5 75.5t-92.5 33.5h-3q-66 0 -92.5 -33.5t-26.5 -75.5q0 -21 5 -40t17 -39t37 -31.5t60 -11.5h3zM631 575q-25 0 -47 3.5t-39 8.5t-59 18q-43 14 -55 14q-16 0 -16 -21v-23h-189v88
q0 99 136 99h2q58 0 150 -30q41 -13 51 -13q14 0 14 16v27h190v-75q0 -20 -4 -36t-16.5 -35t-42 -30t-73.5 -11h-2z" />
    <glyph glyph-name="odieresis" unicode="&#xf6;" horiz-adv-x="999" 
d="M801 744v-168h-283v168h283zM480 744v-168h-282v168h282zM459 -15q-85 0 -154 10.5t-114.5 27.5t-80 42t-53 49t-30 53.5t-14.5 51.5t-3 46v14q0 28 5.5 53.5t20 59t46 60.5t78.5 51t123.5 37t174.5 13h84q86 0 155.5 -10.5t115.5 -26.5t80 -40.5t52 -48t28.5 -52.5
t13 -50t2.5 -45v-16q0 -36 -6 -67t-32.5 -72.5t-71.5 -70t-132.5 -49t-206.5 -20.5h-81zM501 154q35 0 59.5 12t37 31.5t17.5 39t5 39.5q0 42 -26.5 75.5t-92.5 33.5h-3q-66 0 -92.5 -33.5t-26.5 -75.5q0 -21 5 -40t17 -39t37 -31.5t60 -11.5h3z" />
    <glyph glyph-name="divide" unicode="&#xf7;" horiz-adv-x="589" 
d="M401 606v-175h-214v175h214zM11 396h567v-174h-567v174zM401 185v-174h-214v174h214z" />
    <glyph glyph-name="oslash" unicode="&#xf8;" horiz-adv-x="999" 
d="M452 -15q-146 0 -239 35l-33 -20h-189l115 75q-96 66 -96 190v14q0 28 5 53.5t20 59t47 60.5t79.5 51t125.5 37t177 13h84q142 0 234 -33l28 18h193l-106 -71q92 -70 92 -187v-16q0 -37 -6.5 -68t-33 -72.5t-72.5 -69.5t-134.5 -48.5t-208.5 -20.5h-82zM367 276
q0 -19 2 -29l203 133q-31 12 -72 12h-3q-72 0 -101 -35t-29 -81zM502 147q72 0 101 39.5t29 89.5q0 13 -1 20l-205 -135q28 -14 74 -14h2z" />
    <glyph glyph-name="ugrave" unicode="&#xf9;" horiz-adv-x="975" 
d="M951 538v-538h-364v101q-13 -15 -32 -30t-54.5 -36t-90 -34t-118.5 -13h-6q-65 0 -114.5 15.5t-76.5 37.5t-44 51.5t-22 52t-5 43.5v350h364v-241q0 -103 99 -103q52 0 76 30t24 72v242h364zM649 569h-308l-119 175h342z" />
    <glyph glyph-name="uacute" unicode="&#xfa;" horiz-adv-x="975" 
d="M951 538v-538h-364v101q-13 -15 -32 -30t-54.5 -36t-90 -34t-118.5 -13h-6q-65 0 -114.5 15.5t-76.5 37.5t-44 51.5t-22 52t-5 43.5v350h364v-241q0 -103 99 -103q52 0 76 30t24 72v242h364zM331 569l85 175h342l-119 -175h-308z" />
    <glyph glyph-name="ucircumflex" unicode="&#xfb;" horiz-adv-x="975" 
d="M951 538v-538h-364v101q-13 -15 -32 -30t-54.5 -36t-90 -34t-118.5 -13h-6q-65 0 -114.5 15.5t-76.5 37.5t-44 51.5t-22 52t-5 43.5v350h364v-241q0 -103 99 -103q52 0 76 30t24 72v242h364zM660 744l155 -175h-278l-52 70l-51 -70h-275l156 175h345z" />
    <glyph glyph-name="udieresis" unicode="&#xfc;" horiz-adv-x="975" 
d="M951 538v-538h-364v101q-13 -15 -32 -30t-54.5 -36t-90 -34t-118.5 -13h-6q-65 0 -114.5 15.5t-76.5 37.5t-44 51.5t-22 52t-5 43.5v350h364v-241q0 -103 99 -103q52 0 76 30t24 72v242h364zM787 744v-175h-281v175h281zM468 744v-175h-280v175h280z" />
    <glyph glyph-name="yacute" unicode="&#xfd;" horiz-adv-x="905" 
d="M115 -188v177h115q24 0 24 18v1q0 11 -19 49l-249 481h386l105 -305l84 305h358l-215 -535q-41 -101 -95 -146t-130 -45h-364zM310 569l85 175h342l-119 -175h-308z" />
    <glyph glyph-name="thorn" unicode="&#xfe;" horiz-adv-x="976" 
d="M388 270v-4q0 -40 26.5 -72.5t80.5 -32.5h6q50 0 72.5 32t22.5 72v4q0 43 -22.5 74.5t-72.5 31.5h-6q-55 0 -81 -31t-26 -74zM24 744h364v-277q89 75 243 75h27q90 0 154 -23t95.5 -62t44.5 -79t13 -85v-25q0 -51 -14.5 -95.5t-48 -86t-99 -66t-156.5 -24.5h-26
q-140 0 -233 51v-235h-364v932z" />
    <glyph glyph-name="ydieresis" unicode="&#xff;" horiz-adv-x="905" 
d="M115 -188v177h115q24 0 24 18v1q0 11 -19 49l-249 481h386l105 -305l84 305h358l-215 -535q-41 -101 -95 -146t-130 -45h-364zM766 744v-175h-281v175h281zM447 744v-175h-280v175h280z" />
    <glyph glyph-name="Amacron" unicode="&#x100;" horiz-adv-x="1222" 
d="M680 309l-91 206l-89 -206h180zM816 0l-39 89h-372l-39 -89h-384l351 744h534l373 -744h-424zM339 784v142h524v-142h-524z" />
    <glyph glyph-name="amacron" unicode="&#x101;" horiz-adv-x="927" 
d="M516 215v36l-116 -31q-39 -11 -39 -38v-1q0 -17 14 -30.5t46 -13.5q45 0 70 22.5t25 55.5zM519 68q-18 -17 -45 -32t-85.5 -30.5t-128.5 -15.5h-6q-125 0 -185.5 49t-60.5 119v20q0 61 45.5 99.5t156.5 47.5l283 23q24 2 24 22v1q0 34 -74 34h-2q-36 0 -55.5 -9.5
t-22.5 -16.5t-4 -18h-338v12q0 27 5 47.5t27.5 46.5t62 43t115 29t180.5 12h57q110 0 189.5 -12.5t121 -29.5t65.5 -43t29 -45t5 -43v-184q0 -17 14 -17h31v-177h-313q-79 0 -91 68zM191 582v142h509v-142h-509z" />
    <glyph glyph-name="Abreve" unicode="&#x102;" horiz-adv-x="1222" 
d="M680 309l-91 206l-89 -206h180zM816 0l-39 89h-372l-39 -89h-384l351 744h534l373 -744h-424zM578 773q-62 0 -109 14t-72 33.5t-40.5 46.5t-19.5 48t-4 42v2h206q0 -8 3.5 -18t19.5 -21.5t41 -11.5h2q25 0 40 11.5t18.5 21.5t3.5 18h203v-2q0 -20 -5.5 -42t-22 -48
t-42 -46.5t-70 -34t-101.5 -13.5h-51z" />
    <glyph glyph-name="abreve" unicode="&#x103;" horiz-adv-x="927" 
d="M416 571q-58 0 -103 13t-70 31.5t-41 43t-21 44.5t-5 39v2h202q1 -14 16 -28t49 -14h2q56 0 63 42h200v-2q0 -24 -11.5 -50.5t-36.5 -55t-74.5 -47t-115.5 -18.5h-54zM516 215v36l-116 -31q-39 -11 -39 -38v-1q0 -17 14 -30.5t46 -13.5q45 0 70 22.5t25 55.5zM519 68
q-18 -17 -45 -32t-85.5 -30.5t-128.5 -15.5h-6q-125 0 -185.5 49t-60.5 119v20q0 61 45.5 99.5t156.5 47.5l283 23q24 2 24 22v1q0 34 -74 34h-2q-36 0 -55.5 -9.5t-22.5 -16.5t-4 -18h-338v12q0 27 5 47.5t27.5 46.5t62 43t115 29t180.5 12h57q110 0 189.5 -12.5t121 -29.5
t65.5 -43t29 -45t5 -43v-184q0 -17 14 -17h31v-177h-313q-79 0 -91 68z" />
    <glyph glyph-name="Aogonek" unicode="&#x104;" horiz-adv-x="1222" 
d="M680 309l-91 206l-89 -206h180zM816 0l-39 89h-372l-39 -89h-384l351 744h534l373 -744h-424zM854 -114v5q0 40 57.5 64.5t180.5 44.5h148q-63 -34 -63 -56v-1q0 -17 25 -17h38v-114h-207q-97 0 -138 18.5t-41 55.5z" />
    <glyph glyph-name="aogonek" unicode="&#x105;" horiz-adv-x="927" 
d="M537 -114v5q0 40 57.5 64.5t180.5 44.5h-165q-79 0 -91 68q-18 -17 -45 -32t-85.5 -30.5t-128.5 -15.5h-6q-125 0 -185.5 49t-60.5 119v20q0 61 45.5 99.5t156.5 47.5l283 23q24 2 24 22v1q0 34 -74 34h-2q-36 0 -55.5 -9.5t-22.5 -16.5t-4 -18h-338v12q0 27 5 47.5
t27.5 46.5t62 43t115 29t180.5 12h57q110 0 189.5 -12.5t121 -29.5t65.5 -43t29 -45t5 -43v-184q0 -17 14 -17h31v-177q-63 -34 -63 -56v-1q0 -17 25 -17h38v-114h-207q-97 0 -138 18.5t-41 55.5zM516 215v36l-116 -31q-39 -11 -39 -38v-1q0 -17 14 -30.5t46 -13.5
q45 0 70 22.5t25 55.5z" />
    <glyph glyph-name="Cacute" unicode="&#x106;" horiz-adv-x="1192" 
d="M441 783l56 157h354l-92 -157h-318zM626 -15h-35q-579 0 -579 374v30q0 37 5 70t20.5 71.5t41 70t70 62t103.5 51t146 33t193 12.5h35q102 0 186 -12t140.5 -31t99 -47t67 -55.5t39.5 -60t19.5 -58t4.5 -52.5v-15h-385q-22 94 -194 94q-200 0 -200 -139v-12
q0 -27 8.5 -50.5t28.5 -46.5t62 -36.5t101 -13.5q50 0 87.5 9.5t56.5 21t31 28.5t14.5 25t4.5 18h385v-26q0 -38 -9.5 -74t-44.5 -82t-92 -79t-163 -56.5t-247 -23.5z" />
    <glyph glyph-name="cacute" unicode="&#x107;" horiz-adv-x="953" 
d="M324 576l82 168h342l-116 -168h-308zM517 -15h-70q-68 0 -125.5 6.5t-99 17.5t-75 27.5t-55.5 33t-38 39t-24 40.5t-13 41.5t-6 39t-1 35.5v14q0 26 2 45.5t11.5 50t26 53t49 47.5t77.5 41t114 26.5t156 10.5h72q83 0 150 -10t110.5 -26t76 -39t49.5 -44.5t27 -47.5
t12.5 -44t2.5 -38v-3h-369q-1 10 -4.5 21.5t-12.5 27.5t-29 26t-49 10h-5q-98 0 -98 -109v-1q0 -121 98 -121h5q29 0 49 11.5t29 28.5t12.5 29.5t4.5 22.5h369v-3q0 -19 -2 -36t-11.5 -45t-25.5 -50t-48.5 -47t-76 -42t-112 -28t-153.5 -11z" />
    <glyph glyph-name="Ccircumflex" unicode="&#x108;" horiz-adv-x="1192" 
d="M780 940l164 -158h-289l-54 58l-55 -58h-286l162 158h358zM626 -15h-35q-579 0 -579 374v30q0 37 5 70t20.5 71.5t41 70t70 62t103.5 51t146 33t193 12.5h35q102 0 186 -12t140.5 -31t99 -47t67 -55.5t39.5 -60t19.5 -58t4.5 -52.5v-15h-385q-22 94 -194 94
q-200 0 -200 -139v-12q0 -27 8.5 -50.5t28.5 -46.5t62 -36.5t101 -13.5q50 0 87.5 9.5t56.5 21t31 28.5t14.5 25t4.5 18h385v-26q0 -38 -9.5 -74t-44.5 -82t-92 -79t-163 -56.5t-247 -23.5z" />
    <glyph glyph-name="ccircumflex" unicode="&#x109;" horiz-adv-x="953" 
d="M651 744l155 -170h-278l-52 65l-51 -65h-275l156 170h345zM517 -15h-70q-68 0 -125.5 6.5t-99 17.5t-75 27.5t-55.5 33t-38 39t-24 40.5t-13 41.5t-6 39t-1 35.5v14q0 26 2 45.5t11.5 50t26 53t49 47.5t77.5 41t114 26.5t156 10.5h72q83 0 150 -10t110.5 -26t76 -39
t49.5 -44.5t27 -47.5t12.5 -44t2.5 -38v-3h-369q-1 10 -4.5 21.5t-12.5 27.5t-29 26t-49 10h-5q-98 0 -98 -109v-1q0 -121 98 -121h5q29 0 49 11.5t29 28.5t12.5 29.5t4.5 22.5h369v-3q0 -19 -2 -36t-11.5 -45t-25.5 -50t-48.5 -47t-76 -42t-112 -28t-153.5 -11z" />
    <glyph glyph-name="Cdotaccent" unicode="&#x10a;" horiz-adv-x="1192" 
d="M791 940v-157h-368v157h368zM626 -15h-35q-579 0 -579 374v30q0 37 5 70t20.5 71.5t41 70t70 62t103.5 51t146 33t193 12.5h35q102 0 186 -12t140.5 -31t99 -47t67 -55.5t39.5 -60t19.5 -58t4.5 -52.5v-15h-385q-22 94 -194 94q-200 0 -200 -139v-12q0 -27 8.5 -50.5
t28.5 -46.5t62 -36.5t101 -13.5q50 0 87.5 9.5t56.5 21t31 28.5t14.5 25t4.5 18h385v-26q0 -38 -9.5 -74t-44.5 -82t-92 -79t-163 -56.5t-247 -23.5z" />
    <glyph glyph-name="cdotaccent" unicode="&#x10b;" horiz-adv-x="953" 
d="M661 744v-168h-366v168h366zM517 -15h-70q-68 0 -125.5 6.5t-99 17.5t-75 27.5t-55.5 33t-38 39t-24 40.5t-13 41.5t-6 39t-1 35.5v14q0 26 2 45.5t11.5 50t26 53t49 47.5t77.5 41t114 26.5t156 10.5h72q83 0 150 -10t110.5 -26t76 -39t49.5 -44.5t27 -47.5t12.5 -44
t2.5 -38v-3h-369q-1 10 -4.5 21.5t-12.5 27.5t-29 26t-49 10h-5q-98 0 -98 -109v-1q0 -121 98 -121h5q29 0 49 11.5t29 28.5t12.5 29.5t4.5 22.5h369v-3q0 -19 -2 -36t-11.5 -45t-25.5 -50t-48.5 -47t-76 -42t-112 -28t-153.5 -11z" />
    <glyph glyph-name="Ccaron" unicode="&#x10c;" horiz-adv-x="1192" 
d="M422 783l-165 157h291l54 -57l55 57h288l-161 -157h-362zM626 -15h-35q-579 0 -579 374v30q0 37 5 70t20.5 71.5t41 70t70 62t103.5 51t146 33t193 12.5h35q102 0 186 -12t140.5 -31t99 -47t67 -55.5t39.5 -60t19.5 -58t4.5 -52.5v-15h-385q-22 94 -194 94
q-200 0 -200 -139v-12q0 -27 8.5 -50.5t28.5 -46.5t62 -36.5t101 -13.5q50 0 87.5 9.5t56.5 21t31 28.5t14.5 25t4.5 18h385v-26q0 -38 -9.5 -74t-44.5 -82t-92 -79t-163 -56.5t-247 -23.5z" />
    <glyph glyph-name="ccaron" unicode="&#x10d;" horiz-adv-x="953" 
d="M295 576l-149 168h283l51 -70l52 70h280l-150 -168h-367zM517 -15h-70q-68 0 -125.5 6.5t-99 17.5t-75 27.5t-55.5 33t-38 39t-24 40.5t-13 41.5t-6 39t-1 35.5v14q0 26 2 45.5t11.5 50t26 53t49 47.5t77.5 41t114 26.5t156 10.5h72q83 0 150 -10t110.5 -26t76 -39
t49.5 -44.5t27 -47.5t12.5 -44t2.5 -38v-3h-369q-1 10 -4.5 21.5t-12.5 27.5t-29 26t-49 10h-5q-98 0 -98 -109v-1q0 -121 98 -121h5q29 0 49 11.5t29 28.5t12.5 29.5t4.5 22.5h369v-3q0 -19 -2 -36t-11.5 -45t-25.5 -50t-48.5 -47t-76 -42t-112 -28t-153.5 -11z" />
    <glyph glyph-name="Dcaron" unicode="&#x10e;" horiz-adv-x="1193" 
d="M28 0v744h596q124 0 221 -18.5t159.5 -50t103 -76.5t57.5 -96t17 -111v-31q0 -60 -13.5 -109t-51.5 -97.5t-98.5 -81.5t-161 -53t-233.5 -20h-596zM408 513v-283h152q229 0 229 142v6q0 135 -229 135h-152zM343 776l-172 164h288l54 -57l55 57h285l-168 -164h-342z" />
    <glyph glyph-name="dcaron" unicode="&#x10f;" horiz-adv-x="971" 
d="M583 271v8q0 37 -25 66.5t-79 29.5h-4q-52 0 -74 -29.5t-22 -68.5v-5q0 -43 21.5 -74t73.5 -31h4q55 0 80 31t25 73zM583 744h364v-744h-364v71q-82 -75 -247 -75h-25q-80 0 -140.5 22.5t-94 61t-49.5 83.5t-16 96v25q0 49 15.5 92.5t48 82t92 61t138.5 22.5h25
q162 0 253 -63v265zM968 568l10 176h257l-25 -176h-242z" />
    <glyph glyph-name="Dcroat" unicode="&#x110;" horiz-adv-x="1226" 
d="M61 0v287h-59v175h59v282h596q124 0 221 -18.5t159.5 -50t103 -76.5t57.5 -96t17 -111v-31q0 -60 -13.5 -109t-51.5 -97.5t-98.5 -81.5t-161 -53t-233.5 -20h-596zM441 513v-51h244v-175h-244v-57h152q229 0 229 142v6q0 135 -229 135h-152z" />
    <glyph glyph-name="dcroat" unicode="&#x111;" horiz-adv-x="971" 
d="M583 744h364v-46h53v-124h-53v-574h-364v71q-82 -75 -247 -75h-25q-80 0 -140.5 22.5t-94 61t-49.5 83.5t-16 96v25q0 49 15.5 92.5t48 82t92 61t138.5 22.5h25q162 0 253 -63v95h-239v124h239v46zM583 271v8q0 37 -25 66.5t-79 29.5h-4q-52 0 -74 -29.5t-22 -68.5v-5
q0 -43 21.5 -74t73.5 -31h4q55 0 80 31t25 73z" />
    <glyph glyph-name="Emacron" unicode="&#x112;" horiz-adv-x="949" 
d="M28 744h897v-208h-523v-58h517v-204h-517v-64h527v-210h-901v744zM224 784v142h524v-142h-524z" />
    <glyph glyph-name="emacron" unicode="&#x113;" horiz-adv-x="954" 
d="M586 347q-11 60 -108 60q-57 0 -80.5 -16t-27.5 -44h216zM946 204q0 -219 -450 -219h-45q-85 0 -154 10.5t-114 27.5t-78.5 42t-51 48.5t-28 54t-13 52t-2.5 47.5v14q0 26 2.5 47t13 50t28.5 52t51.5 47t78.5 40t114 26t154 10h44q87 0 157 -10.5t116.5 -26.5t80 -41.5
t52 -50t29 -57.5t13 -57.5t2.5 -56.5v-14h-577q7 -88 111 -88q96 0 107 55h359v-2zM225 584v142h509v-142h-509z" />
    <glyph glyph-name="Ebreve" unicode="&#x114;" horiz-adv-x="949" 
d="M28 744h897v-208h-523v-58h517v-204h-517v-64h527v-210h-901v744zM466 773q-62 0 -109 14t-72 33.5t-40.5 46.5t-19.5 48t-4 42v2h206q0 -8 3.5 -18t19.5 -21.5t41 -11.5h2q25 0 40 11.5t18.5 21.5t3.5 18h203v-2q0 -20 -5.5 -42t-22 -48t-42 -46.5t-70 -34t-101.5 -13.5
h-51z" />
    <glyph glyph-name="ebreve" unicode="&#x115;" horiz-adv-x="954" 
d="M453 573q-58 0 -103 12.5t-70 31t-41 43t-21 44t-5 38.5v2h203q1 -13 15.5 -26.5t48.5 -13.5h2q54 0 62 40h201v-2q0 -23 -11.5 -49.5t-36.5 -54.5t-74.5 -46.5t-115.5 -18.5h-54zM586 347q-11 60 -108 60q-57 0 -80.5 -16t-27.5 -44h216zM946 204q0 -219 -450 -219h-45
q-85 0 -154 10.5t-114 27.5t-78.5 42t-51 48.5t-28 54t-13 52t-2.5 47.5v14q0 26 2.5 47t13 50t28.5 52t51.5 47t78.5 40t114 26t154 10h44q87 0 157 -10.5t116.5 -26.5t80 -41.5t52 -50t29 -57.5t13 -57.5t2.5 -56.5v-14h-577q7 -88 111 -88q96 0 107 55h359v-2z" />
    <glyph glyph-name="Edotaccent" unicode="&#x116;" horiz-adv-x="949" 
d="M28 744h897v-208h-523v-58h517v-204h-517v-64h527v-210h-901v744zM671 951v-175h-364v175h364z" />
    <glyph glyph-name="edotaccent" unicode="&#x117;" horiz-adv-x="954" 
d="M663 744v-168h-366v168h366zM586 347q-11 60 -108 60q-57 0 -80.5 -16t-27.5 -44h216zM946 204q0 -219 -450 -219h-45q-85 0 -154 10.5t-114 27.5t-78.5 42t-51 48.5t-28 54t-13 52t-2.5 47.5v14q0 26 2.5 47t13 50t28.5 52t51.5 47t78.5 40t114 26t154 10h44
q87 0 157 -10.5t116.5 -26.5t80 -41.5t52 -50t29 -57.5t13 -57.5t2.5 -56.5v-14h-577q7 -88 111 -88q96 0 107 55h359v-2z" />
    <glyph glyph-name="Eogonek" unicode="&#x118;" horiz-adv-x="949" 
d="M28 744h897v-208h-523v-58h517v-204h-517v-64h527v-210h-100q-63 -34 -63 -56v-1q0 -17 25 -17h41v-114h-210q-97 0 -138 18.5t-41 55.5v5q0 40 57.5 64.5t180.5 44.5h-653v744z" />
    <glyph glyph-name="eogonek" unicode="&#x119;" horiz-adv-x="954" 
d="M806 -74v-114h-210q-97 0 -138 18.5t-41 55.5v5q0 38 52 60.5t181 42.5q-74 -9 -154 -9h-45q-85 0 -154 10.5t-114 27.5t-78.5 42t-51 48.5t-28 54t-13 52t-2.5 47.5v14q0 26 2.5 47t13 50t28.5 52t51.5 47t78.5 40t114 26t154 10h44q87 0 157 -10.5t116.5 -26.5
t80 -41.5t52 -50t29 -57.5t13 -57.5t2.5 -56.5v-14h-577q7 -88 111 -88q96 0 107 55h359v-2q0 -55 -32.5 -101t-110.5 -98q-50 -33 -58 -46q-5 -8 -5 -15v-1q0 -17 25 -17h41zM586 347q-11 60 -108 60q-57 0 -80.5 -16t-27.5 -44h216z" />
    <glyph glyph-name="Ecaron" unicode="&#x11a;" horiz-adv-x="949" 
d="M28 744h897v-208h-523v-58h517v-204h-517v-64h527v-210h-901v744zM320 776l-172 164h288l54 -57l55 57h285l-168 -164h-342z" />
    <glyph glyph-name="ecaron" unicode="&#x11b;" horiz-adv-x="954" 
d="M296 576l-149 168h283l51 -70l52 70h280l-150 -168h-367zM586 347q-11 60 -108 60q-57 0 -80.5 -16t-27.5 -44h216zM946 204q0 -219 -450 -219h-45q-85 0 -154 10.5t-114 27.5t-78.5 42t-51 48.5t-28 54t-13 52t-2.5 47.5v14q0 26 2.5 47t13 50t28.5 52t51.5 47t78.5 40
t114 26t154 10h44q87 0 157 -10.5t116.5 -26.5t80 -41.5t52 -50t29 -57.5t13 -57.5t2.5 -56.5v-14h-577q7 -88 111 -88q96 0 107 55h359v-2z" />
    <glyph glyph-name="Gcircumflex" unicode="&#x11c;" horiz-adv-x="1225" 
d="M795 940l164 -158h-289l-54 58l-55 -58h-286l162 158h358zM553 -15h-26q-120 0 -213 23t-148.5 59.5t-91.5 87.5t-49 100.5t-13 104.5v30q0 369 572 369h32q109 0 197.5 -11t147.5 -28.5t103 -43t68 -50.5t38.5 -56.5t18.5 -55t4 -50.5v-1h-388q-24 71 -195 71
q-106 0 -156.5 -41t-50.5 -112v-9q0 -75 49.5 -121t154.5 -46q42 0 76 5t54.5 12t34 16.5t18.5 17.5t5 15h-201v152h604v-423h-255q-5 16 -18.5 40t-26.5 38q-111 -93 -345 -93z" />
    <glyph glyph-name="gcircumflex" unicode="&#x11d;" horiz-adv-x="985" 
d="M484 367h-5q-53 0 -78 -25t-25 -61v-3q0 -39 25 -66.5t78 -27.5h5q56 0 84.5 27.5t28.5 66.5v3q0 35 -29 60.5t-84 25.5zM531 -196h-89q-95 0 -168 12.5t-115.5 32t-69.5 46t-36 51t-9 50.5v4h364q8 -34 78 -34h3q51 0 79.5 26t28.5 76v32q-80 -80 -262 -80h-23
q-85 0 -146.5 22.5t-93.5 61.5t-46.5 81.5t-14.5 90.5v12q0 48 15 90.5t48 80.5t94.5 60t145.5 22h24q77 0 137 -14t78.5 -24t43.5 -27v62h364v-464q0 -53 -19 -97.5t-64 -85t-133.5 -64t-213.5 -23.5zM648 744l155 -175h-278l-52 70l-51 -70h-275l156 175h345z" />
    <glyph glyph-name="Gbreve" unicode="&#x11e;" horiz-adv-x="1225" 
d="M553 -15h-26q-120 0 -213 23t-148.5 59.5t-91.5 87.5t-49 100.5t-13 104.5v30q0 369 572 369h32q109 0 197.5 -11t147.5 -28.5t103 -43t68 -50.5t38.5 -56.5t18.5 -55t4 -50.5v-1h-388q-24 71 -195 71q-106 0 -156.5 -41t-50.5 -112v-9q0 -75 49.5 -121t154.5 -46
q42 0 76 5t54.5 12t34 16.5t18.5 17.5t5 15h-201v152h604v-423h-255q-5 16 -18.5 40t-26.5 38q-111 -93 -345 -93zM594 780q-62 0 -109 14t-72 33.5t-40.5 46.5t-19.5 48t-4 42v2h206q0 -8 3.5 -18t19.5 -21.5t41 -11.5h2q25 0 40 11.5t18.5 21.5t3.5 18h203v-2
q0 -20 -5.5 -42t-22 -48t-42 -46.5t-70 -34t-101.5 -13.5h-51z" />
    <glyph glyph-name="gbreve" unicode="&#x11f;" horiz-adv-x="985" 
d="M484 367h-5q-53 0 -78 -25t-25 -61v-3q0 -39 25 -66.5t78 -27.5h5q56 0 84.5 27.5t28.5 66.5v3q0 35 -29 60.5t-84 25.5zM531 -196h-89q-95 0 -168 12.5t-115.5 32t-69.5 46t-36 51t-9 50.5v4h364q8 -34 78 -34h3q51 0 79.5 26t28.5 76v32q-80 -80 -262 -80h-23
q-85 0 -146.5 22.5t-93.5 61.5t-46.5 81.5t-14.5 90.5v12q0 48 15 90.5t48 80.5t94.5 60t145.5 22h24q77 0 137 -14t78.5 -24t43.5 -27v62h364v-464q0 -53 -19 -97.5t-64 -85t-133.5 -64t-213.5 -23.5zM734 742q0 -25 -11 -52.5t-35.5 -57t-74.5 -48t-117 -18.5h-54
q-73 0 -124.5 18.5t-74.5 48.5t-32 56t-9 53v2h202v-1q0 -6 2.5 -12.5t8.5 -14.5t20 -13t34 -5h2q35 0 49 15t14 30v1h200v-2z" />
    <glyph glyph-name="Gdotaccent" unicode="&#x120;" horiz-adv-x="1225" 
d="M801 940v-157h-368v157h368zM553 -15h-26q-120 0 -213 23t-148.5 59.5t-91.5 87.5t-49 100.5t-13 104.5v30q0 369 572 369h32q109 0 197.5 -11t147.5 -28.5t103 -43t68 -50.5t38.5 -56.5t18.5 -55t4 -50.5v-1h-388q-24 71 -195 71q-106 0 -156.5 -41t-50.5 -112v-9
q0 -75 49.5 -121t154.5 -46q42 0 76 5t54.5 12t34 16.5t18.5 17.5t5 15h-201v152h604v-423h-255q-5 16 -18.5 40t-26.5 38q-111 -93 -345 -93z" />
    <glyph glyph-name="gdotaccent" unicode="&#x121;" horiz-adv-x="985" 
d="M484 367h-5q-53 0 -78 -25t-25 -61v-3q0 -39 25 -66.5t78 -27.5h5q56 0 84.5 27.5t28.5 66.5v3q0 35 -29 60.5t-84 25.5zM531 -196h-89q-95 0 -168 12.5t-115.5 32t-69.5 46t-36 51t-9 50.5v4h364q8 -34 78 -34h3q51 0 79.5 26t28.5 76v32q-80 -80 -262 -80h-23
q-85 0 -146.5 22.5t-93.5 61.5t-46.5 81.5t-14.5 90.5v12q0 48 15 90.5t48 80.5t94.5 60t145.5 22h24q77 0 137 -14t78.5 -24t43.5 -27v62h364v-464q0 -53 -19 -97.5t-64 -85t-133.5 -64t-213.5 -23.5zM658 744v-175h-364v175h364z" />
    <glyph glyph-name="uni0122" unicode="&#x122;" horiz-adv-x="1225" 
d="M553 -15h-26q-120 0 -213 23t-148.5 59.5t-91.5 87.5t-49 100.5t-13 104.5v30q0 369 572 369h32q109 0 197.5 -11t147.5 -28.5t103 -43t68 -50.5t38.5 -56.5t18.5 -55t4 -50.5v-1h-388q-24 71 -195 71q-106 0 -156.5 -41t-50.5 -112v-9q0 -75 49.5 -121t154.5 -46
q42 0 76 5t54.5 12t34 16.5t18.5 17.5t5 15h-201v152h604v-423h-255q-5 16 -18.5 40t-26.5 38q-111 -93 -345 -93zM638 -331h-162q14 21 29.5 58t17.5 55h-137v176h323v-135q0 -33 -23 -78.5t-48 -75.5z" />
    <glyph glyph-name="uni0123" unicode="&#x123;" horiz-adv-x="985" 
d="M484 367h-5q-53 0 -78 -25t-25 -61v-3q0 -39 25 -66.5t78 -27.5h5q56 0 84.5 27.5t28.5 66.5v3q0 35 -29 60.5t-84 25.5zM531 -196h-89q-95 0 -168 12.5t-115.5 32t-69.5 46t-36 51t-9 50.5v4h364q8 -34 78 -34h3q51 0 79.5 26t28.5 76v32q-80 -80 -262 -80h-23
q-85 0 -146.5 22.5t-93.5 61.5t-46.5 81.5t-14.5 90.5v12q0 48 15 90.5t48 80.5t94.5 60t145.5 22h24q77 0 137 -14t78.5 -24t43.5 -27v62h364v-464q0 -53 -19 -97.5t-64 -85t-133.5 -64t-213.5 -23.5zM377 858h164q-14 -21 -29.5 -58t-17.5 -55h136v-176h-324v135
q0 33 23 78.5t48 75.5z" />
    <glyph glyph-name="Hcircumflex" unicode="&#x124;" horiz-adv-x="1214" 
d="M28 0v744h380v-247h398v247h380v-744h-380v265h-398v-265h-380zM777 940l171 -165h-288l-54 58l-55 -58h-285l169 165h342z" />
    <glyph glyph-name="hcircumflex" unicode="&#x125;" horiz-adv-x="982" 
d="M24 0v744h364v-307q113 113 298 113h5q65 0 115 -15.5t78 -37t45.5 -50t23 -50.5t5.5 -41v-356h-364v241q0 103 -103 103q-53 0 -78 -29t-25 -73v-242h-364zM608 939l171 -165h-288l-54 58l-55 -58h-285l169 165h342z" />
    <glyph glyph-name="Hbar" unicode="&#x126;" horiz-adv-x="1258" 
d="M-2 557v132h52v55h380v-55h398v55h380v-55h52v-132h-52v-557h-380v265h-398v-265h-380v557h-52zM430 497h398v60h-398v-60z" />
    <glyph glyph-name="hbar" unicode="&#x127;" horiz-adv-x="982" 
d="M24 0v574h-53v124h53v46h364v-46h239v-124h-239v-137q113 113 298 113h5q65 0 115 -15.5t78 -37t45.5 -50t23 -50.5t5.5 -41v-356h-364v241q0 103 -103 103q-53 0 -78 -29t-25 -73v-242h-364z" />
    <glyph glyph-name="Itilde" unicode="&#x128;" horiz-adv-x="435" 
d="M407 744v-744h-379v744h379zM353 775q-10 0 -20 0.5t-17 1t-17 2.5l-15 3t-17.5 4.5t-17 5t-21.5 6.5t-24 7q-46 15 -61 15t-15 -21v-24h-188v90q0 99 136 99h2q25 0 48.5 -3.5t41 -8t64.5 -18.5q42 -13 55 -13q14 0 14 16v27h191v-77q0 -112 -136 -112h-3z" />
    <glyph glyph-name="itilde" unicode="&#x129;" horiz-adv-x="412" 
d="M314 568q-40 0 -118 30q-36 14 -44 14q-13 0 -13 -21v-23h-152v88q0 99 109 99h1q49 0 123 -30q32 -13 41 -13q11 0 11 16v27h153v-75q0 -112 -109 -112h-2zM388 538v-538h-364v538h364z" />
    <glyph glyph-name="Imacron" unicode="&#x12a;" horiz-adv-x="435" 
d="M-36 784v142h507v-142h-507zM407 744v-744h-379v744h379z" />
    <glyph glyph-name="imacron" unicode="&#x12b;" horiz-adv-x="412" 
d="M-14 577v142h440v-142h-440zM388 538v-538h-364v538h364z" />
    <glyph glyph-name="Ibreve" unicode="&#x12c;" horiz-adv-x="435" 
d="M407 744v-744h-379v744h379zM194 773q-62 0 -109 14t-72 33.5t-40.5 46.5t-19.5 48t-4 42v2h206q0 -8 3.5 -18t19.5 -21.5t41 -11.5h2q25 0 40 11.5t18.5 21.5t3.5 18h203v-2q0 -20 -5.5 -42t-22 -48t-42 -46.5t-70 -34t-101.5 -13.5h-51z" />
    <glyph glyph-name="ibreve" unicode="&#x12d;" horiz-adv-x="412" 
d="M431 742q0 -18 -4 -38t-18 -46t-36.5 -46t-63.5 -34t-95 -14h-14q-58 0 -101.5 14t-65 33.5t-34.5 46.5t-15.5 45.5t-2.5 38.5v2h181v-1q0 -15 10.5 -29.5t34.5 -14.5h2q23 0 33 14.5t10 29.5v1h179v-2zM388 538v-538h-364v538h364z" />
    <glyph glyph-name="Iogonek" unicode="&#x12e;" horiz-adv-x="435" 
d="M21 -114v5q0 40 57.5 64.5t180.5 44.5h-231v744h379v-744q-63 -34 -63 -56v-1q0 -17 25 -17h38v-114h-207q-97 0 -138 18.5t-41 55.5z" />
    <glyph glyph-name="iogonek" unicode="&#x12f;" horiz-adv-x="412" 
d="M2 -114v5q0 40 57.5 64.5t180.5 44.5h-216v538h364v-538q-63 -34 -63 -56v-1q0 -17 25 -17h38v-114h-207q-97 0 -138 18.5t-41 55.5zM388 744v-175h-364v175h364z" />
    <glyph glyph-name="Idotaccent" unicode="&#x130;" horiz-adv-x="435" 
d="M407 744v-744h-379v744h379zM399 951v-175h-364v175h364z" />
    <glyph glyph-name="dotlessi" unicode="&#x131;" horiz-adv-x="412" 
d="M388 538v-538h-364v538h364z" />
    <glyph glyph-name="IJ" unicode="&#x132;" horiz-adv-x="1476" 
d="M407 744v-744h-379v744h379zM888 -11q-90 0 -162 15t-117.5 37.5t-79.5 56.5t-50.5 64t-26 69.5t-11.5 63.5t-2 54v7h360q7 -51 36 -74q34 -26 98 -26h2q136 0 136 134v354h381v-359q0 -40 -3 -72t-14.5 -75t-31 -75.5t-56.5 -66.5t-87.5 -56.5t-127 -36.5t-171.5 -14
h-73z" />
    <glyph glyph-name="ij" unicode="&#x133;" horiz-adv-x="824" 
d="M388 744v-175h-364v175h364zM388 538v-538h-364v538h364zM800 744v-175h-364v175h364zM376 -20h27q21 0 27 6.5t6 28.5v523h364v-562q0 -164 -131 -164h-293v168z" />
    <glyph glyph-name="Jcircumflex" unicode="&#x134;" horiz-adv-x="1041" 
d="M453 -11q-90 0 -162 15t-117.5 37.5t-79.5 56.5t-50.5 64t-26 69.5t-11.5 63.5t-2 54v7h360q7 -51 36 -74q34 -26 98 -26h2q136 0 136 134v354h381v-359q0 -40 -3 -72t-14.5 -75t-31 -75.5t-56.5 -66.5t-87.5 -56.5t-127 -36.5t-171.5 -14h-73zM989 940l171 -165h-288
l-54 58l-55 -58h-285l169 165h342z" />
    <glyph glyph-name="jcircumflex" unicode="&#x135;" horiz-adv-x="412" 
d="M353 744l113 -175h-222l-41 70l-40 -70h-219l114 175h295zM-36 -20h27q21 0 27 6.5t6 28.5v523h364v-562q0 -164 -131 -164h-293v168z" />
    <glyph glyph-name="uni0136" unicode="&#x136;" horiz-adv-x="1190" 
d="M408 0h-380v744h380v-264l338 264h462l-442 -334l444 -410h-496l-306 297v-297zM652 -320h-162q14 21 29.5 58t17.5 55h-137v176h323v-135q0 -33 -23 -78.5t-48 -75.5z" />
    <glyph glyph-name="uni0137" unicode="&#x137;" horiz-adv-x="909" 
d="M388 0h-364v744h364v-401l119 195h382l-151 -224l185 -314h-400l-135 229v-229zM543 -320h-162q14 21 29.5 58t17.5 55h-137v176h323v-135q0 -33 -23 -78.5t-48 -75.5z" />
    <glyph glyph-name="Lacute" unicode="&#x139;" horiz-adv-x="942" 
d="M28 744h380v-479h516v-265h-896v744zM59 776l58 164h354l-94 -164h-318z" />
    <glyph glyph-name="lacute" unicode="&#x13a;" horiz-adv-x="412" 
d="M53 775l80 165h342l-114 -165h-308zM388 744v-744h-364v744h364z" />
    <glyph glyph-name="uni013B" unicode="&#x13b;" horiz-adv-x="942" 
d="M28 744h380v-479h516v-265h-896v744zM566 -320h-162q14 21 29.5 58t17.5 55h-137v176h323v-135q0 -33 -23 -78.5t-48 -75.5z" />
    <glyph glyph-name="uni013C" unicode="&#x13c;" horiz-adv-x="412" 
d="M388 744v-744h-364v744h364zM296 -320h-162q14 21 29.5 58t17.5 55h-137v176h323v-135q0 -33 -23 -78.5t-48 -75.5z" />
    <glyph glyph-name="Lcaron" unicode="&#x13d;" horiz-adv-x="942" 
d="M28 744h380v-479h516v-265h-896v744zM429 568l10 176h257l-25 -176h-242z" />
    <glyph glyph-name="lcaron" unicode="&#x13e;" horiz-adv-x="412" 
d="M409 568l10 176h257l-25 -176h-242zM388 744v-744h-364v744h364z" />
    <glyph glyph-name="Ldot" unicode="&#x13f;" horiz-adv-x="942" 
d="M28 744h380v-479h516v-265h-896v744zM878 564v-232h-358v232h358z" />
    <glyph glyph-name="ldot" unicode="&#x140;" horiz-adv-x="774" 
d="M772 500v-232h-358v232h358zM388 744v-744h-364v744h364z" />
    <glyph glyph-name="Lslash" unicode="&#x141;" horiz-adv-x="978" 
d="M64 744h380v-248l287 99v-171l-287 -96v-63h516v-265h-896v201l-66 -22v165l66 22v378z" />
    <glyph glyph-name="lslash" unicode="&#x142;" horiz-adv-x="474" 
d="M419 744v-216l51 18v-179l-51 -18v-349h-364v220l-51 -18v179l51 18v345h364z" />
    <glyph glyph-name="Nacute" unicode="&#x143;" horiz-adv-x="1215" 
d="M28 744h429l350 -338v338h380v-744h-387l-392 372v-372h-380v744zM449 776l58 164h354l-94 -164h-318z" />
    <glyph glyph-name="nacute" unicode="&#x144;" horiz-adv-x="982" 
d="M24 0v538h364v-101q113 113 298 113h5q65 0 115 -15.5t78 -37t45.5 -50t23 -50.5t5.5 -41v-356h-364v241q0 103 -103 103q-53 0 -78 -29t-25 -73v-242h-364zM344 569l85 175h342l-119 -175h-308z" />
    <glyph glyph-name="uni0145" unicode="&#x145;" horiz-adv-x="1215" 
d="M28 744h429l350 -338v338h380v-744h-387l-392 372v-372h-380v744zM697 -320h-162q14 21 29.5 58t17.5 55h-137v176h323v-135q0 -33 -23 -78.5t-48 -75.5z" />
    <glyph glyph-name="uni0146" unicode="&#x146;" horiz-adv-x="982" 
d="M24 0v538h364v-101q113 113 298 113h5q65 0 115 -15.5t78 -37t45.5 -50t23 -50.5t5.5 -41v-356h-364v241q0 103 -103 103q-53 0 -78 -29t-25 -73v-242h-364zM585 -320h-162q14 21 29.5 58t17.5 55h-137v176h323v-135q0 -33 -23 -78.5t-48 -75.5z" />
    <glyph glyph-name="Ncaron" unicode="&#x147;" horiz-adv-x="1215" 
d="M28 744h429l350 -338v338h380v-744h-387l-392 372v-372h-380v744zM438 776l-172 164h288l54 -57l55 57h285l-168 -164h-342z" />
    <glyph glyph-name="ncaron" unicode="&#x148;" horiz-adv-x="982" 
d="M24 0v538h364v-101q113 113 298 113h5q65 0 115 -15.5t78 -37t45.5 -50t23 -50.5t5.5 -41v-356h-364v241q0 103 -103 103q-53 0 -78 -29t-25 -73v-242h-364zM328 569l-155 175h278l51 -70l52 70h275l-156 -175h-345z" />
    <glyph glyph-name="napostrophe" unicode="&#x149;" horiz-adv-x="1301" 
d="M343 0v538h364v-101q113 113 298 113h5q65 0 115 -15.5t78 -37t45.5 -50t23 -50.5t5.5 -41v-356h-364v241q0 103 -103 103q-53 0 -78 -29t-25 -73v-242h-364zM259 431h-172q39 75 47 122h-134v191h334v-150q0 -39 -24 -86t-51 -77z" />
    <glyph glyph-name="Eng" unicode="&#x14a;" horiz-adv-x="1216" 
d="M1188 18q0 -100 -47.5 -153t-115.5 -53h-321v180h76q17 0 17 12q0 8 -25 32l-364 336v-372h-380v744h429l350 -338v338h381v-726z" />
    <glyph glyph-name="eng" unicode="&#x14b;" horiz-adv-x="982" 
d="M958 356v-386q0 -87 -36.5 -125t-87.5 -38h-321v188h49q19 0 25.5 7t6.5 28v211q0 103 -103 103q-53 0 -78 -29t-25 -73v-242h-364v538h364v-101q113 113 298 113h5q65 0 115 -15.5t78 -37t45.5 -50t23 -50.5t5.5 -41z" />
    <glyph glyph-name="Omacron" unicode="&#x14c;" horiz-adv-x="1232" 
d="M591 759h50q579 0 579 -370v-30q0 -36 -5.5 -69t-21.5 -71.5t-42.5 -71t-71 -63.5t-103.5 -52t-145 -34t-190 -13h-50q-144 0 -252 25t-169 62t-98 90t-48.5 99t-11.5 98v30q0 370 579 370zM828 383q0 57 -50.5 98t-162.5 41q-113 0 -162.5 -40.5t-49.5 -98.5v-12
q0 -59 51 -103t161 -44q111 0 162 43t51 102v14zM354 791v142h524v-142h-524z" />
    <glyph glyph-name="omacron" unicode="&#x14d;" horiz-adv-x="999" 
d="M459 -15q-85 0 -154 10.5t-114.5 27.5t-80 42t-53 49t-30 53.5t-14.5 51.5t-3 46v14q0 28 5.5 53.5t20 59t46 60.5t78.5 51t123.5 37t174.5 13h84q86 0 155.5 -10.5t115.5 -26.5t80 -40.5t52 -48t28.5 -52.5t13 -50t2.5 -45v-16q0 -36 -6 -67t-32.5 -72.5t-71.5 -70
t-132.5 -49t-206.5 -20.5h-81zM501 154q35 0 59.5 12t37 31.5t17.5 39t5 39.5q0 42 -26.5 75.5t-92.5 33.5h-3q-66 0 -92.5 -33.5t-26.5 -75.5q0 -21 5 -40t17 -39t37 -31.5t60 -11.5h3zM246 584v142h509v-142h-509z" />
    <glyph glyph-name="Obreve" unicode="&#x14e;" horiz-adv-x="1232" 
d="M591 759h50q579 0 579 -370v-30q0 -36 -5.5 -69t-21.5 -71.5t-42.5 -71t-71 -63.5t-103.5 -52t-145 -34t-190 -13h-50q-144 0 -252 25t-169 62t-98 90t-48.5 99t-11.5 98v30q0 370 579 370zM828 383q0 57 -50.5 98t-162.5 41q-113 0 -162.5 -40.5t-49.5 -98.5v-12
q0 -59 51 -103t161 -44q111 0 162 43t51 102v14zM593 780q-62 0 -109 14t-72 33.5t-40.5 46.5t-19.5 48t-4 42v2h206q0 -8 3.5 -18t19.5 -21.5t41 -11.5h2q25 0 40 11.5t18.5 21.5t3.5 18h203v-2q0 -20 -5.5 -42t-22 -48t-42 -46.5t-70 -34t-101.5 -13.5h-51z" />
    <glyph glyph-name="obreve" unicode="&#x14f;" horiz-adv-x="999" 
d="M473 573q-58 0 -103 12.5t-70 31t-41 43t-21 44t-5 38.5v2h203q1 -13 15.5 -26.5t48.5 -13.5h2q54 0 62 40h201v-2q0 -23 -11.5 -49.5t-36.5 -54.5t-74.5 -46.5t-115.5 -18.5h-54zM459 -15q-85 0 -154 10.5t-114.5 27.5t-80 42t-53 49t-30 53.5t-14.5 51.5t-3 46v14
q0 28 5.5 53.5t20 59t46 60.5t78.5 51t123.5 37t174.5 13h84q86 0 155.5 -10.5t115.5 -26.5t80 -40.5t52 -48t28.5 -52.5t13 -50t2.5 -45v-16q0 -36 -6 -67t-32.5 -72.5t-71.5 -70t-132.5 -49t-206.5 -20.5h-81zM501 154q35 0 59.5 12t37 31.5t17.5 39t5 39.5
q0 42 -26.5 75.5t-92.5 33.5h-3q-66 0 -92.5 -33.5t-26.5 -75.5q0 -21 5 -40t17 -39t37 -31.5t60 -11.5h3z" />
    <glyph glyph-name="Ohungarumlaut" unicode="&#x150;" horiz-adv-x="1232" 
d="M644 783l55 157h295l-60 -157h-290zM316 783l49 157h295l-55 -157h-289zM591 759h50q579 0 579 -370v-30q0 -36 -5.5 -69t-21.5 -71.5t-42.5 -71t-71 -63.5t-103.5 -52t-145 -34t-190 -13h-50q-144 0 -252 25t-169 62t-98 90t-48.5 99t-11.5 98v30q0 370 579 370z
M828 383q0 57 -50.5 98t-162.5 41q-113 0 -162.5 -40.5t-49.5 -98.5v-12q0 -59 51 -103t161 -44q111 0 162 43t51 102v14z" />
    <glyph glyph-name="ohungarumlaut" unicode="&#x151;" horiz-adv-x="999" 
d="M528 576l65 168h285l-69 -168h-281zM211 576l59 168h284l-63 -168h-280zM459 -15q-85 0 -154 10.5t-114.5 27.5t-80 42t-53 49t-30 53.5t-14.5 51.5t-3 46v14q0 28 5.5 53.5t20 59t46 60.5t78.5 51t123.5 37t174.5 13h84q86 0 155.5 -10.5t115.5 -26.5t80 -40.5t52 -48
t28.5 -52.5t13 -50t2.5 -45v-16q0 -36 -6 -67t-32.5 -72.5t-71.5 -70t-132.5 -49t-206.5 -20.5h-81zM501 154q35 0 59.5 12t37 31.5t17.5 39t5 39.5q0 42 -26.5 75.5t-92.5 33.5h-3q-66 0 -92.5 -33.5t-26.5 -75.5q0 -21 5 -40t17 -39t37 -31.5t60 -11.5h3z" />
    <glyph glyph-name="OE" unicode="&#x152;" horiz-adv-x="1704" 
d="M608 522q-110 0 -157.5 -41t-47.5 -98v-12q0 -59 49 -103t156 -44t156 43t49 102v14q0 57 -48.5 98t-156.5 41zM881 0v61q-108 -74 -327 -74h-32q-104 0 -187.5 16.5t-137.5 46t-92 65.5t-57.5 79.5t-27.5 82t-8 80.5v30q0 51 10.5 97t44 97.5t87.5 88t148.5 60.5
t219.5 24h32q226 0 327 -68v58h800v-208h-493v-58h487v-204h-487v-64h497v-210h-804z" />
    <glyph glyph-name="oe" unicode="&#x153;" horiz-adv-x="1563" 
d="M1196 347q-11 60 -108 60q-57 0 -80.5 -16t-27.5 -44h216zM498 154h3q35 0 59.5 12t37 31.5t17.5 39t5 39.5q0 42 -26.5 75.5t-92.5 33.5h-3q-66 0 -92.5 -33.5t-26.5 -75.5q0 -21 5 -40t17 -39t37 -31.5t60 -11.5zM803 51q-99 -66 -284 -66h-71q-114 0 -198.5 20.5
t-129 49.5t-71 70.5t-33 72.5t-6.5 67v14q0 28 5 53.5t19.5 59t45.5 60.5t77 50.5t120.5 37t169.5 13.5h74q181 0 283 -64q98 61 280 61h33q85 0 153 -10.5t113 -26.5t78 -41t51 -49.5t28 -57t12.5 -57t2.5 -55.5v-14h-576q7 -88 111 -88q96 0 107 55h358v-2q0 -28 -7 -52.5
t-33.5 -56.5t-71 -54t-129 -38t-197.5 -16h-34q-181 0 -280 64z" />
    <glyph glyph-name="Racute" unicode="&#x154;" horiz-adv-x="1164" 
d="M408 447h277q69 0 69 47t-69 47h-277v-94zM408 238v-238h-380v744h822q293 0 293 -188v-9q0 -40 -16.5 -72t-44.5 -51.5t-55 -31t-56 -17.5q87 -16 131.5 -64.5t44.5 -122.5v-113q0 -46 13 -69v-6h-391q-5 5 -5 23v90q0 125 -144 125h-212zM397 776l58 164h354l-94 -164
h-318z" />
    <glyph glyph-name="racute" unicode="&#x155;" horiz-adv-x="890" 
d="M388 257v-257h-364v538h362v-106q100 118 240 118h12q63 0 109.5 -18t71 -43.5t39.5 -60t18.5 -60t3.5 -51.5v-99h-358v54q0 76 -64 76q-70 0 -70 -91zM294 569l85 175h342l-119 -175h-308z" />
    <glyph glyph-name="uni0156" unicode="&#x156;" horiz-adv-x="1164" 
d="M408 447h277q69 0 69 47t-69 47h-277v-94zM408 238v-238h-380v744h822q293 0 293 -188v-9q0 -40 -16.5 -72t-44.5 -51.5t-55 -31t-56 -17.5q87 -16 131.5 -64.5t44.5 -122.5v-113q0 -46 13 -69v-6h-391q-5 5 -5 23v90q0 125 -144 125h-212zM674 -320h-162q14 21 29.5 58
t17.5 55h-137v176h323v-135q0 -33 -23 -78.5t-48 -75.5z" />
    <glyph glyph-name="uni0157" unicode="&#x157;" horiz-adv-x="890" 
d="M388 257v-257h-364v538h362v-106q100 118 240 118h12q63 0 109.5 -18t71 -43.5t39.5 -60t18.5 -60t3.5 -51.5v-99h-358v54q0 76 -64 76q-70 0 -70 -91zM294 -320h-162q14 21 29.5 58t17.5 55h-137v176h323v-135q0 -33 -23 -78.5t-48 -75.5z" />
    <glyph glyph-name="Rcaron" unicode="&#x158;" horiz-adv-x="1164" 
d="M408 447h277q69 0 69 47t-69 47h-277v-94zM408 238v-238h-380v744h822q293 0 293 -188v-9q0 -40 -16.5 -72t-44.5 -51.5t-55 -31t-56 -17.5q87 -16 131.5 -64.5t44.5 -122.5v-113q0 -46 13 -69v-6h-391q-5 5 -5 23v90q0 125 -144 125h-212zM384 776l-172 164h288l54 -57
l55 57h285l-168 -164h-342z" />
    <glyph glyph-name="rcaron" unicode="&#x159;" horiz-adv-x="890" 
d="M388 257v-257h-364v538h362v-106q100 118 240 118h12q63 0 109.5 -18t71 -43.5t39.5 -60t18.5 -60t3.5 -51.5v-99h-358v54q0 76 -64 76q-70 0 -70 -91zM272 569l-155 175h278l51 -70l52 70h275l-156 -175h-345z" />
    <glyph glyph-name="Sacute" unicode="&#x15a;" horiz-adv-x="1136" 
d="M408 783l56 157h354l-92 -157h-318zM493 -15q-129 0 -224 18.5t-145 44.5t-79 64.5t-36.5 68t-7.5 64.5v8h445q2 -80 118 -80q114 0 114 52v3q0 15 -7 24t-39 18t-92 11l-157 5q-110 4 -186 24t-114.5 54.5t-54 72t-15.5 85.5v9q0 112 107 169t365 57h127q144 0 244 -18
t152.5 -51.5t74 -73t21.5 -91.5v-5h-436q-5 60 -114 60q-64 0 -86 -9.5t-22 -29.5v-2q0 -22 30.5 -32.5t113.5 -12.5l150 -4q214 -6 303 -60t89 -169v-14q0 -43 -12 -78t-45.5 -70t-88.5 -59t-147 -38.5t-215 -14.5h-131z" />
    <glyph glyph-name="sacute" unicode="&#x15b;" horiz-adv-x="875" 
d="M279 576l82 168h342l-116 -168h-308zM386 -15q-385 0 -385 191v8h367q2 -52 60 -52h2q57 0 57 35v1q0 18 -15.5 27t-58.5 10l-147 6q-76 4 -128.5 19t-79 39.5t-37.5 51.5t-11 61v7q0 53 30 87t116 55.5t231 21.5h78q115 0 193.5 -12.5t118.5 -36t55.5 -50.5t15.5 -63v-9
h-357q-1 10 -3.5 17t-16.5 15t-40 8h-2q-36 0 -48 -7t-12 -22q0 -29 75 -33l147 -6q112 -5 174.5 -27.5t83.5 -57t21 -91.5v-9q0 -32 -8 -56.5t-33.5 -49.5t-68.5 -41t-117.5 -26.5t-175.5 -10.5h-81z" />
    <glyph glyph-name="Scircumflex" unicode="&#x15c;" horiz-adv-x="1136" 
d="M744 940l164 -158h-289l-54 58l-55 -58h-286l162 158h358zM493 -15q-129 0 -224 18.5t-145 44.5t-79 64.5t-36.5 68t-7.5 64.5v8h445q2 -80 118 -80q114 0 114 52v3q0 15 -7 24t-39 18t-92 11l-157 5q-110 4 -186 24t-114.5 54.5t-54 72t-15.5 85.5v9q0 112 107 169
t365 57h127q144 0 244 -18t152.5 -51.5t74 -73t21.5 -91.5v-5h-436q-5 60 -114 60q-64 0 -86 -9.5t-22 -29.5v-2q0 -22 30.5 -32.5t113.5 -12.5l150 -4q214 -6 303 -60t89 -169v-14q0 -43 -12 -78t-45.5 -70t-88.5 -59t-147 -38.5t-215 -14.5h-131z" />
    <glyph glyph-name="scircumflex" unicode="&#x15d;" horiz-adv-x="875" 
d="M608 744l155 -168h-278l-52 63l-51 -63h-275l156 168h345zM386 -15q-385 0 -385 191v8h367q2 -52 60 -52h2q57 0 57 35v1q0 18 -15.5 27t-58.5 10l-147 6q-76 4 -128.5 19t-79 39.5t-37.5 51.5t-11 61v7q0 53 30 87t116 55.5t231 21.5h78q115 0 193.5 -12.5t118.5 -36
t55.5 -50.5t15.5 -63v-9h-357q-1 10 -3.5 17t-16.5 15t-40 8h-2q-36 0 -48 -7t-12 -22q0 -29 75 -33l147 -6q112 -5 174.5 -27.5t83.5 -57t21 -91.5v-9q0 -32 -8 -56.5t-33.5 -49.5t-68.5 -41t-117.5 -26.5t-175.5 -10.5h-81z" />
    <glyph glyph-name="uni015E" unicode="&#x15e;" horiz-adv-x="1136" 
d="M360 -262v97h114q28 0 28 21q0 20 -28 20h-70v111q-105 6 -182.5 26.5t-118.5 46.5t-65.5 62t-30.5 63.5t-6 59.5v8h445q2 -80 118 -80q114 0 114 52v3q0 15 -7 24t-39 18t-92 11l-157 5q-110 4 -186 24t-114.5 54.5t-54 72t-15.5 85.5v9q0 112 107 169t365 57h127
q144 0 244 -18t152.5 -51.5t74 -73t21.5 -91.5v-5h-436q-5 60 -114 60q-64 0 -86 -9.5t-22 -29.5v-2q0 -22 30.5 -32.5t113.5 -12.5l150 -4q214 -6 303 -60t89 -169v-14q0 -43 -12 -78t-45.5 -70t-88.5 -59t-147 -38.5t-215 -14.5h-61v-31q122 0 166 -26.5t44 -78.5v-2
q0 -53 -44.5 -81t-166.5 -28h-202z" />
    <glyph glyph-name="uni015F" unicode="&#x15f;" horiz-adv-x="875" 
d="M231 -262v97h114q28 0 28 21q0 20 -28 20h-70v114q-274 26 -274 186v8h367q2 -52 60 -52h2q57 0 57 35v1q0 18 -15.5 27t-58.5 10l-147 6q-76 4 -128.5 19t-79 39.5t-37.5 51.5t-11 61v7q0 53 30 87t116 55.5t231 21.5h78q115 0 193.5 -12.5t118.5 -36t55.5 -50.5
t15.5 -63v-9h-357q-1 10 -3.5 17t-16.5 15t-40 8h-2q-36 0 -48 -7t-12 -22q0 -29 75 -33l147 -6q112 -5 174.5 -27.5t83.5 -57t21 -91.5v-9q0 -32 -8 -56.5t-33.5 -49.5t-68.5 -41t-117.5 -26.5t-175.5 -10.5h-33v-31q122 0 166 -26.5t44 -78.5v-2q0 -53 -44.5 -81
t-166.5 -28h-202z" />
    <glyph glyph-name="Scaron" unicode="&#x160;" horiz-adv-x="1136" 
d="M387 783l-165 157h291l54 -57l55 57h288l-161 -157h-362zM493 -15q-129 0 -224 18.5t-145 44.5t-79 64.5t-36.5 68t-7.5 64.5v8h445q2 -80 118 -80q114 0 114 52v3q0 15 -7 24t-39 18t-92 11l-157 5q-110 4 -186 24t-114.5 54.5t-54 72t-15.5 85.5v9q0 112 107 169
t365 57h127q144 0 244 -18t152.5 -51.5t74 -73t21.5 -91.5v-5h-436q-5 60 -114 60q-64 0 -86 -9.5t-22 -29.5v-2q0 -22 30.5 -32.5t113.5 -12.5l150 -4q214 -6 303 -60t89 -169v-14q0 -43 -12 -78t-45.5 -70t-88.5 -59t-147 -38.5t-215 -14.5h-131z" />
    <glyph glyph-name="scaron" unicode="&#x161;" horiz-adv-x="875" 
d="M252 576l-149 168h283l51 -70l52 70h280l-150 -168h-367zM386 -15q-385 0 -385 191v8h367q2 -52 60 -52h2q57 0 57 35v1q0 18 -15.5 27t-58.5 10l-147 6q-76 4 -128.5 19t-79 39.5t-37.5 51.5t-11 61v7q0 53 30 87t116 55.5t231 21.5h78q115 0 193.5 -12.5t118.5 -36
t55.5 -50.5t15.5 -63v-9h-357q-1 10 -3.5 17t-16.5 15t-40 8h-2q-36 0 -48 -7t-12 -22q0 -29 75 -33l147 -6q112 -5 174.5 -27.5t83.5 -57t21 -91.5v-9q0 -32 -8 -56.5t-33.5 -49.5t-68.5 -41t-117.5 -26.5t-175.5 -10.5h-81z" />
    <glyph glyph-name="Tcommaaccent" unicode="&#x162;" horiz-adv-x="1056" 
d="M338 0v488h-321v256h1022v-256h-321v-488h-380zM618 -320h-162q14 21 29.5 58t17.5 55h-137v176h323v-135q0 -33 -23 -78.5t-48 -75.5z" />
    <glyph glyph-name="tcommaaccent" unicode="&#x163;" horiz-adv-x="584" 
d="M569 0h-301q-160 0 -160 154v186h-100v198h100v157h364v-157h97v-198h-97v-89q0 -31 8.5 -40t38.5 -9h50v-202zM454 -320h-162q14 21 29.5 58t17.5 55h-137v176h323v-135q0 -33 -23 -78.5t-48 -75.5z" />
    <glyph glyph-name="Tcaron" unicode="&#x164;" horiz-adv-x="1056" 
d="M338 0v488h-321v256h1022v-256h-321v-488h-380zM359 776l-172 164h288l54 -57l55 57h285l-168 -164h-342z" />
    <glyph glyph-name="tcaron" unicode="&#x165;" horiz-adv-x="584" 
d="M569 0h-301q-160 0 -160 154v186h-100v198h100v157h364v-157h97v-198h-97v-89q0 -31 8.5 -40t38.5 -9h50v-202zM493 568l10 176h257l-25 -176h-242z" />
    <glyph glyph-name="Tbar" unicode="&#x166;" horiz-adv-x="1056" 
d="M338 0v247h-217v157h217v84h-321v256h1022v-256h-321v-84h217v-157h-217v-247h-380z" />
    <glyph glyph-name="tbar" unicode="&#x167;" horiz-adv-x="584" 
d="M569 185v-185h-301q-160 0 -160 154v73h-100v104h100v36h-100v171h100v157h364v-157h97v-171h-97v-36h97v-104h-97q1 -26 10 -34t37 -8h50z" />
    <glyph glyph-name="Utilde" unicode="&#x168;" horiz-adv-x="1196" 
d="M21 399v345h382v-306q0 -171 194 -171h2q56 0 95.5 14.5t60 40.5t29.5 54t9 62v306h382v-345q0 -53 -9 -101t-43.5 -107.5t-91 -102t-162 -72t-247.5 -29.5h-50q-103 0 -186.5 15.5t-140 40t-98.5 60t-65.5 71.5t-38 78.5t-18.5 76t-4 70.5zM734 775q-10 0 -20 0.5t-17 1
t-17 2.5l-15 3t-17.5 4.5t-17 5t-21.5 6.5t-24 7q-46 15 -61 15t-15 -21v-24h-188v90q0 99 136 99h2q25 0 48.5 -3.5t41 -8t64.5 -18.5q42 -13 55 -13q14 0 14 16v27h191v-77q0 -112 -136 -112h-3z" />
    <glyph glyph-name="utilde" unicode="&#x169;" horiz-adv-x="975" 
d="M951 538v-538h-364v101q-13 -15 -32 -30t-54.5 -36t-90 -34t-118.5 -13h-6q-65 0 -114.5 15.5t-76.5 37.5t-44 51.5t-22 52t-5 43.5v350h364v-241q0 -103 99 -103q52 0 76 30t24 72v242h364zM621 568q-25 0 -47 3.5t-39 8.5t-59 18q-43 14 -55 14q-16 0 -16 -21v-23h-189
v88q0 99 136 99h2q58 0 150 -30q41 -13 51 -13q14 0 14 16v27h190v-75q0 -20 -4 -36t-16.5 -35t-42 -30t-73.5 -11h-2z" />
    <glyph glyph-name="Umacron" unicode="&#x16a;" horiz-adv-x="1196" 
d="M21 399v345h382v-306q0 -171 194 -171h2q56 0 95.5 14.5t60 40.5t29.5 54t9 62v306h382v-345q0 -53 -9 -101t-43.5 -107.5t-91 -102t-162 -72t-247.5 -29.5h-50q-103 0 -186.5 15.5t-140 40t-98.5 60t-65.5 71.5t-38 78.5t-18.5 76t-4 70.5zM336 784v142h524v-142h-524z
" />
    <glyph glyph-name="umacron" unicode="&#x16b;" horiz-adv-x="975" 
d="M951 538v-538h-364v101q-13 -15 -32 -30t-54.5 -36t-90 -34t-118.5 -13h-6q-65 0 -114.5 15.5t-76.5 37.5t-44 51.5t-22 52t-5 43.5v350h364v-241q0 -103 99 -103q52 0 76 30t24 72v242h364zM233 577v142h509v-142h-509z" />
    <glyph glyph-name="Ubreve" unicode="&#x16c;" horiz-adv-x="1196" 
d="M21 399v345h382v-306q0 -171 194 -171h2q56 0 95.5 14.5t60 40.5t29.5 54t9 62v306h382v-345q0 -53 -9 -101t-43.5 -107.5t-91 -102t-162 -72t-247.5 -29.5h-50q-103 0 -186.5 15.5t-140 40t-98.5 60t-65.5 71.5t-38 78.5t-18.5 76t-4 70.5zM575 773q-62 0 -109 14
t-72 33.5t-40.5 46.5t-19.5 48t-4 42v2h206q0 -8 3.5 -18t19.5 -21.5t41 -11.5h2q25 0 40 11.5t18.5 21.5t3.5 18h203v-2q0 -20 -5.5 -42t-22 -48t-42 -46.5t-70 -34t-101.5 -13.5h-51z" />
    <glyph glyph-name="ubreve" unicode="&#x16d;" horiz-adv-x="975" 
d="M951 538v-538h-364v101q-13 -15 -32 -30t-54.5 -36t-90 -34t-118.5 -13h-6q-65 0 -114.5 15.5t-76.5 37.5t-44 51.5t-22 52t-5 43.5v350h364v-241q0 -103 99 -103q52 0 76 30t24 72v242h364zM753 742q0 -25 -11 -52.5t-35.5 -57t-74.5 -48t-117 -18.5h-54
q-73 0 -124.5 18.5t-74.5 48.5t-32 56t-9 53v2h202v-1q0 -6 2.5 -12.5t8.5 -14.5t20 -13t34 -5h2q35 0 49 15t14 30v1h200v-2z" />
    <glyph glyph-name="Uring" unicode="&#x16e;" horiz-adv-x="1196" 
d="M21 399v345h382v-306q0 -171 194 -171h2q56 0 95.5 14.5t60 40.5t29.5 54t9 62v306h382v-345q0 -53 -9 -101t-43.5 -107.5t-91 -102t-162 -72t-247.5 -29.5h-50q-103 0 -186.5 15.5t-140 40t-98.5 60t-65.5 71.5t-38 78.5t-18.5 76t-4 70.5zM387 884q0 123 213 123
t213 -123q0 -122 -213 -122t-213 122zM526 885q0 -43 74 -43t74 43q0 42 -74 42t-74 -42z" />
    <glyph glyph-name="uring" unicode="&#x16f;" horiz-adv-x="975" 
d="M951 538v-538h-364v101q-13 -15 -32 -30t-54.5 -36t-90 -34t-118.5 -13h-6q-65 0 -114.5 15.5t-76.5 37.5t-44 51.5t-22 52t-5 43.5v350h364v-241q0 -103 99 -103q52 0 76 30t24 72v242h364zM278 687q0 123 211 123t211 -123q0 -122 -211 -122t-211 122zM417 688
q0 -43 72 -43t72 43q0 42 -72 42t-72 -42z" />
    <glyph glyph-name="Uhungarumlaut" unicode="&#x170;" horiz-adv-x="1196" 
d="M21 399v345h382v-306q0 -171 194 -171h2q56 0 95.5 14.5t60 40.5t29.5 54t9 62v306h382v-345q0 -53 -9 -101t-43.5 -107.5t-91 -102t-162 -72t-247.5 -29.5h-50q-103 0 -186.5 15.5t-140 40t-98.5 60t-65.5 71.5t-38 78.5t-18.5 76t-4 70.5zM626 776l57 164h295l-62 -164
h-290zM298 776l51 164h295l-57 -164h-289z" />
    <glyph glyph-name="uhungarumlaut" unicode="&#x171;" horiz-adv-x="975" 
d="M951 538v-538h-364v101q-13 -15 -32 -30t-54.5 -36t-90 -34t-118.5 -13h-6q-65 0 -114.5 15.5t-76.5 37.5t-44 51.5t-22 52t-5 43.5v350h364v-241q0 -103 99 -103q52 0 76 30t24 72v242h364zM504 569l68 175h285l-72 -175h-281zM187 569l62 175h284l-66 -175h-280z" />
    <glyph glyph-name="Uogonek" unicode="&#x172;" horiz-adv-x="1196" 
d="M910 -188h-210q-97 0 -138 18.5t-41 55.5v5q0 39 52.5 61t166.5 41q-63 -6 -118 -6h-50q-103 0 -186.5 15.5t-140 40t-98.5 60t-65.5 71.5t-38 78.5t-18.5 76t-4 70.5v345h382v-306q0 -171 194 -171h2q56 0 95.5 14.5t60 40.5t29.5 54t9 62v306h382v-345q0 -121 -55 -214
t-183 -167q-74 -43 -86 -57q-7 -8 -7 -17v-1q0 -17 25 -17h41v-114z" />
    <glyph glyph-name="uogonek" unicode="&#x173;" horiz-adv-x="975" 
d="M565 -114v5q0 40 57.5 64.5t180.5 44.5h-216v101q-13 -15 -32 -30t-54.5 -36t-90 -34t-118.5 -13h-6q-65 0 -114.5 15.5t-76.5 37.5t-44 51.5t-22 52t-5 43.5v350h364v-241q0 -103 99 -103q52 0 76 30t24 72v242h364v-538q-63 -34 -63 -56v-1q0 -17 25 -17h38v-114h-207
q-97 0 -138 18.5t-41 55.5z" />
    <glyph glyph-name="Wcircumflex" unicode="&#x174;" horiz-adv-x="1744" 
d="M759 0h-515l-260 744h436l125 -439l117 439h455l115 -447l118 447h410l-267 -744h-509l-111 413zM1051 940l171 -165h-288l-54 58l-55 -58h-285l169 165h342z" />
    <glyph glyph-name="wcircumflex" unicode="&#x175;" horiz-adv-x="1360" 
d="M630 0h-451l-192 538h379l73 -321l69 321h367l67 -318l71 318h360l-184 -538h-435l-62 258zM860 744l155 -175h-278l-52 70l-51 -70h-275l156 175h345z" />
    <glyph glyph-name="Ycircumflex" unicode="&#x176;" horiz-adv-x="1186" 
d="M405 0v264l-425 480h438l191 -224l194 224h403l-421 -485v-259h-380zM781 940l171 -165h-288l-54 58l-55 -58h-285l169 165h342z" />
    <glyph glyph-name="ycircumflex" unicode="&#x177;" horiz-adv-x="905" 
d="M115 -188v177h115q24 0 24 18v1q0 11 -19 49l-249 481h386l105 -305l84 305h358l-215 -535q-41 -101 -95 -146t-130 -45h-364zM639 744l155 -175h-278l-52 70l-51 -70h-275l156 175h345z" />
    <glyph glyph-name="Ydieresis" unicode="&#x178;" horiz-adv-x="1186" 
d="M405 0v264l-425 480h438l191 -224l194 224h403l-421 -485v-259h-380zM915 940v-164h-291v164h291zM584 940v-164h-290v164h290z" />
    <glyph glyph-name="Zacute" unicode="&#x179;" horiz-adv-x="1027" 
d="M19 744h989v-179l-443 -311h446v-254h-995v181l431 322h-428v241zM354 776l58 164h354l-94 -164h-318z" />
    <glyph glyph-name="zacute" unicode="&#x17a;" horiz-adv-x="800" 
d="M785 0h-770v177l336 176h-337v185h771v-177l-328 -165h328v-196zM243 569l85 175h342l-119 -175h-308z" />
    <glyph glyph-name="Zdotaccent" unicode="&#x17b;" horiz-adv-x="1027" 
d="M19 744h989v-179l-443 -311h446v-254h-995v181l431 322h-428v241zM695 951v-175h-364v175h364z" />
    <glyph glyph-name="zdotaccent" unicode="&#x17c;" horiz-adv-x="800" 
d="M785 0h-770v177l336 176h-337v185h771v-177l-328 -165h328v-196zM583 744v-175h-364v175h364z" />
    <glyph glyph-name="Zcaron" unicode="&#x17d;" horiz-adv-x="1027" 
d="M19 744h989v-179l-443 -311h446v-254h-995v181l431 322h-428v241zM344 776l-172 164h288l54 -57l55 57h285l-168 -164h-342z" />
    <glyph glyph-name="zcaron" unicode="&#x17e;" horiz-adv-x="800" 
d="M785 0h-770v177l336 176h-337v185h771v-177l-328 -165h328v-196zM231 569l-155 175h278l51 -70l52 70h275l-156 -175h-345z" />
    <glyph glyph-name="uni0192" unicode="&#x192;" horiz-adv-x="605" 
d="M588 303h-112l-21 -496h-371l21 496h-93v199h102l3 68q5 88 59 131t175 43h237v-166h-71q-17 0 -23 -6.5t-7 -22.5l-2 -47h103v-199z" />
    <glyph glyph-name="Aringacute" unicode="&#x1fa;" horiz-adv-x="1222" 
d="M390 894q0 123 213 123t213 -123q0 -122 -213 -122t-213 122zM529 895q0 -43 74 -43t74 43q0 42 -74 42t-74 -42zM452 1035l85 175h342l-119 -175h-308zM680 309l-91 206l-89 -206h180zM816 0l-39 89h-372l-39 -89h-384l351 744h534l373 -744h-424z" />
    <glyph glyph-name="aringacute" unicode="&#x1fb;" horiz-adv-x="927" 
d="M296 833l85 175h342l-119 -175h-308zM235 692q0 123 211 123t211 -123q0 -122 -211 -122t-211 122zM374 693q0 -43 72 -43t72 43q0 42 -72 42t-72 -42zM516 215v36l-116 -31q-39 -11 -39 -38v-1q0 -17 14 -30.5t46 -13.5q45 0 70 22.5t25 55.5zM519 68q-18 -17 -45 -32
t-85.5 -30.5t-128.5 -15.5h-6q-125 0 -185.5 49t-60.5 119v20q0 61 45.5 99.5t156.5 47.5l283 23q24 2 24 22v1q0 34 -74 34h-2q-36 0 -55.5 -9.5t-22.5 -16.5t-4 -18h-338v12q0 27 5 47.5t27.5 46.5t62 43t115 29t180.5 12h57q110 0 189.5 -12.5t121 -29.5t65.5 -43t29 -45
t5 -43v-184q0 -17 14 -17h31v-177h-313q-79 0 -91 68z" />
    <glyph glyph-name="AEacute" unicode="&#x1fc;" horiz-adv-x="1592" 
d="M702 310v240l-151 -240h151zM702 0v90h-289l-57 -90h-376l488 744h1101v-208h-493v-58h487v-204h-487v-64h497v-210h-871zM851 776l58 164h354l-94 -164h-318z" />
    <glyph glyph-name="aeacute" unicode="&#x1fd;" horiz-adv-x="1460" 
d="M985 407q-101 0 -109 -60h216q-10 60 -107 60zM421 137q45 0 70 22.5t25 55.5v36l-116 -31q-39 -11 -39 -38v-1q0 -17 14 -30.5t46 -13.5zM1452 203q0 -29 -8 -54t-36 -56.5t-74.5 -53.5t-131.5 -37t-199 -15h-45q-258 0 -372 98q-24 -19 -43.5 -31.5t-56.5 -29.5
t-90 -25.5t-119 -8.5h-7q-137 0 -199.5 48.5t-62.5 119.5v20q0 61 45.5 99.5t156.5 47.5l283 23q24 3 24 22v1q0 34 -74 34h-2q-36 0 -55.5 -9.5t-22.5 -16.5t-4 -18h-337v12q0 25 4 43.5t25.5 46t60.5 45t115.5 30.5t183.5 13h53q170 0 247 -48q88 47 249 47h43
q88 0 158 -10.5t116.5 -26.5t80 -41.5t51.5 -49.5t28 -56.5t12.5 -56.5t2.5 -55v-15h-577q7 -88 111 -88q92 0 108 55h358v-3zM561 569l85 175h342l-119 -175h-308z" />
    <glyph glyph-name="Oslashacute" unicode="&#x1fe;" horiz-adv-x="1247" 
d="M598 -13q-181 0 -306 41l-38 -28h-264l142 105q-122 95 -122 252v30q0 36 5.5 69t22 71t43 70t72 62.5t105.5 51.5t147 33.5t193 12.5h48q172 0 297 -40l36 27h263l-138 -102q131 -97 131 -255v-30q0 -43 -8.5 -81t-30 -82t-64.5 -79.5t-105 -65t-159.5 -46t-221.5 -16.5
h-48zM457 783l56 157h354l-92 -157h-318zM622 215q119 0 175.5 44t56.5 111v14q0 34 -15 63l-305 -231q27 -1 88 -1zM391 370q0 -33 14 -63l298 225h-81q-121 0 -176 -41.5t-55 -106.5v-14z" />
    <glyph glyph-name="oslashacute" unicode="&#x1ff;" horiz-adv-x="999" 
d="M341 576l80 168h342l-114 -168h-308zM452 -15q-146 0 -239 35l-33 -20h-189l115 75q-96 66 -96 190v14q0 28 5 53.5t20 59t47 60.5t79.5 51t125.5 37t177 13h84q142 0 234 -33l28 18h193l-106 -71q92 -70 92 -187v-16q0 -37 -6.5 -68t-33 -72.5t-72.5 -69.5t-134.5 -48.5
t-208.5 -20.5h-82zM367 276q0 -19 2 -29l203 133q-31 12 -72 12h-3q-72 0 -101 -35t-29 -81zM502 147q72 0 101 39.5t29 89.5q0 13 -1 20l-205 -135q28 -14 74 -14h2z" />
    <glyph glyph-name="uni0218" unicode="&#x218;" horiz-adv-x="1136" 
d="M493 -15q-129 0 -224 18.5t-145 44.5t-79 64.5t-36.5 68t-7.5 64.5v8h445q2 -80 118 -80q114 0 114 52v3q0 15 -7 24t-39 18t-92 11l-157 5q-110 4 -186 24t-114.5 54.5t-54 72t-15.5 85.5v9q0 112 107 169t365 57h127q144 0 244 -18t152.5 -51.5t74 -73t21.5 -91.5v-5
h-436q-5 60 -114 60q-64 0 -86 -9.5t-22 -29.5v-2q0 -22 30.5 -32.5t113.5 -12.5l150 -4q214 -6 303 -60t89 -169v-14q0 -43 -12 -78t-45.5 -70t-88.5 -59t-147 -38.5t-215 -14.5h-131zM656 -331h-162q14 21 29.5 58t17.5 55h-137v176h323v-135q0 -33 -23 -78.5t-48 -75.5z
" />
    <glyph glyph-name="uni0219" unicode="&#x219;" horiz-adv-x="875" 
d="M386 -15q-385 0 -385 191v8h367q2 -52 60 -52h2q57 0 57 35v1q0 18 -15.5 27t-58.5 10l-147 6q-76 4 -128.5 19t-79 39.5t-37.5 51.5t-11 61v7q0 53 30 87t116 55.5t231 21.5h78q115 0 193.5 -12.5t118.5 -36t55.5 -50.5t15.5 -63v-9h-357q-1 10 -3.5 17t-16.5 15t-40 8
h-2q-36 0 -48 -7t-12 -22q0 -29 75 -33l147 -6q112 -5 174.5 -27.5t83.5 -57t21 -91.5v-9q0 -32 -8 -56.5t-33.5 -49.5t-68.5 -41t-117.5 -26.5t-175.5 -10.5h-81zM525 -327h-162q14 21 29.5 58t17.5 55h-137v176h323v-135q0 -33 -23 -78.5t-48 -75.5z" />
    <glyph glyph-name="uni021A" unicode="&#x21a;" horiz-adv-x="1056" 
d="M338 0v488h-321v256h1022v-256h-321v-488h-380zM618 -320h-162q14 21 29.5 58t17.5 55h-137v176h323v-135q0 -33 -23 -78.5t-48 -75.5z" />
    <glyph glyph-name="uni021B" unicode="&#x21b;" horiz-adv-x="584" 
d="M569 0h-301q-160 0 -160 154v186h-100v198h100v157h364v-157h97v-198h-97v-89q0 -31 8.5 -40t38.5 -9h50v-202zM454 -320h-162q14 21 29.5 58t17.5 55h-137v176h323v-135q0 -33 -23 -78.5t-48 -75.5z" />
    <glyph glyph-name="uni0237" unicode="&#x237;" horiz-adv-x="412" 
d="M-36 -20h27q21 0 27 6.5t6 28.5v523h364v-562q0 -164 -131 -164h-293v168z" />
    <glyph glyph-name="circumflex" unicode="&#x2c6;" 
d="M523 744l155 -175h-278l-52 70l-51 -70h-275l156 175h345z" />
    <glyph glyph-name="caron" unicode="&#x2c7;" 
d="M177 569l-155 175h278l51 -70l52 70h275l-156 -175h-345z" />
    <glyph glyph-name="breve" unicode="&#x2d8;" 
d="M616 742q0 -25 -11 -52.5t-35.5 -57t-74.5 -48t-117 -18.5h-54q-73 0 -124.5 18.5t-74.5 48.5t-32 56t-9 53v2h202v-1q0 -6 2.5 -12.5t8.5 -14.5t20 -13t34 -5h2q35 0 49 15t14 30v1h200v-2z" />
    <glyph glyph-name="dotaccent" unicode="&#x2d9;" 
d="M532 744v-175h-364v175h364z" />
    <glyph glyph-name="ring" unicode="&#x2da;" 
d="M141 687q0 123 211 123t211 -123q0 -122 -211 -122t-211 122zM280 688q0 -43 72 -43t72 43q0 42 -72 42t-72 -42z" />
    <glyph glyph-name="ogonek" unicode="&#x2db;" 
d="M158 -114v5q0 40 57.5 64.5t180.5 44.5h148q-63 -34 -63 -56v-1q0 -17 25 -17h38v-114h-207q-97 0 -138 18.5t-41 55.5z" />
    <glyph glyph-name="tilde" unicode="&#x2dc;" 
d="M483 568q-25 0 -47 3.5t-39 8.5t-59 18q-43 14 -55 14q-16 0 -16 -21v-23h-189v88q0 99 136 99h2q58 0 150 -30q41 -13 51 -13q14 0 14 16v27h190v-75q0 -20 -4 -36t-16.5 -35t-42 -30t-73.5 -11h-2z" />
    <glyph glyph-name="hungarumlaut" unicode="&#x2dd;" 
d="M332 569l68 175h285l-72 -175h-281zM15 569l62 175h284l-66 -175h-280z" />
    <glyph glyph-name="Wgrave" unicode="&#x1e80;" horiz-adv-x="1744" 
d="M759 0h-515l-260 744h436l125 -439l117 439h455l115 -447l118 447h410l-267 -744h-509l-111 413zM990 940l59 -164h-318l-95 164h354z" />
    <glyph glyph-name="wgrave" unicode="&#x1e81;" horiz-adv-x="1360" 
d="M630 0h-451l-192 538h379l73 -321l69 321h367l67 -318l71 318h360l-184 -538h-435l-62 258zM841 569h-308l-119 175h342z" />
    <glyph glyph-name="Wacute" unicode="&#x1e82;" horiz-adv-x="1744" 
d="M759 0h-515l-260 744h436l125 -439l117 439h455l115 -447l118 447h410l-267 -744h-509l-111 413zM723 776l58 164h354l-94 -164h-318z" />
    <glyph glyph-name="wacute" unicode="&#x1e83;" horiz-adv-x="1360" 
d="M630 0h-451l-192 538h379l73 -321l69 321h367l67 -318l71 318h360l-184 -538h-435l-62 258zM540 569l85 175h342l-119 -175h-308z" />
    <glyph glyph-name="Wdieresis" unicode="&#x1e84;" horiz-adv-x="1744" 
d="M759 0h-515l-260 744h436l125 -439l117 439h455l115 -447l118 447h410l-267 -744h-509l-111 413zM1192 940v-164h-291v164h291zM861 940v-164h-290v164h290z" />
    <glyph glyph-name="wdieresis" unicode="&#x1e85;" horiz-adv-x="1360" 
d="M630 0h-451l-192 538h379l73 -321l69 321h367l67 -318l71 318h360l-184 -538h-435l-62 258zM987 744v-175h-281v175h281zM668 744v-175h-280v175h280z" />
    <glyph glyph-name="Ygrave" unicode="&#x1ef2;" horiz-adv-x="1186" 
d="M405 0v264l-425 480h438l191 -224l194 224h403l-421 -485v-259h-380zM710 940l59 -164h-318l-95 164h354z" />
    <glyph glyph-name="ygrave" unicode="&#x1ef3;" horiz-adv-x="905" 
d="M115 -188v177h115q24 0 24 18v1q0 11 -19 49l-249 481h386l105 -305l84 305h358l-215 -535q-41 -101 -95 -146t-130 -45h-364zM620 569h-308l-119 175h342z" />
    <glyph glyph-name="uni2009" unicode="&#x2009;" horiz-adv-x="5" 
 />
    <glyph glyph-name="endash" unicode="&#x2013;" horiz-adv-x="969" 
d="M21 378h927v-163h-927v163z" />
    <glyph glyph-name="emdash" unicode="&#x2014;" horiz-adv-x="1494" 
d="M21 378h1452v-163h-1452v163z" />
    <glyph glyph-name="quoteleft" unicode="&#x2018;" horiz-adv-x="376" 
d="M96 744h172q-39 -75 -47 -122h134v-191h-334v150q0 39 24 86t51 77z" />
    <glyph glyph-name="quoteright" unicode="&#x2019;" horiz-adv-x="376" 
d="M280 431h-172q39 75 47 122h-134v191h334v-150q0 -39 -24 -86t-51 -77z" />
    <glyph glyph-name="quotesinglbase" unicode="&#x201a;" horiz-adv-x="376" 
d="M280 -122h-172q39 75 47 122h-134v191h334v-150q0 -39 -24 -86t-51 -77z" />
    <glyph glyph-name="quotedblleft" unicode="&#x201c;" horiz-adv-x="740" 
d="M96 744h172q-39 -75 -47 -122h134v-191h-334v150q0 39 24 86t51 77zM460 744h172q-39 -75 -47 -122h134v-191h-334v150q0 39 24 86t51 77z" />
    <glyph glyph-name="quotedblright" unicode="&#x201d;" horiz-adv-x="740" 
d="M280 431h-172q39 75 47 122h-134v191h334v-150q0 -39 -24 -86t-51 -77zM644 431h-172q39 75 47 122h-134v191h334v-150q0 -39 -24 -86t-51 -77z" />
    <glyph glyph-name="quotedblbase" unicode="&#x201e;" horiz-adv-x="740" 
d="M644 -122h-172q39 75 47 122h-134v191h334v-150q0 -39 -24 -86t-51 -77zM280 -122h-172q39 75 47 122h-134v191h334v-150q0 -39 -24 -86t-51 -77z" />
    <glyph glyph-name="dagger" unicode="&#x2020;" horiz-adv-x="597" 
d="M131 0v386h-120v234h120v124h335v-124h120v-234h-120v-386h-335z" />
    <glyph glyph-name="daggerdbl" unicode="&#x2021;" horiz-adv-x="593" 
d="M131 123h-120v208h120v87h-120v208h120v118h331v-118h120v-208h-120v-87h120v-208h-120v-123h-331v123z" />
    <glyph glyph-name="bullet" unicode="&#x2022;" horiz-adv-x="535" 
d="M525 329q0 -107 -74.5 -178.5t-183.5 -71.5t-183 71.5t-74 178.5q0 108 74 179t183 71q110 0 184 -71t74 -179z" />
    <glyph glyph-name="ellipsis" unicode="&#x2026;" horiz-adv-x="1203" 
d="M380 232v-232h-359v232h359zM781 232v-232h-359v232h359zM1182 232v-232h-359v232h359z" />
    <glyph glyph-name="perthousand" unicode="&#x2030;" horiz-adv-x="2210" 
d="M335 322q-81 0 -141.5 14t-94.5 35.5t-55 51t-27.5 55.5t-6.5 55v13q0 29 6.5 54.5t28 54t56 49t95 34t141.5 13.5h16q81 0 141.5 -13.5t95 -34t56 -49t28 -54t6.5 -54.5v-13q0 -29 -6.5 -55t-27.5 -55.5t-55 -51t-94.5 -35.5t-141.5 -14h-20zM1057 744h248l-843 -744
h-247zM345 470q41 0 61 19.5t20 47.5v3q0 28 -20 47t-61 19t-61 -19t-20 -47v-3q0 -28 20 -47.5t61 -19.5zM1187 -8h-20q-81 0 -141.5 14t-94.5 35.5t-55 51t-27.5 55.5t-6.5 55v13q0 29 6.5 54.5t28 54t56 49t95 34t141.5 13.5h16q81 0 141.5 -13.5t95 -34t56 -49t28 -54
t6.5 -54.5v-13q0 -29 -6.5 -55t-27.5 -55.5t-55 -51t-94.5 -35.5t-141.5 -14zM1875 -8h-20q-81 0 -141.5 14t-94.5 35.5t-55 51t-27.5 55.5t-6.5 55v13q0 29 6.5 54.5t28 54t56 49t95 34t141.5 13.5h16q81 0 141.5 -13.5t95 -34t56 -49t28 -54t6.5 -54.5v-13q0 -29 -6.5 -55
t-27.5 -55.5t-55 -51t-94.5 -35.5t-141.5 -14zM1177 140q41 0 61 19.5t20 47.5v3q0 28 -20 47t-61 19t-61 -19t-20 -47v-3q0 -28 20 -47.5t61 -19.5zM1865 140q41 0 61 19.5t20 47.5v3q0 28 -20 47t-61 19t-61 -19t-20 -47v-3q0 -28 20 -47.5t61 -19.5z" />
    <glyph glyph-name="uni2032" unicode="&#x2032;" horiz-adv-x="346" 
d="M346 744l-68 -291h-278l68 291h278z" />
    <glyph glyph-name="uni2033" unicode="&#x2033;" horiz-adv-x="659" 
d="M346 744l-69 -291h-277l69 291h277zM590 453h-277l69 291h277z" />
    <glyph glyph-name="guilsinglleft" unicode="&#x2039;" horiz-adv-x="373" 
d="M367 107h-250l-114 179l114 175h249l-109 -175z" />
    <glyph glyph-name="guilsinglright" unicode="&#x203a;" horiz-adv-x="373" 
d="M256 107h-250l110 179l-109 175h249l114 -175z" />
    <glyph glyph-name="fraction" unicode="&#x2044;" horiz-adv-x="1126" 
d="M887 744h239l-894 -744h-232z" />
    <glyph glyph-name="Euro" unicode="&#x20ac;" horiz-adv-x="1217" 
d="M637 -15q-111 0 -200 16.5t-146.5 43.5t-99 65.5t-62 77t-30.5 83.5h-91v89h81v36h-81v86h91q67 277 538 277h35q108 0 195.5 -14.5t143.5 -40t96.5 -56t61 -66.5t29.5 -67t9 -62v-15h-385q-2 13 -9 26t-24 31.5t-54 30t-89 11.5q-130 0 -165 -55h262v-86h-285v-36h285
v-89h-263q38 -62 166 -62q53 0 90.5 12.5t54.5 32.5t23 34t8 27h385v-15q0 -36 -11.5 -73.5t-47.5 -82.5t-92 -79t-155.5 -57t-228.5 -23h-35z" />
    <glyph glyph-name="trademark" unicode="&#x2122;" horiz-adv-x="1118" 
d="M447 609h-106v-223h-229v223h-106v135h441v-135zM473 386v358h286l34 -151l35 151h271v-358h-195v184l-57 -184h-125l-56 184v-184h-193z" />
    <glyph glyph-name="onethird" unicode="&#x2153;" horiz-adv-x="1260" 
d="M946 -12h-34q-75 0 -130.5 10t-85.5 25t-48 35t-23 36t-5 33v5h238q4 -29 67 -29q70 0 70 23v1q0 18 -39 18h-94v94h91q34 0 34 15v1q0 21 -62 21q-60 0 -64 -24h-234v6q0 10 2 20.5t17.5 30t42 34t82.5 25.5t132 11h40q93 0 154 -7t89.5 -21t38 -28t9.5 -34v-5
q0 -59 -90 -69q50 -6 81.5 -30t31.5 -65v-3q0 -27 -10 -46.5t-39.5 -40t-95.5 -31.5t-166 -11zM121 566h-110v114q53 1 86.5 11.5t44.5 22t20 30.5h221v-368h-262v190zM869 744h239l-894 -744h-232z" />
    <glyph glyph-name="twothirds" unicode="&#x2154;" horiz-adv-x="1479" 
d="M1165 -12h-34q-75 0 -130.5 10t-85.5 25t-48 35t-23 36t-5 33v5h238q4 -29 67 -29q70 0 70 23v1q0 18 -39 18h-94v94h91q34 0 34 15v1q0 21 -62 21q-60 0 -64 -24h-234v6q0 10 2 20.5t17.5 30t42 34t82.5 25.5t132 11h40q93 0 154 -7t89.5 -21t38 -28t9.5 -34v-5
q0 -59 -90 -69q50 -6 81.5 -30t31.5 -65v-3q0 -27 -10 -46.5t-39.5 -40t-95.5 -31.5t-166 -11zM617 376h-608v56q0 28 3.5 44.5t19 37.5t45 35t84 29t134.5 26q45 6 59 12.5t14 16.5v1q0 20 -54 20q-56 0 -59 -34h-241v3q0 18 3 31.5t19.5 34t45 33.5t86.5 23t138 10h18
q89 0 150 -9t91.5 -26.5t42.5 -37t12 -45.5v-5q0 -35 -21.5 -55.5t-84 -35.5t-177.5 -22q-119 -8 -134 -22h414v-121zM1090 744h239l-894 -744h-232z" />
    <glyph glyph-name="oneeighth" unicode="&#x215b;" horiz-adv-x="1283" 
d="M1268 284v-6q0 -35 -31 -55t-78 -27q121 -17 121 -87v-8q0 -17 -4.5 -30t-23 -29t-50.5 -26.5t-92 -18t-142 -7.5h-24q-82 0 -142 7.5t-92 18t-50.5 26.5t-23 29t-4.5 30v8q0 70 121 87q-47 7 -78 27t-31 55v6q0 22 10 37t40 29.5t92 21.5t158 7h24q96 0 158 -7t92 -21.5
t40 -29.5t10 -37zM1015 260v2q0 24 -59 24t-59 -24v-2q0 -26 59 -26t59 26zM1020 125v1q0 30 -64 30q-37 0 -50.5 -7.5t-13.5 -22.5v-1q0 -31 64 -31t64 31zM121 566h-110v114q53 1 86.5 11.5t44.5 22t20 30.5h221v-368h-262v190zM869 744h239l-894 -744h-232z" />
    <glyph glyph-name="threeeighths" unicode="&#x215c;" horiz-adv-x="1464" 
d="M1449 284v-6q0 -35 -31 -55t-78 -27q121 -17 121 -87v-8q0 -17 -4.5 -30t-23 -29t-50.5 -26.5t-92 -18t-142 -7.5h-24q-82 0 -142 7.5t-92 18t-50.5 26.5t-23 29t-4.5 30v8q0 70 121 87q-47 7 -78 27t-31 55v6q0 22 10 37t40 29.5t92 21.5t158 7h24q96 0 158 -7t92 -21.5
t40 -29.5t10 -37zM1196 260v2q0 24 -59 24t-59 -24v-2q0 -26 59 -26t59 26zM1201 125v1q0 30 -64 30q-37 0 -50.5 -7.5t-13.5 -22.5v-1q0 -31 64 -31t64 31zM1049 744h239l-894 -744h-232zM329 365h-34q-75 0 -130.5 10t-85.5 25t-48 35t-23 36t-5 33v5h238q4 -29 67 -29
q70 0 70 23v1q0 18 -39 18h-94v94h91q34 0 34 15v1q0 21 -62 21q-60 0 -64 -24h-234v6q0 10 2 20.5t17.5 30t42 34t82.5 25.5t132 11h40q93 0 154 -7t89.5 -21t38 -28t9.5 -34v-5q0 -59 -90 -69q50 -6 81.5 -30t31.5 -65v-3q0 -27 -10 -46.5t-39.5 -40t-95.5 -31.5t-166 -11
z" />
    <glyph glyph-name="fiveeighths" unicode="&#x215d;" horiz-adv-x="1435" 
d="M1420 284v-6q0 -35 -31 -55t-78 -27q121 -17 121 -87v-8q0 -17 -4.5 -30t-23 -29t-50.5 -26.5t-92 -18t-142 -7.5h-24q-82 0 -142 7.5t-92 18t-50.5 26.5t-23 29t-4.5 30v8q0 70 121 87q-47 7 -78 27t-31 55v6q0 22 10 37t40 29.5t92 21.5t158 7h24q96 0 158 -7t92 -21.5
t40 -29.5t10 -37zM1167 260v2q0 24 -59 24t-59 -24v-2q0 -26 59 -26t59 26zM1172 125v1q0 30 -64 30q-37 0 -50.5 -7.5t-13.5 -22.5v-1q0 -31 64 -31t64 31zM1020 744h239l-894 -744h-232zM312 364h-15q-79 0 -136.5 10t-85.5 23t-44 32.5t-18.5 31.5t-2.5 28v3h234
q5 -19 60 -19q63 0 63 27v3q0 27 -63 27q-56 0 -60 -17h-227v231h566v-102h-338v-56q44 34 163 34q118 0 162 -28t44 -83v-6q0 -22 -5.5 -40t-24 -37.5t-50.5 -32t-88.5 -21t-133.5 -8.5z" />
    <glyph glyph-name="seveneighths" unicode="&#x215e;" horiz-adv-x="1362" 
d="M1347 284v-6q0 -35 -31 -55t-78 -27q121 -17 121 -87v-8q0 -17 -4.5 -30t-23 -29t-50.5 -26.5t-92 -18t-142 -7.5h-24q-82 0 -142 7.5t-92 18t-50.5 26.5t-23 29t-4.5 30v8q0 70 121 87q-47 7 -78 27t-31 55v6q0 22 10 37t40 29.5t92 21.5t158 7h24q96 0 158 -7t92 -21.5
t40 -29.5t10 -37zM1094 260v2q0 24 -59 24t-59 -24v-2q0 -26 59 -26t59 26zM1099 125v1q0 30 -64 30q-37 0 -50.5 -7.5t-13.5 -22.5v-1q0 -31 64 -31t64 31zM13 744h597v-103q-60 -60 -83 -89q-32 -40 -41 -72.5t-9 -102.5v-1h-300v59q0 33 20 54t82 59q100 61 109 72
q3 4 3 7h-140v-67h-238v184zM947 744h239l-894 -744h-232z" />
    <glyph glyph-name="minus" unicode="&#x2212;" horiz-adv-x="585" 
d="M11 397h563v-176h-563v176z" />
    <glyph glyph-name="uni24C5" unicode="&#x24c5;" horiz-adv-x="1217" 
d="M1205 359q0 -374 -593 -374h-8q-137 0 -242.5 21t-170.5 55.5t-106.5 84t-57 101t-15.5 112.5v28q0 60 15.5 111t56.5 100.5t105.5 84t169.5 55.5t242 21h13q137 0 243 -21.5t170.5 -56t105.5 -84t56.5 -100.5t15.5 -110v-28zM601 85h13q101 0 177 13t125 36t80 58
t43.5 75.5t12.5 91.5v28q0 64 -21 111.5t-69.5 85t-135.5 57t-212 19.5h-13q-124 0 -210.5 -19.5t-135 -57t-69.5 -85t-21 -111.5v-28q0 -64 20.5 -111.5t69 -85.5t135 -57.5t211.5 -19.5zM721 276h-144v-118h-270v431h414q143 0 199 -37t56 -110v-15q0 -74 -57.5 -112.5
t-197.5 -38.5zM577 470v-71h84q42 0 42 35v2q0 34 -42 34h-84z" />
    <glyph glyph-name="J.alt" unicode="&#xe489;" horiz-adv-x="584" 
d="M18 0v264h72q47 0 68 24t21 75v381h382v-466q0 -147 -78 -212.5t-239 -65.5h-226z" />
    <glyph glyph-name="a.alt" unicode="&#xe4c0;" horiz-adv-x="903" 
d="M516 215v36l-116 -31q-39 -11 -39 -38v-1q0 -17 14 -30.5t46 -13.5q45 0 70 22.5t25 55.5zM519 68q-18 -17 -45 -32t-85.5 -30.5t-128.5 -15.5h-6q-125 0 -185.5 49t-60.5 119v20q0 61 45.5 99.5t156.5 47.5l283 23q24 2 24 22v1q0 34 -74 34h-2q-36 0 -55.5 -9.5
t-22.5 -16.5t-4 -18h-338v12q0 27 5 47.5t27.5 46.5t62 43t115 29t180.5 12h57q109 0 188.5 -12t121 -29t65.5 -43t29.5 -46t5.5 -46v-193q0 -132 15 -176v-6h-361q-13 21 -13 68z" />
    <glyph glyph-name="r.alt" unicode="&#xe4d1;" horiz-adv-x="665" 
d="M390 157v-157h-366v538h364v-135q79 147 258 147v-306q-48 8 -109 8q-82 0 -114.5 -22.5t-32.5 -72.5z" />
    <glyph glyph-name="idotaccent" horiz-adv-x="412" 
d="M388 744v-175h-364v175h364zM388 538v-538h-364v538h364z" />
    <glyph glyph-name="space_uni0326" 
d="M440 -320h-162q14 21 29.5 58t17.5 55h-137v176h323v-135q0 -33 -23 -78.5t-48 -75.5z" />
    <glyph glyph-name="zero.num" horiz-adv-x="687" 
d="M331 755h24q82 0 143 -12.5t95 -30.5t54 -44.5t25.5 -49.5t5.5 -51v-15q0 -27 -5.5 -50t-25.5 -50t-54 -45t-95 -30.5t-143 -12.5h-24q-82 0 -143 12.5t-94 30.5t-53 45t-25.5 49.5t-5.5 50.5v15q0 28 5.5 51t25.5 49.5t53 44.5t94 30.5t143 12.5zM413 565
q0 27 -15.5 48.5t-54.5 21.5q-70 0 -70 -70v-6q0 -28 15.5 -50t54.5 -22q70 0 70 72v6z" />
    <glyph glyph-name="one.num" horiz-adv-x="405" 
d="M121 566h-110v114q53 1 86.5 11.5t44.5 22t20 30.5h221v-368h-262v190z" />
    <glyph glyph-name="two.num" horiz-adv-x="625" 
d="M617 376h-608v56q0 28 3.5 44.5t19 37.5t45 35t84 29t134.5 26q45 6 59 12.5t14 16.5v1q0 20 -54 20q-56 0 -59 -34h-241v3q0 18 3 31.5t19.5 34t45 33.5t86.5 23t138 10h18q89 0 150 -9t91.5 -26.5t42.5 -37t12 -45.5v-5q0 -35 -21.5 -55.5t-84 -35.5t-177.5 -22
q-119 -8 -134 -22h414v-121z" />
    <glyph glyph-name="three.num" horiz-adv-x="643" 
d="M329 364h-34q-75 0 -130.5 10t-85.5 25t-48 35t-23 36t-5 33v5h238q4 -29 67 -29q70 0 70 23v1q0 18 -39 18h-94v94h91q34 0 34 15v1q0 21 -62 21q-60 0 -64 -24h-234v6q0 10 2 20.5t17.5 30t42 34t82.5 25.5t132 11h40q93 0 154 -7t89.5 -21t38 -28t9.5 -34v-5
q0 -59 -90 -69q50 -6 81.5 -30t31.5 -65v-3q0 -27 -10 -46.5t-39.5 -40t-95.5 -31.5t-166 -11z" />
    <glyph glyph-name="four.num" horiz-adv-x="616" 
d="M4 572l278 172h262v-168h67v-121h-67v-79h-253v79h-287v117zM164 576h127v77z" />
    <glyph glyph-name="five.num" horiz-adv-x="622" 
d="M312 364h-15q-79 0 -136.5 10t-85.5 23t-44 32.5t-18.5 31.5t-2.5 28v3h234q5 -19 60 -19q63 0 63 27v3q0 27 -63 27q-56 0 -60 -17h-227v231h566v-102h-338v-56q44 34 163 34q118 0 162 -28t44 -83v-6q0 -22 -5.5 -40t-24 -37.5t-50.5 -32t-88.5 -21t-133.5 -8.5z" />
    <glyph glyph-name="six.num" horiz-adv-x="672" 
d="M360 364h-28q-322 0 -322 190v14q0 187 317 187h21q303 0 303 -132h-241q-15 22 -64 22q-23 0 -39.5 -6t-25 -14t-13 -20.5t-5.5 -20t-1 -17.5v-1q50 36 181 36h5q69 0 114 -7t68 -22t31 -32.5t8 -43.5v-7q0 -25 -10.5 -44.5t-40 -39.5t-95 -31t-163.5 -11zM272 495
q0 -30 72 -30t72 30v1q0 29 -72 29t-72 -29v-1z" />
    <glyph glyph-name="seven.num" horiz-adv-x="619" 
d="M13 744h597v-103q-60 -60 -83 -89q-32 -40 -41 -72.5t-9 -102.5v-1h-300v59q0 33 20 54t82 59q100 61 109 72q3 4 3 7h-140v-67h-238v184z" />
    <glyph glyph-name="eight.num" horiz-adv-x="654" 
d="M639 660v-6q0 -35 -31 -55t-78 -27q121 -17 121 -87v-8q0 -17 -4.5 -30t-23 -29t-50.5 -26.5t-92 -18t-142 -7.5h-24q-82 0 -142 7.5t-92 18t-50.5 26.5t-23 29t-4.5 30v8q0 70 121 87q-47 7 -78 27t-31 55v6q0 22 10 37t40 29.5t92 21.5t158 7h24q96 0 158 -7t92 -21.5
t40 -29.5t10 -37zM386 636v2q0 24 -59 24t-59 -24v-2q0 -26 59 -26t59 26zM391 501v1q0 30 -64 30q-37 0 -50.5 -7.5t-13.5 -22.5v-1q0 -31 64 -31t64 31z" />
    <glyph glyph-name="nine.num" horiz-adv-x="674" 
d="M402 624q0 30 -72 30t-72 -30v-1q0 -29 72 -29t72 29v1zM329 364q-305 0 -305 132h241q7 -22 63 -22q29 0 47.5 8t26 22.5t9.5 24.5t2 23v1q-62 -36 -178 -36h-6q-224 0 -224 106v6q0 20 4.5 35t23 33t49.5 30t89 20t137 8h28q84 0 146 -13t96 -31.5t54.5 -45.5
t26.5 -48.5t6 -46.5v-14q0 -192 -314 -192h-22z" />
    <glyph glyph-name="zero.den" horiz-adv-x="687" 
d="M331 379h24q82 0 143 -12.5t95 -30.5t54 -44.5t25.5 -49.5t5.5 -51v-15q0 -27 -5.5 -50t-25.5 -50t-54 -45t-95 -30.5t-143 -12.5h-24q-82 0 -143 12.5t-94 30.5t-53 45t-25.5 49.5t-5.5 50.5v15q0 28 5.5 51t25.5 49.5t53 44.5t94 30.5t143 12.5zM413 189
q0 27 -15.5 48.5t-54.5 21.5q-70 0 -70 -70v-6q0 -28 15.5 -50t54.5 -22q70 0 70 72v6z" />
    <glyph glyph-name="one.den" horiz-adv-x="405" 
d="M121 190h-110v114q53 1 86.5 11.5t44.5 22t20 30.5h221v-368h-262v190z" />
    <glyph glyph-name="two.den" horiz-adv-x="625" 
d="M617 0h-608v56q0 28 3.5 44.5t19 37.5t45 35t84 29t134.5 26q45 6 59 12.5t14 16.5v1q0 20 -54 20q-56 0 -59 -34h-241v3q0 18 3 31.5t19.5 34t45 33.5t86.5 23t138 10h18q89 0 150 -9t91.5 -26.5t42.5 -37t12 -45.5v-5q0 -35 -21.5 -55.5t-84 -35.5t-177.5 -22
q-119 -8 -134 -22h414v-121z" />
    <glyph glyph-name="three.den" horiz-adv-x="643" 
d="M329 -12h-34q-75 0 -130.5 10t-85.5 25t-48 35t-23 36t-5 33v5h238q4 -29 67 -29q70 0 70 23v1q0 18 -39 18h-94v94h91q34 0 34 15v1q0 21 -62 21q-60 0 -64 -24h-234v6q0 10 2 20.5t17.5 30t42 34t82.5 25.5t132 11h40q93 0 154 -7t89.5 -21t38 -28t9.5 -34v-5
q0 -59 -90 -69q50 -6 81.5 -30t31.5 -65v-3q0 -27 -10 -46.5t-39.5 -40t-95.5 -31.5t-166 -11z" />
    <glyph glyph-name="four.den" horiz-adv-x="616" 
d="M4 196l278 172h262v-168h67v-121h-67v-79h-253v79h-287v117zM164 200h127v77z" />
    <glyph glyph-name="five.den" horiz-adv-x="622" 
d="M312 -12h-15q-79 0 -136.5 10t-85.5 23t-44 32.5t-18.5 31.5t-2.5 28v3h234q5 -19 60 -19q63 0 63 27v3q0 27 -63 27q-56 0 -60 -17h-227v231h566v-102h-338v-56q44 34 163 34q118 0 162 -28t44 -83v-6q0 -22 -5.5 -40t-24 -37.5t-50.5 -32t-88.5 -21t-133.5 -8.5z" />
    <glyph glyph-name="six.den" horiz-adv-x="672" 
d="M360 -12h-28q-322 0 -322 190v14q0 187 317 187h21q303 0 303 -132h-241q-15 22 -64 22q-23 0 -39.5 -6t-25 -14t-13 -20.5t-5.5 -20t-1 -17.5v-1q50 36 181 36h5q69 0 114 -7t68 -22t31 -32.5t8 -43.5v-7q0 -25 -10.5 -44.5t-40 -39.5t-95 -31t-163.5 -11zM272 119
q0 -30 72 -30t72 30v1q0 29 -72 29t-72 -29v-1z" />
    <glyph glyph-name="seven.den" horiz-adv-x="619" 
d="M13 368h597v-103q-60 -60 -83 -89q-32 -40 -41 -72.5t-9 -102.5v-1h-300v59q0 33 20 54t82 59q100 61 109 72q3 4 3 7h-140v-67h-238v184z" />
    <glyph glyph-name="eight.den" horiz-adv-x="654" 
d="M639 284v-6q0 -35 -31 -55t-78 -27q121 -17 121 -87v-8q0 -17 -4.5 -30t-23 -29t-50.5 -26.5t-92 -18t-142 -7.5h-24q-82 0 -142 7.5t-92 18t-50.5 26.5t-23 29t-4.5 30v8q0 70 121 87q-47 7 -78 27t-31 55v6q0 22 10 37t40 29.5t92 21.5t158 7h24q96 0 158 -7t92 -21.5
t40 -29.5t10 -37zM386 260v2q0 24 -59 24t-59 -24v-2q0 -26 59 -26t59 26zM391 125v1q0 30 -64 30q-37 0 -50.5 -7.5t-13.5 -22.5v-1q0 -31 64 -31t64 31z" />
    <glyph glyph-name="nine.den" horiz-adv-x="674" 
d="M402 248q0 30 -72 30t-72 -30v-1q0 -29 72 -29t72 29v1zM329 -12q-305 0 -305 132h241q7 -22 63 -22q29 0 47.5 8t26 22.5t9.5 24.5t2 23v1q-62 -36 -178 -36h-6q-224 0 -224 106v6q0 20 4.5 35t23 33t49.5 30t89 20t137 8h28q84 0 146 -13t96 -31.5t54.5 -45.5
t26.5 -48.5t6 -46.5v-14q0 -192 -314 -192h-22z" />
    <glyph glyph-name="zero.sub" horiz-adv-x="687" 
d="M331 285h24q82 0 143 -12.5t95 -30.5t54 -44.5t25.5 -49.5t5.5 -51v-15q0 -27 -5.5 -50t-25.5 -50t-54 -45t-95 -30.5t-143 -12.5h-24q-82 0 -143 12.5t-94 30.5t-53 45t-25.5 49.5t-5.5 50.5v15q0 28 5.5 51t25.5 49.5t53 44.5t94 30.5t143 12.5zM413 95
q0 27 -15.5 48.5t-54.5 21.5q-70 0 -70 -70v-6q0 -28 15.5 -50t54.5 -22q70 0 70 72v6z" />
    <glyph glyph-name="one.sub" horiz-adv-x="405" 
d="M121 96h-110v114q53 1 86.5 11.5t44.5 22t20 30.5h221v-368h-262v190z" />
    <glyph glyph-name="two.sub" horiz-adv-x="625" 
d="M617 -94h-608v56q0 28 3.5 44.5t19 37.5t45 35t84 29t134.5 26q45 6 59 12.5t14 16.5v1q0 20 -54 20q-56 0 -59 -34h-241v3q0 18 3 31.5t19.5 34t45 33.5t86.5 23t138 10h18q89 0 150 -9t91.5 -26.5t42.5 -37t12 -45.5v-5q0 -35 -21.5 -55.5t-84 -35.5t-177.5 -22
q-119 -8 -134 -22h414v-121z" />
    <glyph glyph-name="three.sub" horiz-adv-x="643" 
d="M329 -106h-34q-75 0 -130.5 10t-85.5 25t-48 35t-23 36t-5 33v5h238q4 -29 67 -29q70 0 70 23v1q0 18 -39 18h-94v94h91q34 0 34 15v1q0 21 -62 21q-60 0 -64 -24h-234v6q0 10 2 20.5t17.5 30t42 34t82.5 25.5t132 11h40q93 0 154 -7t89.5 -21t38 -28t9.5 -34v-5
q0 -59 -90 -69q50 -6 81.5 -30t31.5 -65v-3q0 -27 -10 -46.5t-39.5 -40t-95.5 -31.5t-166 -11z" />
    <glyph glyph-name="four.sub" horiz-adv-x="616" 
d="M4 102l278 172h262v-168h67v-121h-67v-79h-253v79h-287v117zM164 106h127v77z" />
    <glyph glyph-name="five.sub" horiz-adv-x="622" 
d="M312 -106h-15q-79 0 -136.5 10t-85.5 23t-44 32.5t-18.5 31.5t-2.5 28v3h234q5 -19 60 -19q63 0 63 27v3q0 27 -63 27q-56 0 -60 -17h-227v231h566v-102h-338v-56q44 34 163 34q118 0 162 -28t44 -83v-6q0 -22 -5.5 -40t-24 -37.5t-50.5 -32t-88.5 -21t-133.5 -8.5z" />
    <glyph glyph-name="six.sub" horiz-adv-x="672" 
d="M360 -106h-28q-322 0 -322 190v14q0 187 317 187h21q303 0 303 -132h-241q-15 22 -64 22q-23 0 -39.5 -6t-25 -14t-13 -20.5t-5.5 -20t-1 -17.5v-1q50 36 181 36h5q69 0 114 -7t68 -22t31 -32.5t8 -43.5v-7q0 -25 -10.5 -44.5t-40 -39.5t-95 -31t-163.5 -11zM272 25
q0 -30 72 -30t72 30v1q0 29 -72 29t-72 -29v-1z" />
    <glyph glyph-name="seven.sub" horiz-adv-x="619" 
d="M13 274h597v-103q-60 -60 -83 -89q-32 -40 -41 -72.5t-9 -102.5v-1h-300v59q0 33 20 54t82 59q100 61 109 72q3 4 3 7h-140v-67h-238v184z" />
    <glyph glyph-name="eight.sub" horiz-adv-x="654" 
d="M639 190v-6q0 -35 -31 -55t-78 -27q121 -17 121 -87v-8q0 -17 -4.5 -30t-23 -29t-50.5 -26.5t-92 -18t-142 -7.5h-24q-82 0 -142 7.5t-92 18t-50.5 26.5t-23 29t-4.5 30v8q0 70 121 87q-47 7 -78 27t-31 55v6q0 22 10 37t40 29.5t92 21.5t158 7h24q96 0 158 -7t92 -21.5
t40 -29.5t10 -37zM386 166v2q0 24 -59 24t-59 -24v-2q0 -26 59 -26t59 26zM391 31v1q0 30 -64 30q-37 0 -50.5 -7.5t-13.5 -22.5v-1q0 -31 64 -31t64 31z" />
    <glyph glyph-name="nine.sub" horiz-adv-x="674" 
d="M402 154q0 30 -72 30t-72 -30v-1q0 -29 72 -29t72 29v1zM329 -106q-305 0 -305 132h241q7 -22 63 -22q29 0 47.5 8t26 22.5t9.5 24.5t2 23v1q-62 -36 -178 -36h-6q-224 0 -224 106v6q0 20 4.5 35t23 33t49.5 30t89 20t137 8h28q84 0 146 -13t96 -31.5t54.5 -45.5
t26.5 -48.5t6 -46.5v-14q0 -192 -314 -192h-22z" />
    <glyph glyph-name="zero.sup" horiz-adv-x="687" 
d="M331 755h24q82 0 143 -12.5t95 -30.5t54 -44.5t25.5 -49.5t5.5 -51v-15q0 -27 -5.5 -50t-25.5 -50t-54 -45t-95 -30.5t-143 -12.5h-24q-82 0 -143 12.5t-94 30.5t-53 45t-25.5 49.5t-5.5 50.5v15q0 28 5.5 51t25.5 49.5t53 44.5t94 30.5t143 12.5zM413 565
q0 27 -15.5 48.5t-54.5 21.5q-70 0 -70 -70v-6q0 -28 15.5 -50t54.5 -22q70 0 70 72v6z" />
    <glyph glyph-name="one.sup" horiz-adv-x="405" 
d="M121 566h-110v114q53 1 86.5 11.5t44.5 22t20 30.5h221v-368h-262v190z" />
    <glyph glyph-name="two.sup" horiz-adv-x="625" 
d="M617 376h-608v56q0 28 3.5 44.5t19 37.5t45 35t84 29t134.5 26q45 6 59 12.5t14 16.5v1q0 20 -54 20q-56 0 -59 -34h-241v3q0 18 3 31.5t19.5 34t45 33.5t86.5 23t138 10h18q89 0 150 -9t91.5 -26.5t42.5 -37t12 -45.5v-5q0 -35 -21.5 -55.5t-84 -35.5t-177.5 -22
q-119 -8 -134 -22h414v-121z" />
    <glyph glyph-name="three.sup" horiz-adv-x="643" 
d="M329 364h-34q-75 0 -130.5 10t-85.5 25t-48 35t-23 36t-5 33v5h238q4 -29 67 -29q70 0 70 23v1q0 18 -39 18h-94v94h91q34 0 34 15v1q0 21 -62 21q-60 0 -64 -24h-234v6q0 10 2 20.5t17.5 30t42 34t82.5 25.5t132 11h40q93 0 154 -7t89.5 -21t38 -28t9.5 -34v-5
q0 -59 -90 -69q50 -6 81.5 -30t31.5 -65v-3q0 -27 -10 -46.5t-39.5 -40t-95.5 -31.5t-166 -11z" />
    <glyph glyph-name="four.sup" horiz-adv-x="616" 
d="M4 572l278 172h262v-168h67v-121h-67v-79h-253v79h-287v117zM164 576h127v77z" />
    <glyph glyph-name="five.sup" horiz-adv-x="622" 
d="M312 364h-15q-79 0 -136.5 10t-85.5 23t-44 32.5t-18.5 31.5t-2.5 28v3h234q5 -19 60 -19q63 0 63 27v3q0 27 -63 27q-56 0 -60 -17h-227v231h566v-102h-338v-56q44 34 163 34q118 0 162 -28t44 -83v-6q0 -22 -5.5 -40t-24 -37.5t-50.5 -32t-88.5 -21t-133.5 -8.5z" />
    <glyph glyph-name="six.sup" horiz-adv-x="672" 
d="M360 364h-28q-322 0 -322 190v14q0 187 317 187h21q303 0 303 -132h-241q-15 22 -64 22q-23 0 -39.5 -6t-25 -14t-13 -20.5t-5.5 -20t-1 -17.5v-1q50 36 181 36h5q69 0 114 -7t68 -22t31 -32.5t8 -43.5v-7q0 -25 -10.5 -44.5t-40 -39.5t-95 -31t-163.5 -11zM272 495
q0 -30 72 -30t72 30v1q0 29 -72 29t-72 -29v-1z" />
    <glyph glyph-name="seven.sup" horiz-adv-x="619" 
d="M13 744h597v-103q-60 -60 -83 -89q-32 -40 -41 -72.5t-9 -102.5v-1h-300v59q0 33 20 54t82 59q100 61 109 72q3 4 3 7h-140v-67h-238v184z" />
    <glyph glyph-name="eight.sup" horiz-adv-x="654" 
d="M639 660v-6q0 -35 -31 -55t-78 -27q121 -17 121 -87v-8q0 -17 -4.5 -30t-23 -29t-50.5 -26.5t-92 -18t-142 -7.5h-24q-82 0 -142 7.5t-92 18t-50.5 26.5t-23 29t-4.5 30v8q0 70 121 87q-47 7 -78 27t-31 55v6q0 22 10 37t40 29.5t92 21.5t158 7h24q96 0 158 -7t92 -21.5
t40 -29.5t10 -37zM386 636v2q0 24 -59 24t-59 -24v-2q0 -26 59 -26t59 26zM391 501v1q0 30 -64 30q-37 0 -50.5 -7.5t-13.5 -22.5v-1q0 -31 64 -31t64 31z" />
    <glyph glyph-name="nine.sup" horiz-adv-x="674" 
d="M402 624q0 30 -72 30t-72 -30v-1q0 -29 72 -29t72 29v1zM329 364q-305 0 -305 132h241q7 -22 63 -22q29 0 47.5 8t26 22.5t9.5 24.5t2 23v1q-62 -36 -178 -36h-6q-224 0 -224 106v6q0 20 4.5 35t23 33t49.5 30t89 20t137 8h28q84 0 146 -13t96 -31.5t54.5 -45.5
t26.5 -48.5t6 -46.5v-14q0 -192 -314 -192h-22z" />
    <glyph glyph-name="IJ.alt" horiz-adv-x="1019" 
d="M407 744v-744h-379v744h379zM453 0v264h72q47 0 68 24t21 75v381h382v-466q0 -147 -78 -212.5t-239 -65.5h-226z" />
    <glyph glyph-name="a.alt2" horiz-adv-x="955" 
d="M567 271v8q0 36 -24 66t-70 30h-5q-44 0 -66.5 -29.5t-22.5 -68.5v-5q0 -42 22.5 -73.5t65.5 -31.5h5q47 0 71 31.5t24 72.5zM567 538h364v-538h-364v71q-85 -75 -245 -75h-22q-144 0 -216.5 77.5t-72.5 185.5v25q0 105 71 181.5t213 76.5h23q162 0 249 -63v59z" />
    <glyph glyph-name="Jcircumflex.alt" horiz-adv-x="584" 
d="M18 0v264h72q47 0 68 24t21 75v381h382v-466q0 -147 -78 -212.5t-239 -65.5h-226zM533 940l171 -165h-288l-54 58l-55 -58h-285l169 165h342z" />
    <glyph glyph-name="aacute.alt" horiz-adv-x="903" 
d="M285 574l83 170h342l-117 -170h-308zM516 215v36l-116 -31q-39 -11 -39 -38v-1q0 -17 14 -30.5t46 -13.5q45 0 70 22.5t25 55.5zM519 68q-18 -17 -45 -32t-85.5 -30.5t-128.5 -15.5h-6q-125 0 -185.5 49t-60.5 119v20q0 61 45.5 99.5t156.5 47.5l283 23q24 2 24 22v1
q0 34 -74 34h-2q-36 0 -55.5 -9.5t-22.5 -16.5t-4 -18h-338v12q0 27 5 47.5t27.5 46.5t62 43t115 29t180.5 12h57q109 0 188.5 -12t121 -29t65.5 -43t29.5 -46t5.5 -46v-193q0 -132 15 -176v-6h-361q-13 21 -13 68z" />
    <glyph glyph-name="aacute.alt2" horiz-adv-x="955" 
d="M567 271v8q0 36 -24 66t-70 30h-5q-44 0 -66.5 -29.5t-22.5 -68.5v-5q0 -42 22.5 -73.5t65.5 -31.5h5q47 0 71 31.5t24 72.5zM567 538h364v-538h-364v71q-85 -75 -245 -75h-22q-144 0 -216.5 77.5t-72.5 185.5v25q0 105 71 181.5t213 76.5h23q162 0 249 -63v59zM306 569
l85 175h342l-119 -175h-308z" />
    <glyph glyph-name="abreve.alt" horiz-adv-x="903" 
d="M416 571q-58 0 -103 13t-70 31.5t-41 43t-21 44.5t-5 39v2h202q1 -14 15.5 -28t49.5 -14h2q56 0 63 42h200v-2q0 -24 -11.5 -50.5t-36.5 -55t-74.5 -47t-115.5 -18.5h-54zM516 215v36l-116 -31q-39 -11 -39 -38v-1q0 -17 14 -30.5t46 -13.5q45 0 70 22.5t25 55.5zM519 68
q-18 -17 -45 -32t-85.5 -30.5t-128.5 -15.5h-6q-125 0 -185.5 49t-60.5 119v20q0 61 45.5 99.5t156.5 47.5l283 23q24 2 24 22v1q0 34 -74 34h-2q-36 0 -55.5 -9.5t-22.5 -16.5t-4 -18h-338v12q0 27 5 47.5t27.5 46.5t62 43t115 29t180.5 12h57q109 0 188.5 -12t121 -29
t65.5 -43t29.5 -46t5.5 -46v-193q0 -132 15 -176v-6h-361q-13 21 -13 68z" />
    <glyph glyph-name="abreve.alt2" horiz-adv-x="955" 
d="M567 271v8q0 36 -24 66t-70 30h-5q-44 0 -66.5 -29.5t-22.5 -68.5v-5q0 -42 22.5 -73.5t65.5 -31.5h5q47 0 71 31.5t24 72.5zM567 538h364v-538h-364v71q-85 -75 -245 -75h-22q-144 0 -216.5 77.5t-72.5 185.5v25q0 105 71 181.5t213 76.5h23q162 0 249 -63v59zM715 742
q0 -25 -11 -52.5t-35.5 -57t-74.5 -48t-117 -18.5h-54q-73 0 -124.5 18.5t-74.5 48.5t-32 56t-9 53v2h202v-1q0 -6 2.5 -12.5t8.5 -14.5t20 -13t34 -5h2q35 0 49 15t14 30v1h200v-2z" />
    <glyph glyph-name="acircumflex.alt" horiz-adv-x="903" 
d="M615 744l155 -170h-278l-52 65l-51 -65h-275l156 170h345zM516 215v36l-116 -31q-39 -11 -39 -38v-1q0 -17 14 -30.5t46 -13.5q45 0 70 22.5t25 55.5zM519 68q-18 -17 -45 -32t-85.5 -30.5t-128.5 -15.5h-6q-125 0 -185.5 49t-60.5 119v20q0 61 45.5 99.5t156.5 47.5
l283 23q24 2 24 22v1q0 34 -74 34h-2q-36 0 -55.5 -9.5t-22.5 -16.5t-4 -18h-338v12q0 27 5 47.5t27.5 46.5t62 43t115 29t180.5 12h57q109 0 188.5 -12t121 -29t65.5 -43t29.5 -46t5.5 -46v-193q0 -132 15 -176v-6h-361q-13 21 -13 68z" />
    <glyph glyph-name="acircumflex.alt2" horiz-adv-x="955" 
d="M567 271v8q0 36 -24 66t-70 30h-5q-44 0 -66.5 -29.5t-22.5 -68.5v-5q0 -42 22.5 -73.5t65.5 -31.5h5q47 0 71 31.5t24 72.5zM567 538h364v-538h-364v71q-85 -75 -245 -75h-22q-144 0 -216.5 77.5t-72.5 185.5v25q0 105 71 181.5t213 76.5h23q162 0 249 -63v59zM642 744
l155 -175h-278l-52 70l-51 -70h-275l156 175h345z" />
    <glyph glyph-name="adieresis.alt" horiz-adv-x="903" 
d="M743 744v-170h-282v170h282zM423 744v-170h-281v170h281zM516 215v36l-116 -31q-39 -11 -39 -38v-1q0 -17 14 -30.5t46 -13.5q45 0 70 22.5t25 55.5zM519 68q-18 -17 -45 -32t-85.5 -30.5t-128.5 -15.5h-6q-125 0 -185.5 49t-60.5 119v20q0 61 45.5 99.5t156.5 47.5
l283 23q24 2 24 22v1q0 34 -74 34h-2q-36 0 -55.5 -9.5t-22.5 -16.5t-4 -18h-338v12q0 27 5 47.5t27.5 46.5t62 43t115 29t180.5 12h57q109 0 188.5 -12t121 -29t65.5 -43t29.5 -46t5.5 -46v-193q0 -132 15 -176v-6h-361q-13 21 -13 68z" />
    <glyph glyph-name="adieresis.alt2" horiz-adv-x="955" 
d="M567 271v8q0 36 -24 66t-70 30h-5q-44 0 -66.5 -29.5t-22.5 -68.5v-5q0 -42 22.5 -73.5t65.5 -31.5h5q47 0 71 31.5t24 72.5zM567 538h364v-538h-364v71q-85 -75 -245 -75h-22q-144 0 -216.5 77.5t-72.5 185.5v25q0 105 71 181.5t213 76.5h23q162 0 249 -63v59zM768 744
v-175h-281v175h281zM449 744v-175h-280v175h280z" />
    <glyph glyph-name="agrave.alt" horiz-adv-x="903" 
d="M604 574h-308l-117 170h342zM516 215v36l-116 -31q-39 -11 -39 -38v-1q0 -17 14 -30.5t46 -13.5q45 0 70 22.5t25 55.5zM519 68q-18 -17 -45 -32t-85.5 -30.5t-128.5 -15.5h-6q-125 0 -185.5 49t-60.5 119v20q0 61 45.5 99.5t156.5 47.5l283 23q24 2 24 22v1q0 34 -74 34
h-2q-36 0 -55.5 -9.5t-22.5 -16.5t-4 -18h-338v12q0 27 5 47.5t27.5 46.5t62 43t115 29t180.5 12h57q109 0 188.5 -12t121 -29t65.5 -43t29.5 -46t5.5 -46v-193q0 -132 15 -176v-6h-361q-13 21 -13 68z" />
    <glyph glyph-name="agrave.alt2" horiz-adv-x="955" 
d="M567 271v8q0 36 -24 66t-70 30h-5q-44 0 -66.5 -29.5t-22.5 -68.5v-5q0 -42 22.5 -73.5t65.5 -31.5h5q47 0 71 31.5t24 72.5zM567 538h364v-538h-364v71q-85 -75 -245 -75h-22q-144 0 -216.5 77.5t-72.5 185.5v25q0 105 71 181.5t213 76.5h23q162 0 249 -63v59zM622 569
h-308l-119 175h342z" />
    <glyph glyph-name="amacron.alt" horiz-adv-x="903" 
d="M516 215v36l-116 -31q-39 -11 -39 -38v-1q0 -17 14 -30.5t46 -13.5q45 0 70 22.5t25 55.5zM519 68q-18 -17 -45 -32t-85.5 -30.5t-128.5 -15.5h-6q-125 0 -185.5 49t-60.5 119v20q0 61 45.5 99.5t156.5 47.5l283 23q24 2 24 22v1q0 34 -74 34h-2q-36 0 -55.5 -9.5
t-22.5 -16.5t-4 -18h-338v12q0 27 5 47.5t27.5 46.5t62 43t115 29t180.5 12h57q109 0 188.5 -12t121 -29t65.5 -43t29.5 -46t5.5 -46v-193q0 -132 15 -176v-6h-361q-13 21 -13 68zM191 582v142h509v-142h-509z" />
    <glyph glyph-name="amacron.alt2" horiz-adv-x="955" 
d="M567 271v8q0 36 -24 66t-70 30h-5q-44 0 -66.5 -29.5t-22.5 -68.5v-5q0 -42 22.5 -73.5t65.5 -31.5h5q47 0 71 31.5t24 72.5zM567 538h364v-538h-364v71q-85 -75 -245 -75h-22q-144 0 -216.5 77.5t-72.5 185.5v25q0 105 71 181.5t213 76.5h23q162 0 249 -63v59zM206 577
v142h509v-142h-509z" />
    <glyph glyph-name="aogonek.alt" horiz-adv-x="903" 
d="M507 -114v5q0 40 57.5 64.5t180.5 44.5h-213q-13 21 -13 68q-18 -17 -45 -32t-85.5 -30.5t-128.5 -15.5h-6q-125 0 -185.5 49t-60.5 119v20q0 61 45.5 99.5t156.5 47.5l283 23q24 2 24 22v1q0 34 -74 34h-2q-36 0 -55.5 -9.5t-22.5 -16.5t-4 -18h-338v12q0 27 5 47.5
t27.5 46.5t62 43t115 29t180.5 12h57q109 0 188.5 -12t121 -29t65.5 -43t29.5 -46t5.5 -46v-193q0 -132 15 -176v-6q-63 -34 -63 -56v-1q0 -17 25 -17h38v-114h-207q-97 0 -138 18.5t-41 55.5zM516 215v36l-116 -31q-39 -11 -39 -38v-1q0 -17 14 -30.5t46 -13.5
q45 0 70 22.5t25 55.5z" />
    <glyph glyph-name="aogonek.alt2" horiz-adv-x="955" 
d="M567 538h364v-538q-63 -34 -63 -56v-1q0 -17 25 -17h38v-114h-207q-97 0 -138 18.5t-41 55.5v5q0 40 57.5 64.5t180.5 44.5h-216v71q-85 -75 -245 -75h-22q-144 0 -216.5 77.5t-72.5 185.5v25q0 105 71 181.5t213 76.5h23q162 0 249 -63v59zM567 271v8q0 36 -24 66
t-70 30h-5q-44 0 -66.5 -29.5t-22.5 -68.5v-5q0 -42 22.5 -73.5t65.5 -31.5h5q47 0 71 31.5t24 72.5z" />
    <glyph glyph-name="aring.alt" horiz-adv-x="903" 
d="M516 215v36l-116 -31q-39 -11 -39 -38v-1q0 -17 14 -30.5t46 -13.5q45 0 70 22.5t25 55.5zM519 68q-18 -17 -45 -32t-85.5 -30.5t-128.5 -15.5h-6q-125 0 -185.5 49t-60.5 119v20q0 61 45.5 99.5t156.5 47.5l283 23q24 2 24 22v1q0 34 -74 34h-2q-36 0 -55.5 -9.5
t-22.5 -16.5t-4 -18h-338v12q0 27 5 47.5t27.5 46.5t62 43t115 29t180.5 12h57q109 0 188.5 -12t121 -29t65.5 -43t29.5 -46t5.5 -46v-193q0 -132 15 -176v-6h-361q-13 21 -13 68zM230 692q0 123 211 123t211 -123q0 -122 -211 -122t-211 122zM369 693q0 -43 72 -43t72 43
q0 42 -72 42t-72 -42z" />
    <glyph glyph-name="aring.alt2" horiz-adv-x="955" 
d="M567 271v8q0 36 -24 66t-70 30h-5q-44 0 -66.5 -29.5t-22.5 -68.5v-5q0 -42 22.5 -73.5t65.5 -31.5h5q47 0 71 31.5t24 72.5zM567 538h364v-538h-364v71q-85 -75 -245 -75h-22q-144 0 -216.5 77.5t-72.5 185.5v25q0 105 71 181.5t213 76.5h23q162 0 249 -63v59zM256 687
q0 123 211 123t211 -123q0 -122 -211 -122t-211 122zM395 688q0 -43 72 -43t72 43q0 42 -72 42t-72 -42z" />
    <glyph glyph-name="aringacute.alt" horiz-adv-x="903" 
d="M296 833l85 175h342l-119 -175h-308zM235 692q0 123 211 123t211 -123q0 -122 -211 -122t-211 122zM374 693q0 -43 72 -43t72 43q0 42 -72 42t-72 -42zM516 215v36l-116 -31q-39 -11 -39 -38v-1q0 -17 14 -30.5t46 -13.5q45 0 70 22.5t25 55.5zM519 68q-18 -17 -45 -32
t-85.5 -30.5t-128.5 -15.5h-6q-125 0 -185.5 49t-60.5 119v20q0 61 45.5 99.5t156.5 47.5l283 23q24 2 24 22v1q0 34 -74 34h-2q-36 0 -55.5 -9.5t-22.5 -16.5t-4 -18h-338v12q0 27 5 47.5t27.5 46.5t62 43t115 29t180.5 12h57q109 0 188.5 -12t121 -29t65.5 -43t29.5 -46
t5.5 -46v-193q0 -132 15 -176v-6h-361q-13 21 -13 68z" />
    <glyph glyph-name="aringacute.alt2" horiz-adv-x="955" 
d="M317 828l85 175h342l-119 -175h-308zM256 687q0 123 211 123t211 -123q0 -122 -211 -122t-211 122zM395 688q0 -43 72 -43t72 43q0 42 -72 42t-72 -42zM567 271v8q0 36 -24 66t-70 30h-5q-44 0 -66.5 -29.5t-22.5 -68.5v-5q0 -42 22.5 -73.5t65.5 -31.5h5q47 0 71 31.5
t24 72.5zM567 538h364v-538h-364v71q-85 -75 -245 -75h-22q-144 0 -216.5 77.5t-72.5 185.5v25q0 105 71 181.5t213 76.5h23q162 0 249 -63v59z" />
    <glyph glyph-name="atilde.alt" horiz-adv-x="903" 
d="M516 215v36l-116 -31q-39 -11 -39 -38v-1q0 -17 14 -30.5t46 -13.5q45 0 70 22.5t25 55.5zM519 68q-18 -17 -45 -32t-85.5 -30.5t-128.5 -15.5h-6q-125 0 -185.5 49t-60.5 119v20q0 61 45.5 99.5t156.5 47.5l283 23q24 2 24 22v1q0 34 -74 34h-2q-36 0 -55.5 -9.5
t-22.5 -16.5t-4 -18h-338v12q0 27 5 47.5t27.5 46.5t62 43t115 29t180.5 12h57q109 0 188.5 -12t121 -29t65.5 -43t29.5 -46t5.5 -46v-193q0 -132 15 -176v-6h-361q-13 21 -13 68zM579 573q-25 0 -47 3.5t-39 8.5t-59 18q-43 14 -55 14q-16 0 -16 -21v-23h-189v88
q0 99 136 99h2q58 0 150 -30q41 -13 51 -13q14 0 14 16v27h190v-75q0 -20 -4 -36t-16.5 -35t-42 -30t-73.5 -11h-2z" />
    <glyph glyph-name="atilde.alt2" horiz-adv-x="955" 
d="M567 271v8q0 36 -24 66t-70 30h-5q-44 0 -66.5 -29.5t-22.5 -68.5v-5q0 -42 22.5 -73.5t65.5 -31.5h5q47 0 71 31.5t24 72.5zM567 538h364v-538h-364v71q-85 -75 -245 -75h-22q-144 0 -216.5 77.5t-72.5 185.5v25q0 105 71 181.5t213 76.5h23q162 0 249 -63v59zM611 568
q-25 0 -47 3.5t-39 8.5t-59 18q-43 14 -55 14q-16 0 -16 -21v-23h-189v88q0 99 136 99h2q58 0 150 -30q41 -13 51 -13q14 0 14 16v27h190v-75q0 -20 -4 -36t-16.5 -35t-42 -30t-73.5 -11h-2z" />
    <glyph glyph-name="racute.alt" horiz-adv-x="665" 
d="M390 157v-157h-366v538h364v-135q79 147 258 147v-306q-48 8 -109 8q-82 0 -114.5 -22.5t-32.5 -72.5zM203 569l85 175h342l-119 -175h-308z" />
    <glyph glyph-name="rcaron.alt" horiz-adv-x="665" 
d="M390 157v-157h-366v538h364v-135q79 147 258 147v-306q-48 8 -109 8q-82 0 -114.5 -22.5t-32.5 -72.5zM180 569l-155 175h278l51 -70l52 70h275l-156 -175h-345z" />
    <glyph glyph-name="rcommaaccent.alt" horiz-adv-x="665" 
d="M390 157v-157h-366v538h364v-135q79 147 258 147v-306q-48 8 -109 8q-82 0 -114.5 -22.5t-32.5 -72.5zM298 -320h-162q14 21 29.5 58t17.5 55h-137v176h323v-135q0 -33 -23 -78.5t-48 -75.5z" />
    <glyph glyph-name="space_uni0326.alt" 
d="M259 858h164q-14 -21 -29.5 -58t-17.5 -55h136v-176h-324v135q0 33 23 78.5t48 75.5z" />
    <glyph glyph-name="ordfeminine.alt" horiz-adv-x="659" 
d="M307 481q30 0 47.5 15t17.5 37v20l-76 -20q-29 -8 -29 -26v-1q0 -25 40 -25zM375 429q-80 -51 -188 -51h-5q-97 0 -138.5 32.5t-41.5 79.5v12q0 41 37.5 65.5t128.5 31.5l179 14q25 2 25 18v1q0 23 -49 23h-1q-54 0 -54 -29h-256v8q0 16 3 28t19 30.5t44.5 30t86 20
t137.5 8.5h38q80 0 138.5 -8t88.5 -19.5t47 -29t20.5 -30.5t3.5 -30v-132q0 -75 10 -111v-5h-264q-9 15 -9 43z" />
    <glyph glyph-name="ordfeminine.alt2" horiz-adv-x="688" 
d="M401 566v5q0 23 -16 42t-47 19h-3q-30 0 -45 -18t-15 -44v-3q0 -27 15 -47t44 -20h3q32 0 48 20t16 46zM401 744h266v-358h-266v49q-59 -52 -175 -52h-15q-104 0 -154.5 51.5t-50.5 123.5v17q0 70 49.5 121t151.5 51h16q119 0 178 -44v41z" />
    <glyph glyph-name="caron.alt" 
d="M216 568l10 176h257l-25 -176h-242z" />
    <glyph glyph-name="plus.uc" horiz-adv-x="626" 
d="M615 265h-196v-176h-213v176h-195v174h195v175h213v-175h196v-174z" />
    <glyph glyph-name="minus.uc" horiz-adv-x="585" 
d="M11 440h563v-176h-563v176z" />
    <glyph glyph-name="multiply.uc" horiz-adv-x="571" 
d="M453 78l-165 149l-163 -149l-125 139l149 136l-147 133l115 139l165 -149l163 149l126 -139l-149 -137l146 -132z" />
    <glyph glyph-name="divide.uc" horiz-adv-x="589" 
d="M401 649v-175h-214v175h214zM11 439h567v-174h-567v174zM401 228v-174h-214v174h214z" />
    <glyph glyph-name="equal.uc" horiz-adv-x="589" 
d="M13 532h563v-163h-563v163zM13 335h563v-163h-563v163z" />
    <glyph glyph-name="less.uc" horiz-adv-x="547" 
d="M535 96l-524 154v193l524 153v-181l-321 -70l321 -68v-181z" />
    <glyph glyph-name="greater.uc" horiz-adv-x="527" 
d="M12 96v181l309 68l-309 70v181l504 -153v-193z" />
    <glyph glyph-name="questiondown.uc" horiz-adv-x="1008" 
d="M370 479h357v-50q0 -33 -3 -50.5t-16 -40.5t-44 -37.5t-82 -24.5l-133 -26q-42 -8 -59 -16.5t-17 -21.5v-1q0 -11 7 -16.5t33 -9.5t76 -4q51 0 83 6t46 17.5t18 21.5t5 26h365v-12q0 -25 -1.5 -42.5t-11.5 -46t-28 -48.5t-54 -43.5t-85.5 -38t-127 -24.5t-175.5 -10h-48
q-120 0 -208.5 13.5t-138.5 33.5t-79.5 51t-38 59.5t-8.5 64.5v9q0 67 42 119.5t143 73.5l135 27q27 6 37.5 15t10.5 25v1zM368 512v232h359v-232h-359z" />
    <glyph glyph-name="exclamdown.uc" horiz-adv-x="491" 
d="M493 0h-495l134 478h227zM425 744v-232h-359v232h359z" />
    <glyph glyph-name="hyphen.uc" horiz-adv-x="389" 
d="M21 447h347v-214h-347v214z" />
    <glyph glyph-name="endash.uc" horiz-adv-x="969" 
d="M21 421h927v-163h-927v163z" />
    <glyph glyph-name="emdash.uc" horiz-adv-x="1494" 
d="M21 421h1452v-163h-1452v163z" />
    <glyph glyph-name="guilsinglleft.uc" horiz-adv-x="373" 
d="M367 128h-250l-114 179l114 175h249l-109 -175z" />
    <glyph glyph-name="guilsinglright.uc" horiz-adv-x="373" 
d="M256 128h-250l110 179l-109 175h249l114 -175z" />
    <glyph glyph-name="guillemotleft.uc" horiz-adv-x="621" 
d="M238 307l110 -179h-231l-114 179l114 175h230zM512 307l103 -179h-231l-110 179l111 175h230z" />
    <glyph glyph-name="guillemotright.uc" horiz-adv-x="621" 
d="M109 307l-103 175h231l110 -175l-109 -179h-232zM505 128h-232l111 179l-110 175h231l113 -175z" />
    <glyph glyph-name="parenleft.uc" horiz-adv-x="403" 
d="M9 377q0 130 67.5 242t181.5 197h161q-142 -202 -142 -439q0 -133 38.5 -240.5t103.5 -217.5h-161q-249 203 -249 458z" />
    <glyph glyph-name="parenright.uc" horiz-adv-x="403" 
d="M394 377q0 -255 -249 -458h-161q65 110 103.5 217.5t38.5 240.5q0 237 -142 439h161q114 -85 181.5 -197t67.5 -242z" />
    <glyph glyph-name="bracketleft.uc" horiz-adv-x="414" 
d="M27 -81v898h377v-133h-121v-633h121v-132h-377z" />
    <glyph glyph-name="bracketright.uc" horiz-adv-x="414" 
d="M10 -81v132h121v633h-121v133h377v-898h-377z" />
    <glyph glyph-name="braceleft.uc" horiz-adv-x="441" 
d="M431 -81h-224q-175 0 -175 108q0 45 43.5 133.5t43.5 107.5q0 38 -41 38h-75v128h75q41 0 41 30q0 22 -43.5 107.5t-43.5 129.5q0 116 175 116h224v-133h-95q-50 0 -50 -34q0 -15 33 -81t33 -95q0 -42 -28.5 -66.5t-94.5 -36.5q67 -11 95 -32.5t28 -57.5
q0 -33 -33 -106.5t-33 -88.5q0 -35 50 -35h95v-132z" />
    <glyph glyph-name="braceright.uc" horiz-adv-x="441" 
d="M234 -81h-224v132h95q49 0 49 35q0 15 -32.5 88.5t-32.5 106.5q0 36 28 57.5t95 32.5q-67 12 -95 36.5t-28 66.5q0 29 32.5 95t32.5 81q0 34 -49 34h-95v133h224q174 0 174 -116q0 -44 -43 -129.5t-43 -107.5q0 -30 40 -30h76v-128h-76q-40 0 -40 -38q0 -19 43 -107.5
t43 -133.5q0 -108 -174 -108z" />
    <glyph glyph-name="slash.uc" horiz-adv-x="525" 
d="M546 816l-310 -897h-262l308 897h264z" />
    <glyph glyph-name="backslash.uc" horiz-adv-x="525" 
d="M551 -81h-262l-309 897h263z" />
    <glyph glyph-name="bar.uc" horiz-adv-x="344" 
d="M291 816v-897h-237v897h237z" />
    <glyph glyph-name="at.uc" horiz-adv-x="1336" 
d="M670 -98q-122 0 -221 14.5t-166.5 38t-117.5 59t-78.5 72t-45.5 83.5t-22 86.5t-5 86.5v12q0 46 4.5 83.5t20.5 84t43.5 82.5t77.5 72t118 60t168.5 38.5t226.5 14.5h16q99 0 182 -8.5t143.5 -22t109 -35.5t80.5 -44t55 -51.5t35 -54.5t19 -58t8.5 -56t1.5 -53v-11
q0 -46 -8 -86t-31.5 -81.5t-61 -71t-100.5 -48.5t-145 -19h-18q-179 0 -226 77q-95 -77 -239 -77h-13q-56 0 -99.5 11.5t-69.5 31t-44.5 45t-24 53t-8 55.5t3.5 53l10 68q27 187 242 187h14q154 0 239 -77l8 73h352l-46 -362q-4 -32 24 -32q48 0 80 54.5t32 153.5v2
q0 28 -0.5 44t-5.5 44t-13.5 44.5t-26 40t-42.5 38t-63.5 31t-87.5 25.5t-116.5 15t-149.5 6h-16q-98 0 -177.5 -10.5t-133.5 -28t-93.5 -44.5t-62.5 -55t-36.5 -64.5t-17.5 -67.5t-4 -70v-11q0 -36 3.5 -65.5t16.5 -66.5t35 -65.5t61.5 -57.5t93 -47.5t133.5 -30.5t179 -12
q126 0 223 9.5t159.5 27t90 29t61.5 29.5l46 -94q-28 -16 -55.5 -27.5t-93 -30t-176 -28.5t-255.5 -10zM718 327l4 35q6 41 -6.5 61.5t-47.5 20.5q-21 0 -34 -12t-17.5 -26t-8.5 -38l-7 -38q-14 -89 47 -89q20 0 34 8t21 22.5t10 26.5t5 29z" />
    <glyph glyph-name="grave.uc" 
d="M497 940l59 -164h-318l-95 164h354z" />
    <glyph glyph-name="dieresis.uc" 
d="M660 940v-164h-291v164h291zM329 940v-164h-290v164h290z" />
    <glyph glyph-name="macron.uc" 
d="M88 784v142h524v-142h-524z" />
    <glyph glyph-name="acute.uc" 
d="M144 776l58 164h354l-94 -164h-318z" />
    <glyph glyph-name="circumflex.uc" 
d="M520 940l171 -165h-288l-54 58l-55 -58h-285l169 165h342z" />
    <glyph glyph-name="caron.uc" 
d="M181 776l-172 164h288l54 -57l55 57h285l-168 -164h-342z" />
    <glyph glyph-name="breve.uc" 
d="M326 773q-62 0 -109 14t-72 33.5t-40.5 46.5t-19.5 48t-4 42v2h206q0 -8 3.5 -18t19.5 -21.5t41 -11.5h2q25 0 40 11.5t18.5 21.5t3.5 18h203v-2q0 -20 -5.5 -42t-22 -48t-42 -46.5t-70 -34t-101.5 -13.5h-51z" />
    <glyph glyph-name="dotaccent.uc" 
d="M532 951v-175h-364v175h364z" />
    <glyph glyph-name="ring.uc" 
d="M139 894q0 123 213 123t213 -123q0 -122 -213 -122t-213 122zM278 895q0 -43 74 -43t74 43q0 42 -74 42t-74 -42z" />
    <glyph glyph-name="tilde.uc" 
d="M487 775q-10 0 -20 0.5t-17 1t-17 2.5l-15 3t-17.5 4.5t-17 5t-21.5 6.5t-24 7q-46 15 -61 15t-15 -21v-24h-188v90q0 99 136 99h2q25 0 48.5 -3.5t41 -8t64.5 -18.5q42 -13 55 -13q14 0 14 16v27h191v-77q0 -112 -136 -112h-3z" />
    <glyph glyph-name="hungarumlaut.uc" 
d="M338 776l57 164h295l-62 -164h-290zM10 776l51 164h295l-57 -164h-289z" />
    <glyph glyph-name="emdash.altuc" horiz-adv-x="2946" 
d="M2925 419v-163h-2904v163h2904z" />
    <glyph glyph-name="f.short" horiz-adv-x="600" 
d="M587 744v-166h-75q-16 0 -21.5 -6.5t-5.5 -22.5v-11h102v-198h-102v-340h-365v340h-112v198h112v32q0 89 52 131.5t164 42.5h251z" />
    <glyph glyph-name="f_f.short" horiz-adv-x="1105" 
d="M485 0h-365v340h-112v198h112v32q0 89 52 131.5t164 42.5h255v-166h-79q-16 0 -21.5 -6.5t-5.5 -22.5v-11h140v32q0 89 52 131.5t164 42.5h251v-166h-75q-16 0 -21.5 -6.5t-5.5 -22.5v-11h102v-198h-102v-340h-365v340h-140v-340z" />
    <glyph glyph-name="j.short" horiz-adv-x="412" 
d="M388 744v-175h-364v175h364zM-22 -20h13q21 0 27 6.5t6 28.5v523h364v-562q0 -164 -131 -164h-279v168z" />
    </font>
</defs>
</svg>
