<?xml version="1.0" standalone="no"?>
<!DOCTYPE svg PUBLIC "-//W3C//DTD SVG 1.1//EN" "http://www.w3.org/Graphics/SVG/1.1/DTD/svg11.dtd" >
<svg xmlns="http://www.w3.org/2000/svg" xmlns:xlink="http://www.w3.org/1999/xlink" version="1.1">
<metadata>
Created by FontForge 20190801 at Thu May 24 12:15:41 2018
 By www-data
Copyright (c) 2018 by Jorge Cisterna. All rights reserved.
</metadata>
<defs>
<font id="RecoletaMedium" horiz-adv-x="600" >
  <font-face 
    font-family="RecoletaMedium"
    font-weight="500"
    font-stretch="normal"
    units-per-em="1000"
    panose-1="0 0 6 0 0 0 0 0 0 0"
    ascent="800"
    descent="-200"
    x-height="480"
    cap-height="710"
    bbox="-706 -311.8 1351 960"
    underline-thickness="50"
    underline-position="-100"
    unicode-range="U+0020-FB02"
  />
<missing-glyph horiz-adv-x="530" 
d="M50 730h430v-730h-430v730zM115 695l150 -287l150 287h-300zM243 365l-153 292v-584zM288 365l152 -292v584zM265 322l-150 -287h300z" />
    <glyph glyph-name="fi" unicode="fi" horiz-adv-x="643" 
d="M330 697q-48 0 -82.5 -46t-34.5 -119v-52h131q7 0 12 -5t5 -12v-16q0 -16 -17 -16h-131v-347q0 -22 24 -39.5t24 -26.5v-4q0 -14 -17 -14h-166q-18 0 -18 14v4q0 9 19.5 26.5t19.5 39.5v347h-77q-18 0 -18 16v16q0 7 5.5 12t12.5 5h77v41q0 100 69.5 157t179.5 57
q92 0 148 -42.5t56 -87.5q0 -20 -13 -32.5t-33 -12.5q-31 0 -52 21.5t-31.5 47t-34 47t-58.5 21.5zM573 84q0 -22 20.5 -39t20.5 -26v-4q0 -15 -22 -15h-155q-21 0 -21 15v4q0 9 18.5 26t18.5 39v262q0 23 -18.5 43t-18.5 26v3q0 8 18 18l103 50q17 7 26.5 1.5t9.5 -18.5
v-385z" />
    <glyph glyph-name="fl" unicode="fl" horiz-adv-x="643" 
d="M573 83q0 -21 20.5 -38.5t20.5 -26.5v-3q0 -15 -22 -15h-155q-21 0 -21 15v3q0 10 18.5 27t18.5 38v499q-10 11 -26.5 44.5t-38 52t-58.5 18.5q-48 1 -82.5 -45.5t-34.5 -119.5v-52h131q7 0 12 -5t5 -12v-16q0 -16 -17 -16h-131v-347q0 -22 24 -39.5t24 -26.5v-4
q0 -14 -17 -14h-166q-18 0 -18 14v4q0 9 19.5 26.5t19.5 39.5v347h-77q-18 0 -18 16v16q0 7 5.5 12t12.5 5h77v41q0 100 69.5 157t179.5 57q62 0 114 -22l75 36q17 8 26.5 2t9.5 -18v-650z" />
    <glyph glyph-name=".notdef" horiz-adv-x="530" 
d="M50 730h430v-730h-430v730zM115 695l150 -287l150 287h-300zM243 365l-153 292v-584zM288 365l152 -292v584zM265 322l-150 -287h300z" />
    <glyph glyph-name=".null" horiz-adv-x="0" 
 />
    <glyph glyph-name="nonmarkingreturn" horiz-adv-x="333" 
 />
    <glyph glyph-name="space" unicode=" " horiz-adv-x="215" 
 />
    <glyph glyph-name="exclam" unicode="!" horiz-adv-x="256" 
d="M102 205q-29 195 -36 473q0 17 13 29t31.5 15t37 0.5t31 -14.5t12.5 -29q-1 -83 -11.5 -227t-27.5 -247q-3 -15 -25 -15t-25 15zM129 -12q-34 0 -56 18.5t-22 52.5q0 35 22 53.5t56 18.5q33 0 55 -18.5t22 -53.5q0 -34 -22 -52.5t-55 -18.5z" />
    <glyph glyph-name="quotedbl" unicode="&#x22;" horiz-adv-x="398" 
d="M70 438q-25 118 -29 225q0 30 18 46t43 16q26 0 44 -16t18 -46q-1 -42 -12.5 -117t-19.5 -108q-7 -23 -32 -22.5t-30 22.5zM265 438q-25 118 -29 225q0 30 18 46t43 16q26 0 44 -16t18 -46q-1 -42 -12.5 -117t-19.5 -108q-7 -23 -32 -22.5t-30 22.5z" />
    <glyph glyph-name="numbersign" unicode="#" horiz-adv-x="683" 
d="M636 480q17 0 17 -13v-35q0 -13 -17 -13h-118l-35 -134h119q18 0 18 -12v-36q0 -12 -18 -12h-135l-56 -214q-3 -11 -20 -11h-44q-16 0 -11 20l55 205h-170l-56 -214q-3 -11 -19 -11h-45q-16 0 -11 20l55 205h-97q-18 0 -18 12v36q0 12 18 12h113l35 134h-115
q-17 0 -17 13v35q0 13 17 13h132l48 181q3 12 17 12h44q17 0 12 -21l-45 -172h170l48 181q3 12 16 12h45q18 0 11 -21l-45 -172h102zM407 285l35 134h-169l-36 -134h170z" />
    <glyph glyph-name="dollar" unicode="$" horiz-adv-x="556" 
d="M521 194q0 -76 -62 -133.5t-161 -64.5v-95q0 -18 -13 -18h-22q-13 0 -13 18v95q-98 6 -158 54t-60 94q0 29 15 44.5t38 15.5q26 0 47 -22t33.5 -50t35 -56.5t49.5 -38.5v259q-33 13 -44 17.5t-40 19t-41 23.5t-32.5 27t-29 36t-16 43t-7.5 54q0 80 58.5 133.5t157.5 58.5
v62q0 17 13 17h21q14 0 14 -17v-63q91 -7 146 -48.5t55 -89.5q0 -27 -14.5 -43.5t-40.5 -16.5q-24 0 -41.5 21.5t-26.5 48.5t-29.5 53t-48.5 34v-258q97 -38 126 -55q91 -56 91 -159zM162 559q0 -47 24.5 -77t69.5 -53v238q-43 -6 -68.5 -35.5t-25.5 -72.5zM298 33
q43 6 72 40.5t29 81.5q0 43 -26 70.5t-75 49.5v-242z" />
    <glyph glyph-name="percent" unicode="%" horiz-adv-x="886" 
d="M210 341q-76 0 -129.5 54t-53.5 135q0 84 50 137t130 53q75 0 128 -55.5t53 -136.5q0 -82 -52 -134.5t-126 -52.5zM230 0q-10 0 -13 6t2 14l375 679q6 11 16 11h43q9 0 12 -6t-1 -14l-373 -679q-7 -11 -20 -11h-41zM221 375q34 0 52 32t18 82q0 73 -28 134.5t-73 61.5
q-36 0 -54 -33t-18 -85q0 -75 28.5 -133.5t74.5 -58.5zM681 -10q-76 0 -129.5 54t-53.5 136q0 83 50 136t130 53q75 0 128 -55t53 -136q0 -83 -52.5 -135.5t-125.5 -52.5zM692 24q34 0 52 32t18 82q0 74 -28 135.5t-73 61.5q-36 0 -54 -33.5t-18 -84.5q0 -75 28.5 -134
t74.5 -59z" />
    <glyph glyph-name="ampersand" unicode="&#x26;" horiz-adv-x="726" 
d="M703 66q21 0 21 -16v-5q0 -18 -29 -36.5t-65 -18.5q-42 0 -73 16.5t-62 51.5q-90 -68 -213 -68q-119 0 -183.5 47t-64.5 141q0 116 167 204q-43 48 -65 86.5t-22 84.5q0 75 55 120.5t144 45.5q82 0 133 -41t51 -108q0 -108 -147 -176l174 -190q42 101 42 226q0 18 22 26
t43.5 0.5t21.5 -27.5q0 -167 -76 -283l20 -21q54 -59 81 -59h25zM301 680q-31 0 -49.5 -26.5t-18.5 -70.5q0 -40 18.5 -71.5t57.5 -72.5q74 49 74 133q0 49 -22.5 78.5t-59.5 29.5zM299 26q91 0 159 73l-217 239q-88 -63 -88 -171q0 -63 38 -102t108 -39z" />
    <glyph glyph-name="quotesingle" unicode="'" horiz-adv-x="203" 
d="M70 438q-25 118 -29 225q0 30 18 46t43 16q26 0 44 -16t18 -46q-1 -42 -12.5 -117t-19.5 -108q-7 -23 -32 -22.5t-30 22.5z" />
    <glyph glyph-name="parenleft" unicode="(" horiz-adv-x="267" 
d="M204 -100q-75 72 -121.5 182.5t-46.5 254.5t47 255t122 182q17 15 31.5 5.5t2.5 -30.5q-94 -143 -94 -412t94 -412q12 -21 -3 -30.5t-32 5.5z" />
    <glyph glyph-name="parenright" unicode=")" horiz-adv-x="267" 
d="M63 -100q-17 -15 -32 -5.5t-4 30.5q95 143 95 412t-95 412q-11 21 3.5 30.5t31.5 -5.5q76 -72 122.5 -182.5t46.5 -254.5q0 -143 -46.5 -253.5t-121.5 -183.5z" />
    <glyph glyph-name="asterisk" unicode="*" horiz-adv-x="392" 
d="M154 426q-14 -32 -46 -22q-25 8 -30 31q-4 18 13 32l81 75l-102 14q-33 2 -36 30q-3 26 18 39q17 10 36 -1l92 -49l-21 102q-6 23 5.5 36.5t34.5 14.5t34 -13t4 -38l-23 -102l91 49q30 17 47 -9q15 -24 0 -45q-9 -13 -28 -14l-100 -14l81 -77q24 -22 2 -46
q-20 -23 -44 -15q-15 6 -23 24l-42 95z" />
    <glyph glyph-name="plus" unicode="+" 
d="M275 64q-13 0 -13 19v158h-157q-17 0 -19 13l1 48q0 13 18 13h157v158q0 19 13 19h50q13 0 13 -19v-158l158 1q18 0 18 -13v-49q0 -13 -18 -13h-157v-158q0 -19 -14 -19h-50z" />
    <glyph glyph-name="comma" unicode="," horiz-adv-x="229" 
d="M73 -141q-13 -8 -23.5 3.5t0.5 22.5q49 48 56 88q3 17 -10 17q-24 0 -40.5 20t-16.5 51q0 35 20.5 57t53.5 22t55.5 -24.5t22.5 -65.5q0 -113 -118 -191z" />
    <glyph glyph-name="hyphen" unicode="-" horiz-adv-x="459" 
d="M70 293q-17 0 -17 18v27q0 17 17 17h319q17 0 17 -17v-27q0 -18 -17 -18h-319z" />
    <glyph glyph-name="period" unicode="." horiz-adv-x="239" 
d="M120 -10q-34 0 -56 18.5t-22 52.5q0 35 22 53.5t56 18.5q33 0 55 -18.5t22 -53.5q0 -34 -22 -52.5t-55 -18.5z" />
    <glyph glyph-name="slash" unicode="/" horiz-adv-x="379" 
d="M38 -99q-17 0 -12 20l253 863q3 12 19 12h42q17 0 12 -20l-250 -863q-3 -12 -20 -12h-44z" />
    <glyph glyph-name="zero" unicode="0" horiz-adv-x="669" 
d="M339 -10q-130 0 -214.5 100t-84.5 267q0 168 78 265.5t216 97.5q128 0 212 -102t84 -265q0 -167 -82 -265t-209 -98zM357 39q67 0 110.5 70.5t43.5 189.5q0 96 -24.5 180.5t-70 137t-101.5 52.5q-69 0 -112.5 -72t-43.5 -196q0 -151 56 -256.5t142 -105.5z" />
    <glyph glyph-name="one" unicode="1" horiz-adv-x="313" 
d="M75 0q-20 0 -20 14v3q0 9 12.5 18t25 23t12.5 32v471q0 21 -10.5 31t-22.5 11.5t-22.5 6t-10.5 15.5v4q0 12 23 23l122 54q26 10 41 3t15 -23q0 -9 -12 -29t-12 -48v-519q0 -15 8.5 -26.5t18 -18t18 -14t8.5 -14.5v-3q0 -14 -20 -14h-174z" />
    <glyph glyph-name="two" unicode="2" horiz-adv-x="587" 
d="M543 169q9 0 13.5 -5.5t2.5 -14.5l-29 -127q-7 -22 -25 -22h-450q-9 0 -15.5 5.5t-6.5 14.5v10q0 42 20 83.5t52.5 76.5t71.5 69.5t78 68t71.5 67t52.5 71t20 74.5q0 58 -33.5 94t-74.5 36q-35 0 -59.5 -18t-38 -44t-25 -52.5t-28 -44.5t-39.5 -18q-27 0 -44 15.5
t-17 42.5q0 62 70 115.5t175 53.5t169 -48.5t64 -141.5q0 -57 -36 -109t-89 -92t-107 -77t-98 -80t-54 -86h304q22 0 38.5 13t24 28.5t16 28.5t17.5 13h9z" />
    <glyph glyph-name="three" unicode="3" horiz-adv-x="567" 
d="M296 409q105 -1 169.5 -56.5t64.5 -144.5q0 -93 -71 -155.5t-192 -62.5q-113 0 -174 42t-61 90q0 28 14.5 44.5t39.5 16.5t44 -22.5t31.5 -49t41 -49t69.5 -22.5q62 0 100.5 39.5t38.5 104.5q0 81 -43 125.5t-111 44.5h-14q-19 0 -25.5 13.5t5.5 28.5l167 211h-322
q-25 0 -25 24v57q0 22 24 22h436q22 0 22 -19v-11q0 -16 -18 -37z" />
    <glyph glyph-name="four" unicode="4" horiz-adv-x="572" 
d="M533 224q17 0 17 -15v-25q0 -15 -17 -15h-74v-84q0 -18 10.5 -30.5t21.5 -20.5t11 -17v-3q0 -14 -20 -14h-164q-20 0 -20 14v3q0 9 10 17t20 20.5t10 30.5v84h-300q-33 0 -33 27v4q0 24 12 41l297 436q22 33 55 33h70q20 0 20 -21v-465h74zM72 224h266l1 389z" />
    <glyph glyph-name="five" unicode="5" horiz-adv-x="569" 
d="M300 446q98 0 167 -60t69 -156q0 -105 -72.5 -172.5t-190.5 -67.5q-115 0 -178.5 41t-63.5 93q0 29 17 43t42 14q19 0 33 -14t25 -34t25 -40.5t39.5 -34.5t61.5 -14q63 0 103 43.5t40 118.5q0 89 -40 138t-112 49q-63 0 -134 -49q-20 -16 -43.5 -5t-20.5 34l41 321
q1 16 20 16h369q17 0 17 -18v-60q0 -18 -17 -18h-332l-43 -221q69 53 178 53z" />
    <glyph glyph-name="six" unicode="6" horiz-adv-x="598" 
d="M327 458q98 0 163.5 -64t65.5 -180q0 -97 -71.5 -160.5t-176.5 -63.5q-116 0 -192 98.5t-76 255.5q0 103 30 186.5t95.5 136.5t156.5 53q106 0 168 -51t62 -108q0 -29 -16.5 -43.5t-41.5 -14.5q-26 0 -43.5 17t-28.5 41.5t-22.5 49t-33 42t-52.5 17.5q-67 0 -108.5 -76
t-45.5 -206q64 70 167 70zM322 40q53 0 85 40.5t32 108.5q0 93 -40.5 156t-105.5 63q-52 0 -89 -36t-42 -83q10 -115 52.5 -182t107.5 -67z" />
    <glyph glyph-name="seven" unicode="7" horiz-adv-x="522" 
d="M495 710q21 0 21 -18v-11q0 -13 -12 -42l-252 -618q-8 -21 -31 -21h-72q-13 0 -19 10t-1 20l303 587h-301q-17 0 -30.5 -14t-20.5 -31t-17.5 -31t-21.5 -14h-11q-21 0 -18 23l21 134q5 26 29 26h433z" />
    <glyph glyph-name="eight" unicode="8" horiz-adv-x="601" 
d="M406 380q76 -34 118 -77t42 -115q0 -97 -74.5 -147.5t-192.5 -50.5q-126 0 -195 53t-69 125q0 121 172 191q-67 33 -104 73.5t-37 102.5q0 84 65 134t176 50q108 0 167 -50.5t59 -124.5q0 -105 -127 -164zM301 672q-54 0 -88.5 -30t-34.5 -76q0 -56 39 -89.5t114 -65.5
q41 24 71.5 63t30.5 87q0 45 -36.5 78t-95.5 33zM312 40q63 0 102.5 31.5t39.5 82.5q0 24 -6.5 43.5t-23.5 37.5t-29 29t-42.5 26.5t-42.5 21t-49 22.5q-49 -26 -84 -70.5t-35 -95.5q0 -58 47 -93t123 -35z" />
    <glyph glyph-name="nine" unicode="9" horiz-adv-x="593" 
d="M286 720q122 0 194.5 -97t72.5 -257q0 -173 -71 -274.5t-201 -101.5q-102 0 -165.5 48.5t-63.5 110.5q0 26 16.5 41.5t42.5 15.5q23 0 39.5 -17t27 -41.5t22.5 -49t34.5 -41.5t54.5 -17q72 0 107.5 79t37.5 213q-53 -72 -166 -72q-99 0 -164 62t-65 176q0 95 69 158.5
t178 63.5zM302 310q58 0 92.5 36.5t34.5 93.5q-13 102 -54 166t-109 64q-51 0 -81 -39t-30 -105q0 -88 41.5 -152t105.5 -64z" />
    <glyph glyph-name="colon" unicode=":" horiz-adv-x="254" 
d="M127 327q-34 0 -55.5 18.5t-21.5 52.5q0 35 21.5 53.5t55.5 18.5q33 0 55 -19t22 -53t-22 -52.5t-55 -18.5zM127 -10q-34 0 -55.5 18.5t-21.5 52.5q0 35 21.5 53.5t55.5 18.5q33 0 55 -18.5t22 -53.5q0 -34 -22 -52.5t-55 -18.5z" />
    <glyph glyph-name="semicolon" unicode=";" horiz-adv-x="268" 
d="M136 327q-33 0 -55 18.5t-22 52.5t22 53t55 19q34 0 56 -18.5t22 -53.5q0 -34 -22 -52.5t-56 -18.5zM93 -141q-13 -8 -23.5 3.5t0.5 22.5q49 48 57 88q2 17 -11 17q-24 0 -40.5 20t-16.5 51q0 35 20.5 57t53.5 22t55.5 -24.5t22.5 -65.5q0 -113 -118 -191z" />
    <glyph glyph-name="less" unicode="&#x3c;" 
d="M449 146q17 -8 17 -20v-66q0 -8 -6 -11.5t-18 1.5l-309 158q-20 9 -20 27v72q0 18 21 27l308 152q10 5 16 0t6 -12v-64q0 -14 -17 -20l-264 -120z" />
    <glyph glyph-name="equal" unicode="=" 
d="M110 329q-18 0 -18 13v50q0 14 18 14h380q17 0 17 -14v-50q0 -13 -17 -13h-380zM110 145q-18 0 -18 13v50q0 13 18 13h380q17 0 17 -13v-50q0 -13 -17 -13h-380z" />
    <glyph glyph-name="greater" unicode="&#x3e;" 
d="M465 334q22 -9 22 -27v-73q0 -18 -21 -27l-309 -158q-11 -5 -17.5 -1.5t-6.5 11.5v66q0 12 18 20l270 124l-266 120q-18 7 -18 20v65q0 7 6 12t16 0z" />
    <glyph glyph-name="question" unicode="?" horiz-adv-x="530" 
d="M197 207q-7 43 9.5 80t45 64t57.5 54t50.5 63.5t21.5 78.5q0 57 -33 90t-77 33q-35 0 -59 -18t-37 -44t-23.5 -52.5t-26.5 -44.5t-39 -18q-27 0 -44 15.5t-17 42.5q0 59 70.5 114t170.5 55q103 0 168.5 -47t65.5 -139q0 -48 -22.5 -87t-54 -65t-63.5 -50.5t-54.5 -56
t-22.5 -68.5q0 -14 -19.5 -20t-41 -0.5t-25.5 20.5zM241 -12q-32 0 -53.5 18t-21.5 50q0 34 21 52t54 18t54 -18t21 -52q0 -32 -21.5 -50t-53.5 -18z" />
    <glyph glyph-name="at" unicode="@" horiz-adv-x="905" 
d="M495 736q174 0 284.5 -99.5t110.5 -248.5q0 -105 -56 -181t-156 -76q-41 0 -76.5 18t-51.5 49q-51 -68 -145 -68q-71 0 -122.5 47t-51.5 123q0 109 68 176t174 67q78 0 124 -49l5 26q1 14 16 14h67q19 0 14 -17l-57 -252q-8 -36 7.5 -58t46.5 -22q54 0 86.5 58.5
t32.5 141.5q0 134 -92.5 215.5t-241.5 81.5q-153 0 -264.5 -111t-111.5 -266q0 -133 85 -219.5t225 -86.5q89 0 175 34q12 5 16.5 -1t0.5 -17l-7 -17q-4 -13 -21 -20q-70 -32 -175 -32q-164 0 -268.5 104t-104.5 255q0 83 33 160.5t91.5 137.5t147 96.5t192.5 36.5zM429 167
q40 0 73 33t43 80l27 116q7 50 -14.5 79.5t-60.5 29.5q-59 0 -102 -65t-45 -154q-1 -60 20 -89.5t59 -29.5z" />
    <glyph glyph-name="A" unicode="A" horiz-adv-x="681" 
d="M633 83q9 -22 30 -39t21 -27v-3q0 -14 -21 -14h-178q-21 0 -21 14v3q0 8 12.5 17t22 20.5t2.5 28.5l-39 99h-302l-37 -99q-7 -17 2.5 -28.5t22 -20.5t12.5 -17v-3q0 -14 -22 -14h-113q-21 0 -21 14v3q0 10 21 26.5t30 39.5l210 539q7 19 -13 42t-20 29v3q0 14 17 14h79
q39 0 54 -38zM180 236h261l-134 342z" />
    <glyph glyph-name="B" unicode="B" horiz-adv-x="676" 
d="M450 382q94 -13 145.5 -61.5t51.5 -121.5q0 -90 -79.5 -144.5t-209.5 -54.5h-283q-21 0 -21 14v4q0 8 18.5 25.5t18.5 39.5v544q0 22 -18.5 39.5t-18.5 26.5v3q0 14 21 14h243q123 0 192 -49.5t69 -128.5q0 -57 -34.5 -96.5t-94.5 -53.5zM212 619v-175q0 -19 12 -31
t32 -12h90q56 0 90.5 31.5t34.5 80.5q0 69 -42 107.5t-115 38.5h-66q-36 0 -36 -40zM348 51q175 0 175 129q0 70 -57 120.5t-157 50.5h-97v-240q0 -26 15 -43t39 -17h82z" />
    <glyph glyph-name="C" unicode="C" horiz-adv-x="673" 
d="M366 -10q-134 0 -236.5 114.5t-102.5 258.5q0 156 93 256t239 100q113 0 196 -60.5t83 -126.5q0 -25 -15 -40t-42 -15q-25 0 -45 19.5t-36.5 47.5t-36 56.5t-53 48t-78.5 19.5q-77 0 -131.5 -65.5t-54.5 -169.5q0 -145 76 -240.5t175 -95.5q74 0 127 44t81 102
q7 10 18 12.5t19 -5t6 -21.5q-14 -101 -87.5 -170t-194.5 -69z" />
    <glyph glyph-name="D" unicode="D" horiz-adv-x="750" 
d="M75 0q-22 0 -22 14v3q0 9 19 26.5t19 39.5v544q0 22 -19 39.5t-19 26.5v3q0 14 22 14h220q184 0 302.5 -100.5t118.5 -251.5q0 -163 -105.5 -260.5t-270.5 -97.5h-265zM270 51h63q114 0 186.5 71t72.5 191q0 149 -92 247.5t-228 98.5h-28q-34 0 -34 -37v-500
q0 -34 16 -52.5t44 -18.5z" />
    <glyph glyph-name="E" unicode="E" horiz-adv-x="607" 
d="M75 0q-22 0 -22 14v3q0 9 19 26.5t19 40.5v542q0 23 -19 41t-19 26v3q0 14 20 14h435q24 0 28 -25l24 -108q5 -23 -16 -23h-5q-13 0 -28.5 16.5t-28 36.5t-31 36.5t-38.5 16.5h-168q-34 0 -34 -39v-233h154q15 0 26 10.5t16.5 22.5t13 22.5t14.5 10.5h6q15 0 15 -19v-142
q0 -19 -15 -19h-6q-7 0 -14.5 10t-13 21.5t-16.5 21.5t-26 10h-154l-1 -234q0 -22 11.5 -37.5t33.5 -15.5h189q20 0 38 17t29 38t26 38t29 17h7q8 0 12.5 -7t2.5 -16l-23 -111q-6 -26 -29 -26h-461z" />
    <glyph glyph-name="F" unicode="F" horiz-adv-x="577" 
d="M75 0q-22 0 -22 14v3q0 9 19 26.5t19 39.5v544q0 22 -19 39.5t-19 26.5v3q0 14 20 14h437q23 0 28 -26l24 -108q5 -23 -17 -23h-4q-16 0 -36 26.5t-43 53t-48 26.5h-167q-34 0 -34 -37v-264h157q21 0 41 33t30 33h7q15 0 15 -19v-142q0 -19 -15 -19h-7q-10 0 -30 31.5
t-41 31.5h-157v-224q0 -22 20.5 -39.5t20.5 -26.5v-3q0 -14 -22 -14h-157z" />
    <glyph glyph-name="G" unicode="G" horiz-adv-x="721" 
d="M385 -10q-145 0 -248.5 108t-103.5 255q0 164 96.5 265t239.5 101q120 0 201 -58.5t81 -125.5q0 -25 -15 -40.5t-40 -15.5t-46.5 19.5t-39.5 47.5t-39 55.5t-55.5 47t-78.5 19.5q-79 0 -132 -68.5t-53 -171.5q0 -151 78 -254.5t184 -103.5q75 0 123 29v164q0 14 -10 24.5
t-22 15.5t-22 11.5t-10 13.5v4q0 16 23 16l188 -1q21 0 21 -15v-4q0 -8 -13.5 -16t-27.5 -19.5t-14 -30.5v-142q0 -31 -31 -57q-40 -32 -102 -52.5t-132 -20.5z" />
    <glyph glyph-name="H" unicode="H" horiz-adv-x="776" 
d="M75 0q-21 0 -21 14v3q0 9 18.5 26.5t18.5 39.5v544q0 22 -18.5 39.5t-18.5 26.5v3q0 14 21 14h156q21 0 21 -14v-3q0 -9 -19.5 -26.5t-19.5 -39.5l-1 -239h349v239q0 22 -18.5 39.5t-18.5 26.5v3q0 14 21 14h156q22 0 22 -14v-3q0 -9 -20.5 -26.5t-20.5 -39.5v-544
q0 -22 20.5 -39.5t20.5 -26.5v-3q0 -14 -22 -14h-156q-21 0 -21 14v3q0 9 18.5 26.5t18.5 39.5v250h-348l-1 -250q0 -22 20 -39.5t20 -26.5v-3q0 -14 -21 -14h-156z" />
    <glyph glyph-name="I" unicode="I" horiz-adv-x="305" 
d="M54 14v3q0 8 18.5 25.5t18.5 39.5v545q0 22 -18.5 39.5t-18.5 26.5v3q0 14 21 14h156q21 0 21 -14v-3q0 -9 -20 -26.5t-20 -39.5v-545q0 -22 20 -39.5t20 -25.5v-3q0 -14 -21 -14h-156q-21 0 -21 14z" />
    <glyph glyph-name="J" unicode="J" horiz-adv-x="535" 
d="M333 627q0 22 -19 39.5t-19 26.5v3q0 14 22 14h157q21 0 21 -14v-3q0 -9 -20 -26.5t-20 -39.5l-1 -351q-1 -284 -225 -286q-59 0 -104 16.5t-69 43.5t-35.5 54.5t-11.5 53.5q0 27 15.5 43.5t40.5 16.5q27 0 43 -18t24 -44t17 -52.5t30.5 -44.5t57.5 -18q43 0 69.5 45
t26.5 125v416z" />
    <glyph glyph-name="K" unicode="K" horiz-adv-x="693" 
d="M657 84q12 -20 26.5 -33t21 -19t6.5 -15v-3q0 -14 -20 -14h-177q-20 0 -20 14v3q0 7 17.5 24.5t7.5 35.5l-182 305l-125 -125v-173q0 -22 20.5 -40t20.5 -27v-3q0 -14 -22 -14h-156q-21 0 -21 14v3q0 9 18.5 27t18.5 40v543q0 22 -18.5 39.5t-18.5 26.5v3q0 14 21 14h156
q21 0 21 -14v-3q0 -9 -20 -26.5t-20 -39.5v-294l291 292q15 20 12.5 28t-12.5 20.5t-10 19.5v3q0 14 22 14h124q21 0 21 -14v-3q0 -9 -11.5 -17.5t-32.5 -22t-35 -28.5l-161 -160z" />
    <glyph glyph-name="L" unicode="L" horiz-adv-x="586" 
d="M75 0q-21 0 -21 14v3q0 9 18.5 26.5t18.5 39.5v544q0 22 -18.5 39.5t-18.5 26.5v3q0 14 21 14h157q22 0 22 -14v-3q0 -9 -20.5 -26.5t-20.5 -39.5v-529q0 -21 9.5 -34t27.5 -13h183q23 0 41.5 18.5t28.5 41.5t23 41.5t26 18.5h10q19 0 14 -20l-25 -125q-6 -26 -29 -26
h-447z" />
    <glyph glyph-name="M" unicode="M" horiz-adv-x="897" 
d="M840 85q4 -22 22.5 -40t18.5 -28v-3q0 -14 -22 -14h-151q-22 0 -22 14v3q0 8 19.5 26.5t14.5 41.5l-79 449l-185 -509q-9 -24 -29 -24q-22 0 -32 23l-194 524l-75 -463q-4 -23 16.5 -41.5t20.5 -26.5v-3q0 -14 -21 -14h-102q-21 0 -21 14v3q0 9 18 27.5t22 40.5l90 540
q3 22 -16 40t-19 27v3q0 15 19 15h88q33 0 44 -29l179 -518l180 518q11 29 41 29h93q18 0 18 -14v-3q0 -9 -11 -18.5t-19.5 -22.5t-5.5 -33z" />
    <glyph glyph-name="N" unicode="N" horiz-adv-x="753" 
d="M685 710q22 0 22 -15v-3q0 -8 -21 -25.5t-21 -39.5v-593q0 -34 -32 -34h-36q-17 0 -37 28l-405 550v-493q0 -22 22 -40.5t22 -27.5v-3q0 -14 -22 -14h-103q-22 0 -22 14v3q0 9 19.5 27.5t19.5 40.5v541q0 22 -19.5 39t-19.5 26v4q0 15 22 15h99q25 0 42 -24l386 -537v478
q0 22 -21 39.5t-21 25.5v3q0 15 22 15h104z" />
    <glyph glyph-name="O" unicode="O" horiz-adv-x="768" 
d="M390 -10q-155 0 -255 107.5t-100 257.5q0 159 98 262t252 103q153 0 250.5 -108.5t97.5 -260.5q0 -153 -99 -257t-244 -104zM422 44q84 0 138 64t54 155q0 170 -76 286.5t-195 116.5q-85 0 -137 -61.5t-52 -159.5q0 -169 75 -285t193 -116z" />
    <glyph glyph-name="P" unicode="P" horiz-adv-x="619" 
d="M75 0q-22 0 -22 15v3q0 8 19 25.5t19 39.5v544q0 21 -19 39t-19 26v4q0 14 22 14h207q140 0 228 -56.5t88 -174.5q0 -114 -77.5 -178.5t-212.5 -64.5h-96v-153q0 -22 20.5 -39.5t20.5 -25.5v-3q0 -15 -21 -15h-157zM251 286h57q77 0 121.5 45t44.5 119q0 100 -56.5 155
t-135.5 55h-41q-29 0 -29 -38v-296q0 -40 39 -40z" />
    <glyph glyph-name="Q" unicode="Q" horiz-adv-x="767" 
d="M750 -55q7 2 12.5 -3.5t-0.5 -13.5q-11 -37 -59 -63t-109 -26q-47 0 -94 18.5t-79.5 41t-78.5 41t-91 18.5q-59 0 -125 -28q-15 -4 -20 10.5t6 27.5q45 49 112 62q-87 46 -138 133.5t-51 191.5q0 159 98 262t252 103q153 0 250.5 -108.5t97.5 -260.5q0 -147 -91.5 -249.5
t-229.5 -110.5q5 -3 29 -16.5t32 -17.5t30 -14t36 -13.5t35.5 -7t43.5 -3.5q72 0 132 26zM343 666q-85 0 -137 -61.5t-52 -159.5q0 -169 75 -285t193 -116q84 0 138 64t54 155q0 170 -76 286.5t-195 116.5z" />
    <glyph glyph-name="R" unicode="R" horiz-adv-x="666" 
d="M596 83q12 -18 29.5 -30.5t27.5 -19.5t10 -16v-3q0 -14 -21 -14h-174q-21 0 -21 14v3q0 8 11 18t15.5 18t-5.5 30l-127 190h-9l-119 -2v-188q0 -22 20.5 -39.5t20.5 -26.5v-3q0 -14 -22 -14h-157q-21 0 -21 14v3q0 9 18.5 26.5t18.5 39.5v544q0 22 -18.5 39.5t-18.5 26.5
v3q0 14 21 14h226q137 0 219 -56.5t83 -165.5q0 -64 -38.5 -116.5t-110.5 -78.5zM318 323q73 0 117 39t44 111q0 88 -54.5 137t-131.5 49h-50q-30 0 -30 -40v-239q0 -57 49 -57h56z" />
    <glyph glyph-name="S" unicode="S" horiz-adv-x="614" 
d="M320 -10q-135 0 -212 57.5t-77 120.5q0 22 13 36.5t36 13.5q21 -1 37 -14.5t25.5 -33.5t24 -43t32 -43t50 -33t76.5 -13q61 0 99 33t38 87q0 46 -23 76t-59.5 44t-81 23.5t-89 22t-81 32.5t-59.5 61t-23 102q0 87 69 143.5t189 56.5t194.5 -52.5t73.5 -115.5
q0 -51 -52 -51q-22 0 -37.5 12.5t-23.5 31.5t-20.5 41.5t-27 41.5t-43 31.5t-67.5 12.5q-63 0 -98 -34t-35 -85q0 -44 23 -72.5t59.5 -42.5t81 -24.5t89 -24t81 -34.5t59.5 -62t23 -101q0 -92 -77 -146.5t-187 -54.5z" />
    <glyph glyph-name="T" unicode="T" horiz-adv-x="619" 
d="M229 0q-21 0 -21 14v3q0 9 19.5 26.5t19.5 39.5v573h-109q-24 0 -41.5 -28t-30.5 -56t-27 -28h-12q-20 0 -17 23l18 118q3 25 28 25h502q25 0 29 -25l22 -119q2 -10 -3 -16t-14 -6h-12q-11 0 -23 17.5t-21 38.5t-25 38.5t-35 17.5h-109v-573q0 -22 20 -39.5t20 -26.5v-3
q0 -14 -22 -14h-156z" />
    <glyph glyph-name="U" unicode="U" horiz-adv-x="720" 
d="M369 -10q-130 0 -210 76t-80 207v354q0 22 -19 39.5t-19 25.5v4q0 14 22 14h157q21 0 21 -14v-4q0 -8 -20 -25.5t-20 -39.5v-354q0 -107 52 -168t141 -61q75 0 128.5 58.5t53.5 170.5v354q0 22 -19.5 39.5t-19.5 25.5v4q0 14 22 14h101q22 0 22 -14v-4q0 -8 -21 -25.5
t-21 -39.5v-355q0 -130 -74.5 -206t-196.5 -76z" />
    <glyph glyph-name="V" unicode="V" horiz-adv-x="709" 
d="M688 710q21 0 21 -14v-3q0 -9 -20.5 -25.5t-30.5 -40.5l-249 -593q-15 -34 -48 -34q-28 0 -43 32l-273 594q-10 23 -30 40t-20 27v3q0 14 22 14h183q22 0 22 -14v-3q0 -7 -8.5 -14.5t-17 -13t-14 -16t0.5 -23.5l209 -494l197 495q5 13 -0.5 23.5t-15 16t-18 12.5t-8.5 14
v3q0 14 21 14h120z" />
    <glyph glyph-name="W" unicode="W" horiz-adv-x="994" 
d="M969 710q20 0 20 -14v-3q0 -10 -22 -26t-30 -40l-195 -593q-11 -34 -48 -34q-33 0 -45 32l-136 402l-140 -400q-11 -34 -43 -34t-45 32l-237 594q-8 19 -22.5 31.5t-24 19.5t-9.5 17v2q0 14 20 14h176q21 0 21 -14v-3q0 -9 -12 -17.5t-20.5 -20t-1.5 -29.5l176 -476
l131 375l-34 102q-7 21 -31 39t-24 28v2q0 14 19 14h176q19 0 19 -14v-2q0 -8 -12.5 -16t-22.5 -19.5t-4 -31.5l151 -476l149 476q7 22 -14.5 39.5t-21.5 25.5v3q0 15 20 15h117z" />
    <glyph glyph-name="X" unicode="X" horiz-adv-x="684" 
d="M621 83q12 -16 28.5 -28.5t25.5 -20.5t9 -17v-3q0 -14 -21 -14h-185q-21 0 -21 14v3q0 8 12 19t17.5 19.5t-4.5 27.5l-170 228l-164 -228q-13 -20 2.5 -40t15.5 -26v-3q0 -14 -22 -14h-125q-21 0 -21 14v3q0 9 11.5 17t29.5 20.5t30 28.5l208 275l-201 269
q-12 17 -29 29.5t-26 20t-9 16.5v3q0 14 21 14h181q21 0 21 -14v-3q0 -8 -11.5 -19.5t-16.5 -19.5t5 -27l162 -216l153 216q10 19 4 27.5t-18.5 19.5t-12.5 19v3q0 14 21 14h134q21 0 21 -14v-3q0 -9 -12 -17t-31 -20t-31 -29l-192 -263z" />
    <glyph glyph-name="Y" unicode="Y" horiz-adv-x="672" 
d="M643 710q21 0 21 -14v-3q0 -11 -22 -27t-35 -39l-202 -339v-205q0 -22 20 -39.5t20 -26.5v-3q0 -14 -21 -14h-157q-21 0 -21 14v3q0 9 18.5 26.5t18.5 39.5v196l-222 348q-12 20 -36 37.5t-24 28.5v3q0 14 22 14h184q22 0 22 -14v-3q0 -8 -13.5 -18.5t-21.5 -19t0 -28.5
l174 -299l177 299q8 21 0 29.5t-22.5 18.5t-14.5 18v3q0 14 20 14h115z" />
    <glyph glyph-name="Z" unicode="Z" horiz-adv-x="613" 
d="M585 166q24 0 18 -22l-29 -122q-7 -22 -24 -22h-508q-9 0 -15.5 6t-6.5 14v8q0 9 16 32l400 600h-275q-16 0 -32 -17t-26.5 -38t-25 -38t-28.5 -17h-5q-25 0 -19 28l27 107q6 25 29 25h476q8 0 14 -6t6 -14v-10q0 -10 -18 -37l-397 -593h293q22 0 41.5 18t31.5 40
t26.5 40t27.5 18h3z" />
    <glyph glyph-name="bracketleft" unicode="[" horiz-adv-x="300" 
d="M98 -105q-21 0 -21 18v848q0 18 21 18h170q15 0 15 -15v-25q0 -15 -15 -15h-88v-774h88q15 0 15 -15v-25q0 -15 -15 -15h-170z" />
    <glyph glyph-name="backslash" unicode="\" horiz-adv-x="368" 
d="M292 -99q-16 0 -21 12l-244 863q-7 20 11 20h37q17 0 20 -12l246 -863q7 -20 -13 -20h-36z" />
    <glyph glyph-name="bracketright" unicode="]" horiz-adv-x="300" 
d="M32 -105q-15 0 -15 15v25q0 15 15 15h88v774h-88q-15 0 -15 15v25q0 15 15 15h170q21 0 21 -18v-848q0 -18 -21 -18h-170z" />
    <glyph glyph-name="asciicircum" unicode="^" 
d="M461 597q10 -12 8 -25.5t-12.5 -16.5t-24.5 6l-139 119l-127 -119q-8 -8 -19.5 -4.5t-15 14.5t6.5 26l110 149q11 16 36 16h24q24 0 36 -15z" />
    <glyph glyph-name="underscore" unicode="_" horiz-adv-x="474" 
d="M46 -62q-16 0 -16 18v26q0 18 16 18h382q16 0 16 -18v-26q0 -18 -16 -18h-382z" />
    <glyph glyph-name="grave" unicode="`" 
d="M337 549l-198 76q-31 9 -17 39l22 44q15 30 44 9l174 -129q16 -13 6 -30q-9 -14 -31 -9z" />
    <glyph glyph-name="a" unicode="a" horiz-adv-x="521" 
d="M465 90q2 -22 11.5 -34.5t19 -15.5t17 -8t7.5 -13q0 -25 -81 -25q-40 0 -58.5 12.5t-21.5 47.5q-40 -64 -139 -64q-84 0 -135.5 39.5t-51.5 111.5q-1 71 51 110.5t131 39.5q72 0 116 -34l-2 20q-9 92 -32 134t-73 42q-31 0 -51.5 -19t-28 -41.5t-21.5 -41.5t-35 -19
q-22 0 -35.5 12.5t-13.5 33.5q0 48 52.5 80t132.5 32q94 0 152 -55.5t69 -152.5zM253 28q41 0 66.5 30t23.5 71l-3 31q-3 43 -29 68t-66 25q-42 0 -68 -26.5t-26 -71.5q0 -53 28.5 -90t73.5 -37z" />
    <glyph glyph-name="b" unicode="b" horiz-adv-x="577" 
d="M316 490q95 0 163.5 -66.5t68.5 -175.5q0 -112 -67.5 -185t-163.5 -73q-88 0 -142 63l1 -36q0 -19 -20 -19l-108 2q-18 0 -18 14v3q0 8 19 26.5t19 40.5v525q0 18 -10.5 30.5t-21.5 20.5t-11 17v3q0 11 20 20l103 49q16 8 26 3.5t10 -20.5v-295q48 53 132 53zM303 28
q60 0 93.5 48t33.5 135q0 108 -39.5 174.5t-103.5 66.5q-42 0 -72.5 -32.5t-30.5 -80.5v-169q0 -55 36.5 -98.5t82.5 -43.5z" />
    <glyph glyph-name="c" unicode="c" horiz-adv-x="504" 
d="M279 -10q-108 0 -182.5 73.5t-74.5 178.5q0 111 73 179t179 69q82 1 141.5 -39.5t59.5 -92.5q0 -19 -12.5 -31.5t-38.5 -11.5q-24 1 -43 23t-31 47t-36.5 46t-58.5 21q-51 0 -83 -44t-32 -110q0 -102 49 -163.5t129 -61.5q87 0 129 82q8 12 21 9t11 -18
q-8 -64 -60.5 -110t-139.5 -46z" />
    <glyph glyph-name="d" unicode="d" horiz-adv-x="575" 
d="M509 83q0 -22 19 -40t19 -26v-3q0 -14 -17 -14h-104q-18 0 -20 19l-3 35q-50 -64 -140 -64q-96 0 -164.5 69t-68.5 182q0 109 67.5 179t167.5 70q78 0 131 -51v188q0 19 -11.5 31t-23 19.5t-11.5 16.5v2q0 13 18 20l106 34q35 12 35 -18v-649zM290 28q41 0 73.5 34
t32.5 95v160q0 50 -38 92.5t-89 42.5q-56 0 -90 -45.5t-35 -124.5q-2 -105 38.5 -179t107.5 -75z" />
    <glyph glyph-name="e" unicode="e" horiz-adv-x="493" 
d="M438 147q8 11 20.5 8t11.5 -18q-8 -53 -62 -100t-141 -47q-102 0 -169.5 70t-67.5 184q0 106 69.5 176t169.5 70q90 0 138.5 -44.5t48.5 -102.5q0 -52 -51 -70l-242 -89q19 -52 57 -81t90 -29q45 0 78.5 20.5t49.5 52.5zM249 452q-47 0 -75 -45t-28 -118q0 -34 6 -64
l166 72q26 12 26 42q0 36 -27.5 74.5t-67.5 38.5z" />
    <glyph glyph-name="f" unicode="f" horiz-adv-x="357" 
d="M277 735q57 0 99 -32t42 -76q0 -16 -12.5 -29.5t-33.5 -13.5q-33 0 -48 17.5t-16 39t-13 39.5t-40 18q-48 1 -57 -67t14 -151h132q7 0 12 -5t5 -12v-16q0 -16 -17 -16h-128v-347q0 -22 24 -39.5t24 -26.5v-4q0 -14 -17 -14h-169q-18 0 -18 14v4q0 9 19.5 26.5t19.5 39.5
v347h-77q-18 0 -18 16v16q0 7 5.5 12t12.5 5h77v75q0 80 46 130t132 50z" />
    <glyph glyph-name="g" unicode="g" horiz-adv-x="539" 
d="M464 480q21 0 32.5 -4t13 -10t-2.5 -14q-5 -12 -16.5 -17t-33 -8t-28.5 -5q28 -25 45.5 -61t17.5 -72q0 -59 -31 -105.5t-85 -71.5q124 -29 124 -120q0 -66 -68 -105.5t-173 -39.5q-107 0 -169 43.5t-62 101.5q0 20 12.5 33.5t35.5 13.5q20 0 33.5 -16t23.5 -38.5
t23.5 -45.5t40.5 -39t66 -16q54 0 86.5 28.5t32.5 74.5q0 43 -23.5 71t-64.5 32q-24 -2 -37 -2q-95 0 -160 56.5t-65 139.5q0 91 64 148.5t166 57.5q27 0 83 -5t119 -5zM148 335q0 -85 38 -146.5t90 -61.5q46 0 73 33t27 85q0 85 -37.5 146t-95.5 61q-44 0 -69.5 -32.5
t-25.5 -84.5z" />
    <glyph glyph-name="h" unicode="h" horiz-adv-x="581" 
d="M524 85q2 -22 19 -39.5t17 -27.5v-4q0 -14 -21 -14h-147q-21 0 -21 14v4q0 9 18.5 26.5t17.5 39.5l-10 198q-7 160 -105 160q-47 0 -76 -34.5t-29 -89.5v-235q0 -21 20.5 -38.5t20.5 -26.5v-3q0 -15 -22 -15h-155q-21 0 -21 15v3q0 9 10 17.5t20 19.5t10 28v531
q0 18 -10.5 30t-21 19.5t-10.5 15.5v3q0 13 17 21l107 47q32 14 32 -16l-1 -311q48 67 140 67q77 0 130 -52t59 -159z" />
    <glyph glyph-name="i" unicode="i" horiz-adv-x="265" 
d="M133 563q-37 0 -60 21t-23 54t23 54t60 21q36 0 58.5 -21t22.5 -54t-22.5 -54t-58.5 -21zM59 0q-21 0 -21 15v4q0 9 18.5 26t18.5 39v262q0 23 -18.5 43t-18.5 26v3q0 8 18 18l100 50q17 7 26.5 1.5t9.5 -18.5v-385q0 -22 20.5 -39t20.5 -26v-4q0 -15 -22 -15h-152z" />
    <glyph glyph-name="j" unicode="j" horiz-adv-x="258" 
d="M131 563q-37 0 -60 21t-23 54t23 54t60 21q36 0 58.5 -21t22.5 -54t-22.5 -54t-58.5 -21zM56 -189q-57 0 -92 23.5t-35 65.5q0 22 14 36t37 14q24 0 37.5 -15t17 -33.5t14 -33.5t29.5 -15t31 14t12 36q0 30 -20.5 68t-20.5 63v312q0 24 -18.5 43t-18.5 26v3q0 9 17 18
l104 50q16 7 26 1.5t10 -18.5v-469q0 -68 -24 -117q-36 -72 -120 -72z" />
    <glyph glyph-name="k" unicode="k" horiz-adv-x="544" 
d="M507 66q7 -9 29 -23t22 -26v-3q0 -14 -18 -14h-161q-17 0 -17 15v2q0 9 14.5 22.5t4.5 26.5l-128 171l-68 -63v-91q0 -21 20.5 -38.5t20.5 -26.5v-3q0 -15 -22 -15h-152q-21 0 -21 15v3q0 10 18.5 27t18.5 38v527q0 24 -21 43t-21 25v3q0 10 17 18l106 50q17 7 26.5 1.5
t9.5 -17.5v-493l180 157q16 14 -3.5 36.5t-19.5 28.5v3q0 15 18 15h128q17 0 17 -14v-3q0 -10 -11.5 -19t-32.5 -21.5t-34 -24.5l-98 -90z" />
    <glyph glyph-name="l" unicode="l" horiz-adv-x="257" 
d="M53 0q-21 0 -21 15v3q0 10 18.5 27t18.5 38v527q0 24 -18.5 43t-18.5 25v3q0 9 17 18l101 50q17 7 26.5 1.5t9.5 -17.5v-650q0 -21 20.5 -38.5t20.5 -26.5v-3q0 -15 -22 -15h-152z" />
    <glyph glyph-name="m" unicode="m" horiz-adv-x="907" 
d="M851 84q1 -22 18.5 -40t17.5 -27v-4q0 -14 -21 -14h-147q-21 0 -21 14v4q0 9 18 26.5t17 39.5l-10 189q-4 90 -30.5 130t-75.5 40q-41 0 -69.5 -33.5t-30.5 -84.5q4 -20 4 -48v-193q0 -22 17.5 -39.5t17.5 -26.5v-4q0 -14 -21 -14h-145q-22 0 -22 14v4q0 9 17.5 26.5
t17.5 39.5v200q0 75 -29.5 117t-75.5 42q-45 0 -74 -33.5t-31 -85.5l1 -240q0 -22 20 -39.5t20 -26.5v-4q0 -14 -21 -14h-155q-22 0 -22 14v4q0 9 20 26.5t20 39.5v268q0 18 -11 30t-22 20t-11 17v3q0 10 18 18l102 47q16 7 24 1.5t8 -19.5v-59q22 37 59.5 59t83.5 22
q55 0 99.5 -26t69.5 -73q19 47 61 73t95 26q78 0 128.5 -52.5t58.5 -168.5z" />
    <glyph glyph-name="n" unicode="n" horiz-adv-x="588" 
d="M532 84q1 -22 18.5 -39.5t17.5 -26.5v-4q0 -15 -22 -15h-146q-22 0 -22 15v4q0 9 18.5 26.5t17.5 39.5l-10 193q-7 165 -105 165q-47 0 -76 -34.5t-29 -89.5v-235q0 -22 20.5 -39t20.5 -26v-4q0 -15 -22 -15h-155q-21 0 -21 15v4q0 9 20 26t20 39v268q0 19 -11.5 31
t-22.5 19.5t-11 16.5v3q0 10 18 18l97 47q16 7 23.5 1.5t7.5 -19.5v-65q21 41 61 64t91 23q77 0 130 -53t60 -164z" />
    <glyph glyph-name="o" unicode="o" horiz-adv-x="572" 
d="M300 -10q-123 0 -197 75t-74 180t72 175t176 70q116 0 190 -73.5t74 -179.5q0 -105 -67 -176t-174 -71zM315 28q48 0 78 44.5t30 123.5q0 106 -45.5 181t-113.5 75q-54 0 -85.5 -43.5t-31.5 -124.5q0 -98 47.5 -177t120.5 -79z" />
    <glyph glyph-name="p" unicode="p" horiz-adv-x="580" 
d="M316 490q95 0 163.5 -66.5t68.5 -175.5q0 -112 -67.5 -185t-163.5 -73q-81 0 -132 53v-181q0 -22 20.5 -39.5t20.5 -26.5v-3q0 -15 -22 -15h-152q-22 0 -22 15v3q0 9 19 26.5t19 39.5v490q0 21 -21.5 37t-21.5 26v4q0 13 18 21l92 45q33 17 33 -16l-1 -55q21 36 60 56
t89 20zM303 28q60 0 93.5 48t33.5 135q0 108 -39.5 174.5t-103.5 66.5q-38 0 -67.5 -27.5t-34.5 -69.5v-185q0 -55 36 -98.5t82 -43.5z" />
    <glyph glyph-name="q" unicode="q" horiz-adv-x="578" 
d="M551 443q0 -6 -10 -14.5t-20 -22.5t-10 -33v-512q0 -22 19 -39.5t19 -26.5v-3q0 -14 -21 -14h-150q-21 0 -21 14v3q0 9 20.5 26.5t20.5 39.5v185q-50 -56 -135 -56q-96 0 -164.5 69t-68.5 182q0 109 67.5 179t167.5 70q89 0 144 -63v37q0 13 10 19t27 2l87 -18
q18 -5 18 -21v-3zM290 28q41 0 74.5 34t33.5 95v160q0 50 -39 92.5t-90 42.5q-56 0 -90 -45.5t-35 -124.5q-2 -105 38.5 -179t107.5 -75z" />
    <glyph glyph-name="r" unicode="r" horiz-adv-x="405" 
d="M311 490q43 0 67.5 -24t24.5 -60q0 -63 -52 -63q-22 0 -34 12t-15 27t-14 27t-30 12q-33 0 -51 -36t-18 -88v-214q0 -22 23 -39t23 -26v-4q0 -14 -21 -14h-155q-21 0 -21 14v4q0 9 19 26t19 39v269q0 23 -21.5 39.5t-21.5 25.5v3q0 11 18 21l98 45q29 14 29 -17v-78
q34 99 133 99z" />
    <glyph glyph-name="s" unicode="s" horiz-adv-x="473" 
d="M237 -9q-93 0 -151 35.5t-58 79.5q0 22 13.5 34t36.5 12q20 0 33.5 -13t21.5 -32t18.5 -37.5t32 -31.5t53.5 -13q41 0 66.5 20t25.5 57t-30 57.5t-72.5 30.5t-85.5 23t-73 46.5t-30 88.5q0 61 55 101.5t141 40.5q89 0 144.5 -36.5t55.5 -82.5q0 -19 -13 -31t-33 -12
q-19 0 -31.5 13t-21 31.5t-18 37t-29 31.5t-48.5 13q-36 0 -60 -22t-24 -55q0 -37 30 -58t72.5 -31.5t85.5 -23.5t73 -46t30 -88q0 -60 -57.5 -99.5t-152.5 -39.5z" />
    <glyph glyph-name="t" unicode="t" horiz-adv-x="372" 
d="M222 -10q-65 0 -102.5 41.5t-37.5 120.5v279h-57q-17 0 -17 17v14q0 18 17 18h31q38 0 61.5 26t29.5 71q3 22 20 22h15q19 0 19 -22l1 -97h126q8 0 13 -5t5 -13v-14q0 -17 -18 -17h-126v-280q0 -35 16 -54.5t41 -19.5q60 0 71 52q4 8 12 10t14.5 -2t6.5 -13
q0 -54 -38.5 -94t-102.5 -40z" />
    <glyph glyph-name="u" unicode="u" horiz-adv-x="575" 
d="M503 94q0 -26 8 -39t17.5 -14.5t17.5 -6t8 -15.5q0 -25 -75 -25q-42 0 -62 17t-19 57q-44 -78 -150 -78q-84 0 -135 56t-51 162v173q0 23 -19 41.5t-19 25.5v3q0 15 18 18l105 17q34 5 34 -15l-2 -274q0 -159 100 -159q46 0 76.5 37.5t30.5 97.5v208q0 23 -19.5 41.5
t-19.5 25.5v3q0 15 17 18l107 17q32 5 32 -15v-377z" />
    <glyph glyph-name="v" unicode="v" horiz-adv-x="527" 
d="M512 480q18 0 18 -14v-3q0 -10 -24.5 -28.5t-31.5 -37.5l-149 -375q-7 -22 -29 -22h-42q-20 0 -30 22l-178 375q-8 17 -27 36t-19 30v3q0 14 18 14h167q17 0 17 -15v-3q0 -7 -9.5 -17t-15 -19.5t0.5 -30.5l123 -311l117 297q8 30 0 41.5t-21.5 22t-13.5 17.5v3
q0 15 18 15h111z" />
    <glyph glyph-name="w" unicode="w" horiz-adv-x="743" 
d="M727 480q17 0 17 -14v-4q0 -10 -21 -27t-29 -39l-135 -374q-7 -22 -28 -22h-26q-24 0 -30 22l-103 324l-103 -324q-7 -22 -29 -22h-18q-21 0 -30 22l-150 374q-8 21 -25.5 38.5t-17.5 27.5v4q0 14 18 14h154q17 0 17 -15v-3q0 -7 -7 -13t-13.5 -11.5t-10.5 -16t2 -26.5
l94 -273l104 337q6 18 20 18l48 1q15 0 20 -17l102 -340l92 264q7 18 2 31t-14 19t-17.5 13t-8.5 14v3q0 15 18 15h108z" />
    <glyph glyph-name="x" unicode="x" horiz-adv-x="520" 
d="M453 86q10 -13 26.5 -26.5t25.5 -23t9 -18.5v-4q0 -14 -18 -14h-173q-17 0 -17 15v3q0 7 12 17t15.5 18.5t-12.5 34.5l-85 106l-94 -110q-16 -24 -13 -32.5t15 -18t12 -15.5v-3q0 -15 -18 -15h-123q-18 0 -18 14v4q0 9 10 16.5t30 21.5t35 32l131 149l-124 155
q-15 20 -32.5 33.5t-25 20t-7.5 16.5v4q0 14 17 14h171q18 0 18 -15v-3q0 -8 -9 -20.5t-11 -21t10 -29.5l83 -104l94 104q14 21 10.5 30t-15 21.5t-11.5 19.5v3q0 15 17 15h103q17 0 17 -14v-4q0 -9 -6.5 -17.5t-23 -23t-28.5 -29.5l-125 -145z" />
    <glyph glyph-name="y" unicode="y" horiz-adv-x="535" 
d="M519 480q17 0 17 -14v-4q0 -11 -19 -29.5t-29 -40.5l-189 -414q-18 -41 -30.5 -65t-36 -58t-53.5 -51t-65 -17q-59 0 -97 30.5t-38 67.5q0 22 13 36t36 14q22 0 36 -16.5t19.5 -37t17.5 -37t31 -16.5q52 0 112 149l-195 415q-11 22 -31 40.5t-20 29.5v4q0 14 18 14h158
q17 0 17 -15v-3q0 -8 -9 -18t-12.5 -19t5.5 -34l132 -303l124 292q9 30 0 41.5t-25 22t-16 18.5v3q0 15 18 15h111z" />
    <glyph glyph-name="z" unicode="z" horiz-adv-x="488" 
d="M462 141q22 0 15 -25l-28 -94q-7 -22 -25 -22h-378q-8 0 -15 6t-7 14v8q0 8 16 32l277 385h-152q-19 0 -36 -15.5t-27.5 -34.5t-24.5 -34.5t-27 -15.5h-5q-11 0 -15 8t0 21l25 81q9 25 29 25h343q8 0 14 -6t6 -14v-10q0 -8 -21 -37l-276 -378h179q22 0 41.5 16.5t31 36.5
t26.5 36.5t28 16.5h6z" />
    <glyph glyph-name="braceleft" unicode="{" horiz-adv-x="319" 
d="M284 -51q13 0 18.5 -12.5t0.5 -25t-18 -12.5q-83 0 -134.5 43t-51.5 133v119q0 112 -58 112q-16 0 -23.5 14t-0.5 28.5t24 14.5q25 0 41.5 25t16.5 78v141q0 86 52 128.5t136 41.5q13 0 19 -12t1 -24.5t-20 -12.5q-79 0 -80 -117l-1 -138q0 -66 -25.5 -98.5t-56.5 -40.5
q32 -8 57 -41.5t24 -105.5l-1 -117q-1 -64 19 -92.5t61 -28.5z" />
    <glyph glyph-name="bar" unicode="|" horiz-adv-x="233" 
d="M90 -90q-13 0 -13 18v765q0 16 14 18l50 -1q14 0 14 -17l1 -765q0 -8 -4 -13.5t-10 -4.5h-52z" />
    <glyph glyph-name="braceright" unicode="}" horiz-adv-x="320" 
d="M279 363q17 0 23.5 -14.5t-0.5 -28.5t-23 -14q-58 0 -58 -112v-119q0 -90 -51.5 -133t-134.5 -43q-13 0 -18 12.5t0.5 25t18.5 12.5q81 0 80 121l-1 117q-1 73 25 107t58 40q-32 7 -58 39.5t-26 99.5l-1 138q-1 117 -80 117q-15 0 -20 12.5t1 24.5t19 12
q83 1 135.5 -41.5t52.5 -128.5v-141q0 -53 16.5 -78t41.5 -25z" />
    <glyph glyph-name="asciitilde" unicode="~" 
d="M193 385q48 0 114 -32.5t98 -32.5q47 0 72 38q9 14 22 14h23q16 0 13 -18q-10 -56 -47 -88.5t-86 -32.5q-44 0 -82 16.5t-69 33t-58 16.5q-40 0 -66 -40q-10 -16 -32 -16h-13q-15 0 -12 19q7 48 38.5 85.5t84.5 37.5z" />
    <glyph glyph-name="exclamdown" unicode="&#xa1;" horiz-adv-x="237" 
d="M119 328q-34 0 -56 18.5t-22 52.5q0 35 22 53.5t56 18.5q33 0 55 -18.5t22 -53.5q0 -34 -22 -52.5t-55 -18.5zM182 -172q0 -29 -31 -40.5t-62.5 1t-31.5 40.5q3 214 36 429q3 14 25 14t25 -14q36 -201 39 -430z" />
    <glyph glyph-name="cent" unicode="&#xa2;" horiz-adv-x="534" 
d="M466 273q5 7 14.5 8.5t16.5 -4t6 -14.5q-4 -28 -16.5 -55t-34 -52t-58 -42t-82.5 -20v-76q0 -19 -14 -19h-18q-15 0 -15 19v76q-97 11 -162.5 88t-65.5 176q0 113 64.5 184.5t163.5 80.5v77q0 18 15 18h19q13 0 13 -18v-77q73 -7 125.5 -45t52.5 -83q0 -20 -14 -34
t-37 -14q-22 0 -38.5 15.5t-26 35t-26 41.5t-36.5 32v-388q7 -1 21 -1q85 0 133 91zM157 418q0 -79 29 -137.5t79 -82.5v382q-46 -1 -77 -48t-31 -114z" />
    <glyph glyph-name="sterling" unicode="&#xa3;" horiz-adv-x="665" 
d="M595 154q8 14 25 10.5t15 -21.5q-12 -66 -65.5 -111.5t-147.5 -45.5q-69 0 -163 57q-48 -53 -119 -53q-45 0 -69 23.5t-24 59.5q0 35 26.5 57.5t70.5 22.5q34 0 78 -14q3 19 3 40q0 56 -31 120h-134q-18 0 -18 12v31q0 12 18 12h104q-48 86 -48 156q0 99 69 157t188 58
q91 0 157.5 -38t66.5 -92q0 -22 -14.5 -38t-39.5 -16q-28 0 -48 21t-30.5 45.5t-38 45.5t-68.5 21q-58 0 -90 -43t-32 -109q0 -72 36 -168h178q18 0 18 -13v-30q0 -12 -18 -12h-158q19 -57 19 -116q0 -37 -13 -73q88 -34 142 -34t98 23t57 55zM137 33q43 0 67 45
q-42 25 -68 25q-43 0 -43 -34q0 -17 12.5 -26.5t31.5 -9.5z" />
    <glyph glyph-name="currency" unicode="&#xa4;" horiz-adv-x="615" 
d="M492 219l62 -62q12 -14 1 -24l-17 -18q-11 -9 -25 2l-63 65q-62 -43 -146 -43q-80 0 -139 40l-62 -62q-13 -11 -24 -2l-18 18q-12 10 2 24l60 60q-46 56 -46 129q0 71 46 127l-60 60q-15 13 -2 23l18 18q11 11 24 -2l61 -62q61 42 140 42q85 0 147 -43l62 63q13 14 25 2
l17 -18q12 -8 -1 -23l-62 -61q47 -55 47 -126q0 -72 -47 -127zM307 206q62 0 99 41t37 99q0 57 -37.5 97.5t-98.5 40.5t-97.5 -40.5t-36.5 -97.5q0 -58 36.5 -99t97.5 -41z" />
    <glyph glyph-name="yen" unicode="&#xa5;" horiz-adv-x="715" 
d="M664 710q21 0 21 -14v-3q0 -11 -22 -27t-35 -39l-179 -300h159q18 0 18 -13v-20q0 -12 -18 -12h-182v-59h165q18 0 18 -12v-20q0 -12 -18 -12h-165v-96q0 -22 20 -39.5t20 -26.5v-3q0 -14 -21 -14h-157q-21 0 -21 14v3q0 9 18.5 26.5t18.5 39.5v96h-166q-18 0 -18 12v20
q0 12 18 12h166v56l-2 3h-182q-17 0 -17 12v20q0 13 17 13h154l-192 300q-12 20 -36 37.5t-24 28.5v3q0 14 22 14h184q22 0 22 -14v-3q0 -8 -13.5 -18.5t-21.5 -19t0 -28.5l174 -299l177 299q8 21 0 29.5t-22.5 18.5t-14.5 18v3q0 14 20 14h115z" />
    <glyph glyph-name="brokenbar" unicode="&#xa6;" horiz-adv-x="233" 
d="M90 353q-13 0 -13 17v322q0 16 14 18h50q14 0 14 -18l1 -322q0 -8 -4 -13t-10 -4h-52zM90 -90q-13 0 -13 18v310q0 16 14 18h50q14 0 14 -18l1 -310q0 -8 -4 -13.5t-10 -4.5h-52z" />
    <glyph glyph-name="section" unicode="&#xa7;" horiz-adv-x="624" 
d="M513 154q64 -47 64 -133q0 -69 -71 -120t-180 -51q-134 0 -214 53.5t-80 119.5q0 25 14.5 39.5t41.5 14.5q21 0 37.5 -18.5t31.5 -44.5t35 -52.5t58.5 -45t92.5 -18.5q53 0 85.5 25.5t32.5 61.5q0 35 -23 59.5t-59.5 37.5t-80.5 23t-88 23.5t-80 33t-58.5 55.5t-21.5 87
q1 101 76 149q-63 48 -63 131q0 84 69.5 134t174.5 50q119 0 195.5 -52.5t76.5 -117.5q0 -25 -14.5 -40t-41.5 -15q-25 0 -43 18t-31 43.5t-28.5 51.5t-45.5 44t-73 18q-52 0 -87.5 -28.5t-35.5 -72.5q0 -38 22.5 -63t58 -38t79 -23.5t86.5 -23.5t78.5 -32.5t58 -58
t22.5 -92.5q0 -78 -71 -132zM165 350q0 -27 12.5 -47.5t32 -33.5t49.5 -24t57 -17.5t64 -17t62 -19.5q31 34 31 69q0 37 -28.5 62.5t-63 36.5t-94.5 27t-92 29q-30 -27 -30 -65z" />
    <glyph glyph-name="dieresis" unicode="&#xa8;" 
d="M180 566q-34 0 -55 19.5t-21 49.5t21 49.5t55 19.5q33 0 53.5 -19.5t20.5 -49.5t-20.5 -49.5t-53.5 -19.5zM390 566q-33 0 -54 19.5t-21 49.5t21 49.5t54 19.5t54 -19.5t21 -49.5t-21 -49.5t-54 -19.5z" />
    <glyph glyph-name="copyright" unicode="&#xa9;" horiz-adv-x="875" 
d="M438 -60q-167 0 -285.5 118t-118.5 285t118.5 284.5t285.5 117.5t285 -118t118 -284q0 -167 -118 -285t-285 -118zM438 -3q137 0 234.5 102t97.5 244t-97.5 243.5t-234.5 101.5q-138 0 -235.5 -101.5t-97.5 -243.5q0 -143 97.5 -244.5t235.5 -101.5zM443 119
q-96 0 -164 68.5t-68 159.5q0 96 66 159.5t167 62.5q81 -1 137.5 -39.5t56.5 -89.5q0 -16 -13 -28t-35 -12q-27 0 -46 20.5t-29 45t-31 45t-52 20.5q-51 0 -79 -40.5t-28 -105.5q0 -80 41.5 -128t117.5 -48q80 0 119 75q7 11 22 4.5t14 -21.5q-7 -63 -59 -105.5t-137 -42.5z
" />
    <glyph glyph-name="ordfeminine" unicode="&#xaa;" horiz-adv-x="424" 
d="M362 443q2 -16 8.5 -24t13 -9t11.5 -5t5 -14q0 -25 -67 -25q-28 0 -40.5 9t-14.5 33q-30 -46 -103 -46q-62 0 -99.5 29.5t-37.5 79.5q0 51 38 80t99 29q52 0 82 -24l-1 13q-6 64 -22 89.5t-53 25.5q-20 0 -33 -12t-18.5 -26.5t-17.5 -26.5t-31 -12q-17 0 -27 9.5
t-10 25.5q0 35 40.5 56.5t96.5 21.5q68 0 113 -38.5t53 -109.5zM206 398q24 0 43 16.5t18 40.5l-3 31q-2 24 -21 40.5t-47 16.5q-27 0 -44.5 -16.5t-17.5 -49.5q0 -35 19.5 -57t52.5 -22z" />
    <glyph glyph-name="guillemotleft" unicode="&#xab;" horiz-adv-x="521" 
d="M211 485q7 11 24.5 6.5t15.5 -16.5q-26 -116 -128 -191q45 -38 79 -85.5t45 -84.5q1 -6 -7.5 -11.5t-20.5 -5t-20 10.5q-18 22 -41 44.5t-35 33t-44 37t-38 31.5q-10 8 -9.5 32.5t9.5 32.5q114 83 170 166zM478 475q-26 -116 -128 -191q45 -38 79 -85.5t45 -84.5
q1 -6 -7.5 -11.5t-20.5 -5t-20 10.5q-18 22 -41 44.5t-35 33t-44 37t-38 31.5q-10 8 -9.5 32.5t9.5 32.5q114 83 170 166q7 11 24.5 6.5t15.5 -16.5z" />
    <glyph glyph-name="registered" unicode="&#xae;" horiz-adv-x="875" 
d="M438 745q167 0 285 -118t118 -284q0 -167 -118 -285.5t-285 -118.5t-285.5 118.5t-118.5 285.5t118.5 284.5t285.5 117.5zM438 -2q137 0 234.5 101.5t97.5 243.5t-97.5 243.5t-234.5 101.5q-138 0 -235.5 -101.5t-97.5 -243.5q0 -143 97.5 -244t235.5 -101zM609 201
q6 -10 12.5 -17t9.5 -9t5 -5.5t2 -8.5v-5q0 -12 -13 -12h-125q-12 0 -12 10v7q0 4 11 13.5t2 26.5l-56 108l-55 -2v-106q0 -12 13 -23t13 -16v-8q0 -10 -13 -10h-127q-13 0 -13 10v8q0 5 12.5 16t12.5 23v317q0 12 -12.5 23t-12.5 17v3q0 9 13 9h140q102 0 158 -33t57 -98
q1 -36 -24.5 -68t-69.5 -48zM390 371q0 -27 25 -27h27q34 0 54 23.5t20 62.5q0 48 -20.5 76t-58.5 28h-26q-9 0 -15 -7t-6 -17v-139z" />
    <glyph glyph-name="macron" unicode="&#xaf;" 
d="M168 596q-20 0 -20 18v39q0 18 20 18h269q20 0 20 -18v-39q0 -18 -20 -18h-269z" />
    <glyph glyph-name="degree" unicode="&#xb0;" horiz-adv-x="404" 
d="M201 385q-76 0 -123.5 47.5t-47.5 116.5q0 71 48 119.5t124 48.5t124 -47.5t48 -115.5q0 -71 -48.5 -120t-124.5 -49zM202 422q40 0 64.5 36t24.5 94q0 57 -24.5 92t-64.5 35t-65 -35t-25 -92q0 -58 25 -94t65 -36z" />
    <glyph glyph-name="plusminus" unicode="&#xb1;" 
d="M275 142q-13 0 -13 18v158h-157q-17 0 -19 13l1 48q0 13 18 13h157v158q0 17 13 19l50 -1q13 0 13 -18v-158l158 1q18 0 18 -13v-49q0 -13 -18 -13h-157v-158q0 -9 -4.5 -14t-9.5 -4h-50zM105 0q-18 0 -18 12v49q0 13 18 13h391q18 0 18 -13v-49q0 -12 -18 -12h-391z" />
    <glyph glyph-name="acute" unicode="&#xb4;" horiz-adv-x="464" 
d="M124 550q-21 -7 -31 8q-9 17 6 30l175 129q27 21 44 -9l21 -44q7 -12 2.5 -23.5t-19.5 -15.5z" />
    <glyph glyph-name="paragraph" unicode="&#xb6;" horiz-adv-x="662" 
d="M350 -204q-102 -1 -166.5 55.5t-64.5 111.5q0 28 15.5 45t41.5 17q27 0 44 -18.5t26.5 -45.5t20.5 -54t34 -45.5t59 -18.5q49 0 77 35t28 135v642h-89v-401q0 -19 -19 -19l-102 -1q-97 -1 -162.5 67t-65.5 177q0 103 65.5 167.5t162.5 64.5h338q22 0 22 -16v-2
q0 -11 -21.5 -27.5t-21.5 -40.5l-1 -557q0 -131 -61.5 -200.5t-159.5 -70.5z" />
    <glyph glyph-name="periodcentered" unicode="&#xb7;" horiz-adv-x="244" 
d="M122 314q-34 0 -56 18.5t-22 53.5t22 53.5t56 18.5t56 -18.5t22 -53.5t-22 -53.5t-56 -18.5z" />
    <glyph glyph-name="cedilla" unicode="&#xb8;" 
d="M338 -55q47 1 81 -19t34 -57t-36.5 -58.5t-89.5 -21.5q-46 0 -84 18q-18 9 -12 32q5 19 18 11q26 -15 60 -15q24 0 40 9.5t15 28.5q-1 33 -60 33q-13 0 -20 8.5t-5 21.5l12 64h49z" />
    <glyph glyph-name="ordmasculine" unicode="&#xba;" horiz-adv-x="432" 
d="M220 365q-82 0 -137 51t-55 129q0 76 53 125.5t135 49.5q78 0 132.5 -52t54.5 -129q0 -76 -53 -125t-130 -49zM226 400q38 0 59 33t21 87q0 69 -29.5 117t-74.5 48q-40 0 -60 -31.5t-20 -80.5q0 -73 30 -123t74 -50z" />
    <glyph glyph-name="guillemotright" unicode="&#xbb;" horiz-adv-x="521" 
d="M254 319q9 -8 9.5 -32.5t-9.5 -32.5q-6 -5 -38 -31.5t-44 -37t-35 -33t-41 -44.5q-8 -10 -20 -10.5t-20.5 5t-7.5 11.5q11 37 45 84.5t79 85.5q-102 75 -128 191q-2 12 15.5 16.5t24.5 -6.5q56 -83 170 -166zM480 319q9 -8 9.5 -32.5t-9.5 -32.5q-6 -5 -38 -31.5t-44 -37
t-35 -33t-41 -44.5q-8 -10 -20 -10.5t-20.5 5t-7.5 11.5q11 37 45 84.5t79 85.5q-102 75 -128 191q-2 12 15.5 16.5t24.5 -6.5q56 -83 170 -166z" />
    <glyph glyph-name="onequarter" unicode="&#xbc;" horiz-adv-x="712" 
d="M201 346q0 -10 -17 -10h-118q-17 0 -17 10v4q0 5 17 16.5t17 29.5v219q0 15 -8 22t-18 6.5t-18 2t-8 9.5v2q0 12 16 17l123 43q19 6 19 -9v-3q0 -5 -11.5 -21t-11.5 -40v-248q0 -18 17.5 -29.5t17.5 -16.5v-4zM582 576q12 -10 -1 -23l-405 -425q-12 -13 -27 0l-23 21
q-12 12 -2 22l407 426q14 12 25 3zM672 129q11 0 11 -9v-19q0 -10 -11 -10h-50v-36q0 -17 15 -27.5t15 -16.5v-2q0 -10 -13 -10h-107q-14 0 -14 10v2q0 6 14.5 16.5t14.5 27.5v36h-169q-20 0 -20 16v7q0 16 8 26l167 226q13 19 33 19h44q12 0 12 -13v-243h50zM406 129h141
v196z" />
    <glyph glyph-name="onehalf" unicode="&#xbd;" horiz-adv-x="751" 
d="M197 346q0 -10 -16 -10h-114q-17 0 -17 10v4q0 5 15.5 16.5t15.5 29.5v221q0 15 -7.5 21t-17 5.5t-17 2t-7.5 9.5v2q0 13 16 17l120 43q19 6 19 -9v-3q0 -6 -11.5 -21.5t-11.5 -37.5v-250q0 -18 16.5 -29.5t16.5 -16.5v-4zM580 576q12 -9 0 -23l-406 -425q-11 -14 -27 0
l-23 21q-12 12 -2 22l408 426q13 13 24 3zM713 109q13 0 10 -12l-22 -84q-4 -12 -13 -12h-268q-12 0 -12 11v5q0 42 33 79.5t72 61t72 55.5t33 64q0 28 -15.5 44t-41.5 16q-23 0 -38 -16t-21.5 -34.5t-18.5 -34.5t-28 -16q-36 0 -36 38q0 36 43.5 66t101.5 30q62 0 99 -27.5
t37 -72.5q0 -38 -29 -70.5t-65.5 -51t-77 -44t-56.5 -48.5h168q14 0 24 8.5t15 18t11.5 18t13.5 8.5h9z" />
    <glyph glyph-name="threequarters" unicode="&#xbe;" horiz-adv-x="742" 
d="M326 457q0 -48 -40.5 -79.5t-105.5 -31.5q-69 0 -111 30t-42 61q0 33 31 33q16 0 28.5 -14.5t20.5 -32.5t26.5 -32.5t44.5 -14.5q30 0 50 19t20 48q0 38 -22 59t-62 21h-8q-11 0 -15 10.5t4 20.5l78 97h-164q-15 0 -15 14v32q0 13 15 13h253q12 0 12 -10v-5q0 -9 -10 -19
l-121 -123q60 -3 96.5 -26.5t36.5 -69.5zM641 576q12 -9 0 -23l-406 -425q-12 -13 -27 0l-23 21q-12 12 -2 22l407 426q14 12 25 3zM698 129q11 0 11 -9v-19q0 -10 -11 -10h-50v-36q0 -17 15 -27.5t15 -16.5v-2q0 -10 -13 -10h-107q-14 0 -14 10v2q0 6 14.5 16.5t14.5 27.5
v36h-169q-20 0 -20 16v7q0 16 8 26l166 226q15 19 33 19h45q12 0 12 -13v-243h50zM432 129h141v196z" />
    <glyph glyph-name="questiondown" unicode="&#xbf;" horiz-adv-x="523" 
d="M283 369q-32 0 -53 18t-21 50q0 33 21 51.5t53 18.5t53.5 -18.5t21.5 -51.5q0 -32 -21.5 -50t-53.5 -18zM260 -222q-103 0 -168 47.5t-65 139.5q0 47 22.5 86t54.5 65.5t63.5 51t54 55.5t22.5 68q0 14 19.5 20t40.5 0.5t25 -20.5q7 -43 -9.5 -79.5t-44.5 -64t-57.5 -54
t-50.5 -63.5t-21 -79q0 -57 33 -89.5t77 -32.5q42 0 69 27.5t37.5 60.5t30.5 60.5t49 27.5q26 0 42.5 -15t16.5 -43q0 -56 -71.5 -112.5t-169.5 -56.5z" />
    <glyph glyph-name="Agrave" unicode="&#xc0;" horiz-adv-x="681" 
d="M199 814q-15 1 -21.5 11t-2.5 24l13 47q8 34 41 18l196 -93q17 -9 12 -28q-6 -15 -29 -15zM633 83q9 -22 30 -39t21 -27v-3q0 -14 -21 -14h-178q-21 0 -21 14v3q0 8 12.5 17t22 20.5t2.5 28.5l-39 99h-302l-37 -99q-7 -17 2.5 -28.5t22 -20.5t12.5 -17v-3q0 -14 -22 -14
h-113q-21 0 -21 14v3q0 10 21 26.5t30 39.5l210 539q7 19 -13 42t-20 29v3q0 14 17 14h79q39 0 54 -38zM180 236h261l-134 342z" />
    <glyph glyph-name="Aacute" unicode="&#xc1;" horiz-adv-x="681" 
d="M237 779q-21 -2 -28 14q-6 18 11 28l197 93q31 15 41 -17l12 -47q5 -14 -1.5 -24t-22.5 -11zM633 83q9 -22 30 -39t21 -27v-3q0 -14 -21 -14h-178q-21 0 -21 14v3q0 8 12.5 17t22 20.5t2.5 28.5l-39 99h-302l-37 -99q-7 -17 2.5 -28.5t22 -20.5t12.5 -17v-3
q0 -14 -22 -14h-113q-21 0 -21 14v3q0 10 21 26.5t30 39.5l210 539q7 19 -13 42t-20 29v3q0 14 17 14h79q39 0 54 -38zM180 236h261l-134 342z" />
    <glyph glyph-name="Acircumflex" unicode="&#xc2;" horiz-adv-x="681" 
d="M193 763q-17 -9 -30.5 4.5t3.5 31.5l110 105q16 16 36 16h24q19 0 36 -16l117 -105q18 -17 6 -32.5t-35 -3.5l-139 72zM633 83q9 -22 30 -39t21 -27v-3q0 -14 -21 -14h-178q-21 0 -21 14v3q0 8 12.5 17t22 20.5t2.5 28.5l-39 99h-302l-37 -99q-7 -17 2.5 -28.5t22 -20.5
t12.5 -17v-3q0 -14 -22 -14h-113q-21 0 -21 14v3q0 10 21 26.5t30 39.5l210 539q7 19 -13 42t-20 29v3q0 14 17 14h79q39 0 54 -38zM180 236h261l-134 342z" />
    <glyph glyph-name="Atilde" unicode="&#xc3;" horiz-adv-x="681" 
d="M169 778q-15 0 -12 19q8 45 35 75t69 30q36 0 86.5 -27t69.5 -27q33 0 47 27q6 13 19 13h8q17 0 12 -19q-25 -103 -102 -103q-33 0 -83.5 27.5t-72.5 27.5q-29 0 -46 -27q-10 -16 -20 -16h-10zM633 83q9 -22 30 -39t21 -27v-3q0 -14 -21 -14h-178q-21 0 -21 14v3
q0 8 12.5 17t22 20.5t2.5 28.5l-39 99h-302l-37 -99q-7 -17 2.5 -28.5t22 -20.5t12.5 -17v-3q0 -14 -22 -14h-113q-21 0 -21 14v3q0 10 21 26.5t30 39.5l210 539q7 19 -13 42t-20 29v3q0 14 17 14h79q39 0 54 -38zM180 236h261l-134 342z" />
    <glyph glyph-name="Adieresis" unicode="&#xc4;" horiz-adv-x="681" 
d="M224 783q-34 0 -55 19.5t-21 49.5t21 49.5t55 19.5q33 0 53.5 -19.5t20.5 -49.5t-20.5 -49.5t-53.5 -19.5zM434 783q-33 0 -54 19.5t-21 49.5t21 49.5t54 19.5t54 -19.5t21 -49.5t-21 -49.5t-54 -19.5zM633 83q9 -22 30 -39t21 -27v-3q0 -14 -21 -14h-178q-21 0 -21 14v3
q0 8 12.5 17t22 20.5t2.5 28.5l-39 99h-302l-37 -99q-7 -17 2.5 -28.5t22 -20.5t12.5 -17v-3q0 -14 -22 -14h-113q-21 0 -21 14v3q0 10 21 26.5t30 39.5l210 539q7 19 -13 42t-20 29v3q0 14 17 14h79q39 0 54 -38zM180 236h261l-134 342z" />
    <glyph glyph-name="Aring" unicode="&#xc5;" horiz-adv-x="681" 
d="M328 751q-55 0 -91 30t-36 73q0 47 35.5 76.5t92.5 29.5q55 0 91.5 -29t36.5 -73q0 -47 -35.5 -77t-93.5 -30zM329 921q-25 0 -40.5 -16.5t-15.5 -48.5q0 -29 16 -48.5t40 -19.5q25 0 40.5 18t15.5 50q0 29 -16 47t-40 18zM633 83q9 -22 30 -39t21 -27v-3q0 -14 -21 -14
h-178q-21 0 -21 14v3q0 8 12.5 17t22 20.5t2.5 28.5l-39 99h-302l-37 -99q-7 -17 2.5 -28.5t22 -20.5t12.5 -17v-3q0 -14 -22 -14h-113q-21 0 -21 14v3q0 10 21 26.5t30 39.5l210 539q7 19 -13 42t-20 29v3q0 14 17 14h79q39 0 54 -38zM180 236h261l-134 342z" />
    <glyph glyph-name="AE" unicode="&#xc6;" horiz-adv-x="943" 
d="M911 156q19 0 14 -19l-25 -111q-5 -26 -28 -26h-421q-22 0 -22 14v3q0 10 19 28t19 39v99h-247l-57 -100q-8 -20 -2 -28t17.5 -18.5t11.5 -18.5v-3q0 -15 -22 -15h-153q-22 0 -22 15v3q0 10 24.5 26.5t37.5 38.5l310 527q10 24 5 35.5t-17 25t-12 20.5v5q0 14 20 14h483
q23 0 29 -25l22 -104q2 -10 -3 -16t-14 -6h-5q-13 0 -27.5 16t-26 34.5t-30.5 34.5t-39 16h-139q-34 0 -34 -40v-229h149q19 0 32.5 16.5t22.5 32.5t18 16h6q15 0 15 -22v-137q0 -21 -15 -21h-6q-9 0 -18 15t-22.5 30.5t-32.5 15.5h-149v-238q0 -23 12 -36t32 -13h158
q22 0 42 16.5t31.5 36.5t25.5 36.5t27 16.5h6zM251 237h216v380z" />
    <glyph glyph-name="Ccedilla" unicode="&#xc7;" horiz-adv-x="673" 
d="M605 243q7 10 18 12.5t19 -5t6 -21.5q-14 -97 -83.5 -165.5t-183.5 -73.5l-2 -45q47 1 81 -19t34 -57t-36.5 -58.5t-89.5 -21.5q-46 0 -84 18q-18 9 -12 32q5 19 18 11q26 -15 60 -15q24 0 40 9.5t15 28.5q-1 33 -60 33q-13 0 -20 8.5t-5 21.5l11 56q-81 11 -151.5 65.5
t-111.5 136t-41 169.5q0 156 93 256t239 100q113 0 196 -60.5t83 -126.5q0 -25 -15 -40t-42 -15q-25 0 -45 19.5t-36.5 47.5t-36 56.5t-53 48t-78.5 19.5q-77 0 -131.5 -65.5t-54.5 -169.5q0 -145 76 -240.5t175 -95.5q74 0 127 44t81 102z" />
    <glyph glyph-name="Egrave" unicode="&#xc8;" horiz-adv-x="607" 
d="M384 778l-209 36q-15 1 -21.5 11t-2.5 24l13 47q8 34 41 18l196 -93q17 -9 12 -28q-6 -15 -29 -15zM75 0q-22 0 -22 14v3q0 9 19 26.5t19 40.5v542q0 23 -19 41t-19 26v3q0 14 20 14h435q24 0 28 -25l24 -108q5 -23 -16 -23h-5q-13 0 -28.5 16.5t-28 36.5t-31 36.5
t-38.5 16.5h-168q-34 0 -34 -39v-233h154q15 0 26 10.5t16.5 22.5t13 22.5t14.5 10.5h6q15 0 15 -19v-142q0 -19 -15 -19h-6q-7 0 -14.5 10t-13 21.5t-16.5 21.5t-26 10h-154l-1 -234q0 -22 11.5 -37.5t33.5 -15.5h189q20 0 38 17t29 38t26 38t29 17h7q8 0 12.5 -7t2.5 -16
l-23 -111q-6 -26 -29 -26h-461z" />
    <glyph glyph-name="Eacute" unicode="&#xc9;" horiz-adv-x="607" 
d="M212 779q-21 -2 -28 14q-6 18 11 28l197 93q31 15 41 -17l12 -47q5 -14 -1.5 -24t-22.5 -11zM75 0q-22 0 -22 14v3q0 9 19 26.5t19 40.5v542q0 23 -19 41t-19 26v3q0 14 20 14h435q24 0 28 -25l24 -108q5 -23 -16 -23h-5q-13 0 -28.5 16.5t-28 36.5t-31 36.5t-38.5 16.5
h-168q-34 0 -34 -39v-233h154q15 0 26 10.5t16.5 22.5t13 22.5t14.5 10.5h6q15 0 15 -19v-142q0 -19 -15 -19h-6q-7 0 -14.5 10t-13 21.5t-16.5 21.5t-26 10h-154l-1 -234q0 -22 11.5 -37.5t33.5 -15.5h189q20 0 38 17t29 38t26 38t29 17h7q8 0 12.5 -7t2.5 -16l-23 -111
q-6 -26 -29 -26h-461z" />
    <glyph glyph-name="Ecircumflex" unicode="&#xca;" horiz-adv-x="607" 
d="M169 763q-17 -9 -30.5 4.5t3.5 31.5l110 105q16 16 36 16h24q19 0 36 -16l117 -105q18 -17 6 -32.5t-35 -3.5l-139 72zM573 160q8 0 12.5 -7t2.5 -16l-23 -111q-6 -26 -29 -26h-461q-22 0 -22 14v3q0 9 19 26.5t19 40.5v542q0 23 -19 41t-19 26v3q0 14 20 14h435
q24 0 28 -25l24 -108q5 -23 -16 -23h-5q-13 0 -28.5 16.5t-28 36.5t-31 36.5t-38.5 16.5h-168q-34 0 -34 -39v-233h154q15 0 26 10.5t16.5 22.5t13 22.5t14.5 10.5h6q15 0 15 -19v-142q0 -19 -15 -19h-6q-7 0 -14.5 10t-13 21.5t-16.5 21.5t-26 10h-154l-1 -234
q0 -22 11.5 -37.5t33.5 -15.5h189q20 0 38 17t29 38t26 38t29 17h7z" />
    <glyph glyph-name="Edieresis" unicode="&#xcb;" horiz-adv-x="607" 
d="M198 783q-34 0 -55 19.5t-21 49.5t21 49.5t55 19.5q33 0 53.5 -19.5t20.5 -49.5t-20.5 -49.5t-53.5 -19.5zM408 783q-33 0 -54 19.5t-21 49.5t21 49.5t54 19.5t54 -19.5t21 -49.5t-21 -49.5t-54 -19.5zM75 0q-22 0 -22 14v3q0 9 19 26.5t19 40.5v542q0 23 -19 41t-19 26
v3q0 14 20 14h435q24 0 28 -25l24 -108q5 -23 -16 -23h-5q-13 0 -28.5 16.5t-28 36.5t-31 36.5t-38.5 16.5h-168q-34 0 -34 -39v-233h154q15 0 26 10.5t16.5 22.5t13 22.5t14.5 10.5h6q15 0 15 -19v-142q0 -19 -15 -19h-6q-7 0 -14.5 10t-13 21.5t-16.5 21.5t-26 10h-154
l-1 -234q0 -22 11.5 -37.5t33.5 -15.5h189q20 0 38 17t29 38t26 38t29 17h7q8 0 12.5 -7t2.5 -16l-23 -111q-6 -26 -29 -26h-461z" />
    <glyph glyph-name="Igrave" unicode="&#xcc;" horiz-adv-x="305" 
d="M232 778l-209 36q-15 1 -21.5 11t-2.5 24l13 47q8 34 41 18l196 -93q17 -9 12 -28q-6 -15 -29 -15zM54 14v3q0 8 18.5 25.5t18.5 39.5v545q0 22 -18.5 39.5t-18.5 26.5v3q0 14 21 14h156q21 0 21 -14v-3q0 -9 -20 -26.5t-20 -39.5v-545q0 -22 20 -39.5t20 -25.5v-3
q0 -14 -21 -14h-156q-21 0 -21 14z" />
    <glyph glyph-name="Iacute" unicode="&#xcd;" horiz-adv-x="305" 
d="M61 779q-21 -2 -28 14q-6 18 11 28l197 93q31 15 41 -17l12 -47q5 -14 -1.5 -24t-22.5 -11zM54 14v3q0 8 18.5 25.5t18.5 39.5v545q0 22 -18.5 39.5t-18.5 26.5v3q0 14 21 14h156q21 0 21 -14v-3q0 -9 -20 -26.5t-20 -39.5v-545q0 -22 20 -39.5t20 -25.5v-3
q0 -14 -21 -14h-156q-21 0 -21 14z" />
    <glyph glyph-name="Icircumflex" unicode="&#xce;" horiz-adv-x="305" 
d="M313 799q18 -17 6 -32.5t-35 -3.5l-139 72l-128 -72q-17 -9 -30.5 4.5t3.5 31.5l110 105q16 16 36 16h24q19 0 36 -16zM231 710q21 0 21 -14v-3q0 -9 -20 -26.5t-20 -39.5v-545q0 -22 20 -39.5t20 -25.5v-3q0 -14 -21 -14h-156q-21 0 -21 14v3q0 8 18.5 25.5t18.5 39.5
v545q0 22 -18.5 39.5t-18.5 26.5v3q0 14 21 14h156z" />
    <glyph glyph-name="Idieresis" unicode="&#xcf;" horiz-adv-x="305" 
d="M48 783q-34 0 -55 19.5t-21 49.5t21 49.5t55 19.5q33 0 53.5 -19.5t20.5 -49.5t-20.5 -49.5t-53.5 -19.5zM258 783q-33 0 -54 19.5t-21 49.5t21 49.5t54 19.5t54 -19.5t21 -49.5t-21 -49.5t-54 -19.5zM54 14v3q0 8 18.5 25.5t18.5 39.5v545q0 22 -18.5 39.5t-18.5 26.5v3
q0 14 21 14h156q21 0 21 -14v-3q0 -9 -20 -26.5t-20 -39.5v-545q0 -22 20 -39.5t20 -25.5v-3q0 -14 -21 -14h-156q-21 0 -21 14z" />
    <glyph glyph-name="Eth" unicode="&#xd0;" horiz-adv-x="754" 
d="M298 710q184 0 302.5 -100.5t118.5 -251.5q0 -163 -105.5 -260.5t-270.5 -97.5h-265q-22 0 -22 14v3q0 9 19 26.5t19 39.5v253h-52q-15 0 -15 13v22q0 14 15 14h52v242q0 22 -19 39.5t-19 26.5v3q0 14 22 14h220zM336 51q114 0 186.5 71t72.5 191q0 149 -92 247.5
t-228 98.5h-28q-34 0 -34 -37v-237h124q16 0 16 -14v-20q0 -15 -16 -15h-124v-214q0 -34 16 -52.5t44 -18.5h63z" />
    <glyph glyph-name="Ntilde" unicode="&#xd1;" horiz-adv-x="753" 
d="M230 778q-15 0 -12 19q8 45 35 75t69 30q36 0 86.5 -27t69.5 -27q33 0 47 27q7 13 19 13h8q17 0 12 -19q-25 -103 -102 -103q-33 0 -83.5 27.5t-72.5 27.5q-29 0 -46 -27q-10 -16 -20 -16h-10zM685 710q22 0 22 -15v-3q0 -8 -21 -25.5t-21 -39.5v-593q0 -34 -32 -34h-36
q-17 0 -37 28l-405 550v-493q0 -22 22 -40.5t22 -27.5v-3q0 -14 -22 -14h-103q-22 0 -22 14v3q0 9 19.5 27.5t19.5 40.5v541q0 22 -19.5 39t-19.5 26v4q0 15 22 15h99q25 0 42 -24l386 -537v478q0 22 -21 39.5t-21 25.5v3q0 15 22 15h104z" />
    <glyph glyph-name="Ograve" unicode="&#xd2;" horiz-adv-x="767" 
d="M461 778l-209 36q-15 1 -21.5 11t-2.5 24l13 47q8 34 41 18l196 -93q17 -9 12 -28q-6 -15 -29 -15zM390 -10q-155 0 -255 107.5t-100 257.5q0 159 98 262t252 103q153 0 250.5 -108.5t97.5 -260.5q0 -153 -99 -257t-244 -104zM422 44q84 0 138 64t54 155q0 170 -76 286.5
t-195 116.5q-85 0 -137 -61.5t-52 -159.5q0 -169 75 -285t193 -116z" />
    <glyph glyph-name="Oacute" unicode="&#xd3;" horiz-adv-x="767" 
d="M289 779q-21 -2 -28 14q-6 18 11 28l197 93q31 15 41 -17l12 -47q5 -14 -1.5 -24t-22.5 -11zM390 -10q-155 0 -255 107.5t-100 257.5q0 159 98 262t252 103q153 0 250.5 -108.5t97.5 -260.5q0 -153 -99 -257t-244 -104zM422 44q84 0 138 64t54 155q0 170 -76 286.5
t-195 116.5q-85 0 -137 -61.5t-52 -159.5q0 -169 75 -285t193 -116z" />
    <glyph glyph-name="Ocircumflex" unicode="&#xd4;" horiz-adv-x="767" 
d="M246 763q-17 -9 -30.5 4.5t3.5 31.5l110 105q16 16 36 16h24q19 0 36 -16l117 -105q18 -17 6 -32.5t-35 -3.5l-139 72zM385 720q153 0 250.5 -108.5t97.5 -260.5q0 -153 -99 -257t-244 -104q-155 0 -255 107.5t-100 257.5q0 159 98 262t252 103zM422 44q84 0 138 64
t54 155q0 170 -76 286.5t-195 116.5q-85 0 -137 -61.5t-52 -159.5q0 -169 75 -285t193 -116z" />
    <glyph glyph-name="Otilde" unicode="&#xd5;" horiz-adv-x="767" 
d="M317 902q36 0 86.5 -27t69.5 -27q33 0 47 27q6 13 19 13h8q17 0 12 -19q-25 -103 -102 -103q-33 0 -83.5 27.5t-72.5 27.5q-29 0 -46 -27q-10 -16 -20 -16h-10q-15 0 -12 19q8 45 35 75t69 30zM390 -10q-155 0 -255 107.5t-100 257.5q0 159 98 262t252 103
q153 0 250.5 -108.5t97.5 -260.5q0 -153 -99 -257t-244 -104zM422 44q84 0 138 64t54 155q0 170 -76 286.5t-195 116.5q-85 0 -137 -61.5t-52 -159.5q0 -169 75 -285t193 -116z" />
    <glyph glyph-name="Odieresis" unicode="&#xd6;" horiz-adv-x="767" 
d="M277 783q-34 0 -55 19.5t-21 49.5t21 49.5t55 19.5q33 0 53.5 -19.5t20.5 -49.5t-20.5 -49.5t-53.5 -19.5zM487 783q-33 0 -54 19.5t-21 49.5t21 49.5t54 19.5t54 -19.5t21 -49.5t-21 -49.5t-54 -19.5zM390 -10q-155 0 -255 107.5t-100 257.5q0 159 98 262t252 103
q153 0 250.5 -108.5t97.5 -260.5q0 -153 -99 -257t-244 -104zM422 44q84 0 138 64t54 155q0 170 -76 286.5t-195 116.5q-85 0 -137 -61.5t-52 -159.5q0 -169 75 -285t193 -116z" />
    <glyph glyph-name="multiply" unicode="&#xd7;" 
d="M166 110l-34 34q-8 10 4 22l111 112l-111 112q-12 12 -4 22l34 34q10 8 22 -4l112 -111l112 112q13 13 22 3l34 -34q9 -9 -4 -22l-111 -111l112 -113q13 -13 3 -22l-34 -34q-9 -9 -22 4l-112 111l-112 -111q-12 -12 -22 -4z" />
    <glyph glyph-name="Oslash" unicode="&#xd8;" horiz-adv-x="781" 
d="M665 587q76 -101 76 -236q0 -153 -99 -257t-244 -104q-150 0 -251 103l-69 -66q-11 -8 -21 0l-19 17q-9 9 5 22l70 67q-70 96 -70 222q0 159 98 262t252 103q140 0 237 -94l61 58q15 14 25 4l17 -16q11 -9 -3 -23zM162 445q0 -127 43 -225l342 327q-77 119 -196 119
q-85 0 -137 -61.5t-52 -159.5zM430 44q84 0 138 64t54 155q0 134 -49 237l-344 -328q78 -128 201 -128z" />
    <glyph glyph-name="Ugrave" unicode="&#xd9;" horiz-adv-x="720" 
d="M475 778l-209 36q-15 1 -21.5 11t-2.5 24l13 47q8 34 41 18l196 -93q17 -9 12 -28q-6 -15 -29 -15zM369 -10q-130 0 -210 76t-80 207v354q0 22 -19 39.5t-19 25.5v4q0 14 22 14h157q21 0 21 -14v-4q0 -8 -20 -25.5t-20 -39.5v-354q0 -107 52 -168t141 -61
q75 0 128.5 58.5t53.5 170.5v354q0 22 -19.5 39.5t-19.5 25.5v4q0 14 22 14h101q22 0 22 -14v-4q0 -8 -21 -25.5t-21 -39.5v-355q0 -130 -74.5 -206t-196.5 -76z" />
    <glyph glyph-name="Uacute" unicode="&#xda;" horiz-adv-x="720" 
d="M281 779q-21 -2 -28 14q-6 18 11 28l197 93q31 15 41 -17l12 -47q5 -14 -1.5 -24t-22.5 -11zM369 -10q-130 0 -210 76t-80 207v354q0 22 -19 39.5t-19 25.5v4q0 14 22 14h157q21 0 21 -14v-4q0 -8 -20 -25.5t-20 -39.5v-354q0 -107 52 -168t141 -61q75 0 128.5 58.5
t53.5 170.5v354q0 22 -19.5 39.5t-19.5 25.5v4q0 14 22 14h101q22 0 22 -14v-4q0 -8 -21 -25.5t-21 -39.5v-355q0 -130 -74.5 -206t-196.5 -76z" />
    <glyph glyph-name="Ucircumflex" unicode="&#xdb;" horiz-adv-x="720" 
d="M235 763q-17 -9 -30.5 4.5t3.5 31.5l110 105q16 16 36 16h24q19 0 36 -16l117 -105q18 -17 6 -32.5t-35 -3.5l-139 72zM660 710q22 0 22 -14v-4q0 -8 -21 -25.5t-21 -39.5v-355q0 -130 -74.5 -206t-196.5 -76q-130 0 -210 76t-80 207v354q0 22 -19 39.5t-19 25.5v4
q0 14 22 14h157q21 0 21 -14v-4q0 -8 -20 -25.5t-20 -39.5v-354q0 -107 52 -168t141 -61q75 0 128.5 58.5t53.5 170.5v354q0 22 -19.5 39.5t-19.5 25.5v4q0 14 22 14h101z" />
    <glyph glyph-name="Udieresis" unicode="&#xdc;" horiz-adv-x="720" 
d="M269 783q-34 0 -55 19.5t-21 49.5t21 49.5t55 19.5q33 0 53.5 -19.5t20.5 -49.5t-20.5 -49.5t-53.5 -19.5zM479 783q-33 0 -54 19.5t-21 49.5t21 49.5t54 19.5t54 -19.5t21 -49.5t-21 -49.5t-54 -19.5zM369 -10q-130 0 -210 76t-80 207v354q0 22 -19 39.5t-19 25.5v4
q0 14 22 14h157q21 0 21 -14v-4q0 -8 -20 -25.5t-20 -39.5v-354q0 -107 52 -168t141 -61q75 0 128.5 58.5t53.5 170.5v354q0 22 -19.5 39.5t-19.5 25.5v4q0 14 22 14h101q22 0 22 -14v-4q0 -8 -21 -25.5t-21 -39.5v-355q0 -130 -74.5 -206t-196.5 -76z" />
    <glyph glyph-name="Yacute" unicode="&#xdd;" horiz-adv-x="672" 
d="M258 779q-21 -2 -28 14q-6 18 11 28l197 93q31 15 41 -17l12 -47q5 -14 -1.5 -24t-22.5 -11zM643 710q21 0 21 -14v-3q0 -11 -22 -27t-35 -39l-202 -339v-205q0 -22 20 -39.5t20 -26.5v-3q0 -14 -21 -14h-157q-21 0 -21 14v3q0 9 18.5 26.5t18.5 39.5v196l-222 348
q-12 20 -36 37.5t-24 28.5v3q0 14 22 14h184q22 0 22 -14v-3q0 -8 -13.5 -18.5t-21.5 -19t0 -28.5l174 -299l177 299q8 21 0 29.5t-22.5 18.5t-14.5 18v3q0 14 20 14h115z" />
    <glyph glyph-name="Thorn" unicode="&#xde;" horiz-adv-x="634" 
d="M75 0q-21 0 -21 15v3q0 9 18.5 26.5t18.5 39.5v542q0 23 -18.5 40.5t-18.5 26.5v3q0 14 21 14h156q21 0 21 -14v-3q0 -9 -20 -26.5t-20 -40.5v-37h77q141 0 228.5 -56.5t87.5 -164.5q0 -111 -81 -171t-218 -60h-94v-53q0 -22 20 -39.5t20 -26.5v-3q0 -15 -21 -15h-156z
M243 188h72q77 0 121.5 41.5t44.5 119.5q0 88 -55.5 138.5t-131.5 50.5h-51q-31 0 -31 -33v-285q0 -32 31 -32z" />
    <glyph glyph-name="germandbls" unicode="&#xdf;" horiz-adv-x="579" 
d="M387 392q73 -16 118.5 -69t45.5 -132q0 -88 -64.5 -139.5t-158.5 -51.5q-14 0 -19.5 12t-1 23.5t16.5 11.5q48 0 78 31.5t30 94.5q0 84 -36 136t-100 52q-19 0 -19 25t19 25q34 0 59.5 33t25.5 90q0 164 -103 164q-45 0 -70 -34t-25 -85v-494q0 -23 23.5 -40t23.5 -28v-3
q0 -4 -1 -7l-1.5 -4.5t-4 -2t-4.5 -0.5h-6h-166q-18 0 -18 14v3q0 9 19.5 27t19.5 41v447q0 90 58.5 147t158.5 57q87 0 147.5 -52t60.5 -137q0 -54 -30.5 -95.5t-75.5 -59.5z" />
    <glyph glyph-name="agrave" unicode="&#xe0;" horiz-adv-x="521" 
d="M122 625q-31 9 -17 39l22 44q15 30 44 9l174 -129q16 -13 6 -30q-9 -14 -31 -9zM465 90q2 -22 11.5 -34.5t19 -15.5t17 -8t7.5 -13q0 -25 -81 -25q-40 0 -58.5 12.5t-21.5 47.5q-40 -64 -139 -64q-84 0 -135.5 39.5t-51.5 111.5q-1 71 51 110.5t131 39.5q72 0 116 -34
l-2 20q-9 92 -32 134t-73 42q-31 0 -51.5 -19t-28 -41.5t-21.5 -41.5t-35 -19q-22 0 -35.5 12.5t-13.5 33.5q0 48 52.5 80t132.5 32q94 0 152 -55.5t69 -152.5zM253 28q41 0 66.5 30t23.5 71l-3 31q-3 43 -29 68t-66 25q-42 0 -68 -26.5t-26 -71.5q0 -53 28.5 -90t73.5 -37z
" />
    <glyph glyph-name="aacute" unicode="&#xe1;" horiz-adv-x="521" 
d="M150 554q-21 -7 -31 8q-9 17 6 30l175 129q27 21 44 -9l21 -44q7 -12 2.5 -23.5t-19.5 -15.5zM465 90q2 -22 11.5 -34.5t19 -15.5t17 -8t7.5 -13q0 -25 -81 -25q-40 0 -58.5 12.5t-21.5 47.5q-40 -64 -139 -64q-84 0 -135.5 39.5t-51.5 111.5q-1 71 51 110.5t131 39.5
q72 0 116 -34l-2 20q-9 92 -32 134t-73 42q-31 0 -51.5 -19t-28 -41.5t-21.5 -41.5t-35 -19q-22 0 -35.5 12.5t-13.5 33.5q0 48 52.5 80t132.5 32q94 0 152 -55.5t69 -152.5zM253 28q41 0 66.5 30t23.5 71l-3 31q-3 43 -29 68t-66 25q-42 0 -68 -26.5t-26 -71.5
q0 -53 28.5 -90t73.5 -37z" />
    <glyph glyph-name="acircumflex" unicode="&#xe2;" horiz-adv-x="521" 
d="M101 553q-17 -9 -30.5 4.5t3.5 31.5l110 105q16 16 36 16h24q19 0 36 -16l117 -105q18 -17 6 -32.5t-35 -3.5l-139 72zM465 90q2 -22 11.5 -34.5t19 -15.5t17 -8t7.5 -13q0 -25 -81 -25q-40 0 -58.5 12.5t-21.5 47.5q-40 -64 -139 -64q-84 0 -135.5 39.5t-51.5 111.5
q-1 71 51 110.5t131 39.5q72 0 116 -34l-2 20q-9 92 -32 134t-73 42q-31 0 -51.5 -19t-28 -41.5t-21.5 -41.5t-35 -19q-22 0 -35.5 12.5t-13.5 33.5q0 48 52.5 80t132.5 32q94 0 152 -55.5t69 -152.5zM253 28q41 0 66.5 30t23.5 71l-3 31q-3 43 -29 68t-66 25
q-42 0 -68 -26.5t-26 -71.5q0 -53 28.5 -90t73.5 -37z" />
    <glyph glyph-name="atilde" unicode="&#xe3;" horiz-adv-x="521" 
d="M70 592q-15 0 -12 19q8 45 35 75t69 30q36 0 86.5 -27t69.5 -27q33 0 47 27q7 13 19 13h8q17 0 12 -19q-25 -103 -102 -103q-33 0 -83.5 27.5t-72.5 27.5q-29 0 -46 -27q-10 -16 -20 -16h-10zM465 90q2 -22 11.5 -34.5t19 -15.5t17 -8t7.5 -13q0 -25 -81 -25
q-40 0 -58.5 12.5t-21.5 47.5q-40 -64 -139 -64q-84 0 -135.5 39.5t-51.5 111.5q-1 71 51 110.5t131 39.5q72 0 116 -34l-2 20q-9 92 -32 134t-73 42q-31 0 -51.5 -19t-28 -41.5t-21.5 -41.5t-35 -19q-22 0 -35.5 12.5t-13.5 33.5q0 48 52.5 80t132.5 32q94 0 152 -55.5
t69 -152.5zM253 28q41 0 66.5 30t23.5 71l-3 31q-3 43 -29 68t-66 25q-42 0 -68 -26.5t-26 -71.5q0 -53 28.5 -90t73.5 -37z" />
    <glyph glyph-name="adieresis" unicode="&#xe4;" horiz-adv-x="521" 
d="M132 566q-34 0 -55 19.5t-21 49.5t21 49.5t55 19.5q33 0 53.5 -19.5t20.5 -49.5t-20.5 -49.5t-53.5 -19.5zM342 566q-33 0 -54 19.5t-21 49.5t21 49.5t54 19.5t54 -19.5t21 -49.5t-21 -49.5t-54 -19.5zM465 90q2 -22 11.5 -34.5t19 -15.5t17 -8t7.5 -13q0 -25 -81 -25
q-40 0 -58.5 12.5t-21.5 47.5q-40 -64 -139 -64q-84 0 -135.5 39.5t-51.5 111.5q-1 71 51 110.5t131 39.5q72 0 116 -34l-2 20q-9 92 -32 134t-73 42q-31 0 -51.5 -19t-28 -41.5t-21.5 -41.5t-35 -19q-22 0 -35.5 12.5t-13.5 33.5q0 48 52.5 80t132.5 32q94 0 152 -55.5
t69 -152.5zM253 28q41 0 66.5 30t23.5 71l-3 31q-3 43 -29 68t-66 25q-42 0 -68 -26.5t-26 -71.5q0 -53 28.5 -90t73.5 -37z" />
    <glyph glyph-name="aring" unicode="&#xe5;" horiz-adv-x="521" 
d="M235 540q-55 0 -91 30t-36 73q0 47 35.5 76.5t92.5 29.5q55 0 91.5 -29t36.5 -73q0 -47 -35.5 -77t-93.5 -30zM236 710q-25 0 -40.5 -16.5t-15.5 -48.5q0 -29 16 -48.5t40 -19.5q25 0 40.5 18t15.5 50q0 29 -16 47t-40 18zM465 90q2 -22 11.5 -34.5t19 -15.5t17 -8
t7.5 -13q0 -25 -81 -25q-40 0 -58.5 12.5t-21.5 47.5q-40 -64 -139 -64q-84 0 -135.5 39.5t-51.5 111.5q-1 71 51 110.5t131 39.5q72 0 116 -34l-2 20q-9 92 -32 134t-73 42q-31 0 -51.5 -19t-28 -41.5t-21.5 -41.5t-35 -19q-22 0 -35.5 12.5t-13.5 33.5q0 48 52.5 80
t132.5 32q94 0 152 -55.5t69 -152.5zM253 28q41 0 66.5 30t23.5 71l-3 31q-3 43 -29 68t-66 25q-42 0 -68 -26.5t-26 -71.5q0 -53 28.5 -90t73.5 -37z" />
    <glyph glyph-name="ae" unicode="&#xe6;" horiz-adv-x="795" 
d="M739 151q8 11 21 8t11 -18q-8 -53 -62 -100t-141 -47q-129 0 -194 104q-11 -46 -50.5 -77t-103.5 -31q-83 0 -135 40.5t-52 110.5t50.5 110t131.5 40q72 0 117 -34l-2 20q-9 92 -32.5 134t-73.5 42q-31 0 -50.5 -19t-26.5 -41.5t-21.5 -41.5t-36.5 -19q-23 0 -36.5 13
t-13.5 34q0 48 55.5 79.5t129.5 31.5q109 0 170 -75q68 79 176 79q90 0 138.5 -44.5t48.5 -102.5q0 -52 -51 -70l-242 -89q19 -52 57 -81t90 -29q70 0 128 73zM550 456q-47 0 -75 -45t-28 -118q0 -34 6 -64l166 72q26 12 26 42q0 36 -27.5 74.5t-67.5 38.5zM253 29
q42 0 66.5 33.5t23.5 74.5l-3 32q-5 38 -31 60t-64 22q-41 0 -67 -24t-26 -62q0 -59 27.5 -97.5t73.5 -38.5z" />
    <glyph glyph-name="ccedilla" unicode="&#xe7;" horiz-adv-x="504" 
d="M447 155q8 12 21 9t11 -18q-8 -62 -58 -107.5t-132 -48.5l-2 -45q47 1 81 -19t34 -57t-36.5 -58.5t-89.5 -21.5q-46 0 -84 18q-18 9 -12 32q5 19 18 11q26 -15 60 -15q24 0 40 9.5t15 28.5q-1 33 -60 33q-13 0 -20 8.5t-5 21.5l11 57q-94 14 -155.5 84t-61.5 165
q0 111 73 179t179 69q82 1 141.5 -39.5t59.5 -92.5q0 -19 -12.5 -31.5t-38.5 -11.5q-24 1 -43 23t-31 47t-36.5 46t-58.5 21q-51 0 -83 -44t-32 -110q0 -102 49 -163.5t129 -61.5q87 0 129 82z" />
    <glyph glyph-name="egrave" unicode="&#xe8;" horiz-adv-x="493" 
d="M136 625q-31 9 -17 39l22 44q15 30 44 9l174 -129q16 -13 6 -30q-9 -14 -31 -9zM438 147q8 11 20.5 8t11.5 -18q-8 -53 -62 -100t-141 -47q-102 0 -169.5 70t-67.5 184q0 106 69.5 176t169.5 70q90 0 138.5 -44.5t48.5 -102.5q0 -52 -51 -70l-242 -89q19 -52 57 -81
t90 -29q45 0 78.5 20.5t49.5 52.5zM249 452q-47 0 -75 -45t-28 -118q0 -34 6 -64l166 72q26 12 26 42q0 36 -27.5 74.5t-67.5 38.5z" />
    <glyph glyph-name="eacute" unicode="&#xe9;" horiz-adv-x="493" 
d="M163 554q-21 -7 -31 8q-9 17 6 30l175 129q27 21 44 -9l21 -44q7 -12 2.5 -23.5t-19.5 -15.5zM438 147q8 11 20.5 8t11.5 -18q-8 -53 -62 -100t-141 -47q-102 0 -169.5 70t-67.5 184q0 106 69.5 176t169.5 70q90 0 138.5 -44.5t48.5 -102.5q0 -52 -51 -70l-242 -89
q19 -52 57 -81t90 -29q45 0 78.5 20.5t49.5 52.5zM249 452q-47 0 -75 -45t-28 -118q0 -34 6 -64l166 72q26 12 26 42q0 36 -27.5 74.5t-67.5 38.5z" />
    <glyph glyph-name="ecircumflex" unicode="&#xea;" horiz-adv-x="493" 
d="M115 553q-17 -9 -30.5 4.5t3.5 31.5l110 105q16 16 36 16h24q19 0 36 -16l117 -105q18 -17 6 -32.5t-35 -3.5l-139 72zM438 147q8 11 20.5 8t11.5 -18q-8 -53 -62 -100t-141 -47q-102 0 -169.5 70t-67.5 184q0 106 69.5 176t169.5 70q90 0 138.5 -44.5t48.5 -102.5
q0 -52 -51 -70l-242 -89q19 -52 57 -81t90 -29q45 0 78.5 20.5t49.5 52.5zM249 452q-47 0 -75 -45t-28 -118q0 -34 6 -64l166 72q26 12 26 42q0 36 -27.5 74.5t-67.5 38.5z" />
    <glyph glyph-name="edieresis" unicode="&#xeb;" horiz-adv-x="493" 
d="M145 566q-34 0 -55 19.5t-21 49.5t21 49.5t55 19.5q33 0 53.5 -19.5t20.5 -49.5t-20.5 -49.5t-53.5 -19.5zM355 566q-33 0 -54 19.5t-21 49.5t21 49.5t54 19.5t54 -19.5t21 -49.5t-21 -49.5t-54 -19.5zM438 147q8 11 20.5 8t11.5 -18q-8 -53 -62 -100t-141 -47
q-102 0 -169.5 70t-67.5 184q0 106 69.5 176t169.5 70q90 0 138.5 -44.5t48.5 -102.5q0 -52 -51 -70l-242 -89q19 -52 57 -81t90 -29q45 0 78.5 20.5t49.5 52.5zM249 452q-47 0 -75 -45t-28 -118q0 -34 6 -64l166 72q26 12 26 42q0 36 -27.5 74.5t-67.5 38.5z" />
    <glyph glyph-name="igrave" unicode="&#xec;" horiz-adv-x="265" 
d="M224 549l-198 76q-31 9 -17 39l22 44q15 30 44 9l174 -129q16 -13 6 -30q-9 -14 -31 -9zM59 0q-21 0 -21 15v4q0 9 18.5 26t18.5 39v262q0 23 -18.5 43t-18.5 26v3q0 8 18 18l100 50q17 7 26.5 1.5t9.5 -18.5v-385q0 -22 20.5 -39t20.5 -26v-4q0 -15 -22 -15h-152z" />
    <glyph glyph-name="iacute" unicode="&#xed;" horiz-adv-x="265" 
d="M54 554q-21 -7 -31 8q-9 17 6 30l175 129q27 21 44 -9l21 -44q7 -12 2.5 -23.5t-19.5 -15.5zM59 0q-21 0 -21 15v4q0 9 18.5 26t18.5 39v262q0 23 -18.5 43t-18.5 26v3q0 8 18 18l100 50q17 7 26.5 1.5t9.5 -18.5v-385q0 -22 20.5 -39t20.5 -26v-4q0 -15 -22 -15h-152z
" />
    <glyph glyph-name="icircumflex" unicode="&#xee;" horiz-adv-x="265" 
d="M301 589q18 -17 6 -32.5t-35 -3.5l-139 72l-128 -72q-17 -9 -30.5 4.5t3.5 31.5l110 105q16 16 36 16h24q19 0 36 -16zM192 84q0 -22 20.5 -39t20.5 -26v-4q0 -15 -22 -15h-152q-21 0 -21 15v4q0 9 18.5 26t18.5 39v262q0 23 -18.5 43t-18.5 26v3q0 8 18 18l100 50
q17 7 26.5 1.5t9.5 -18.5v-385z" />
    <glyph glyph-name="idieresis" unicode="&#xef;" horiz-adv-x="265" 
d="M35 566q-34 0 -55 19.5t-21 49.5t21 49.5t55 19.5q33 0 53.5 -19.5t20.5 -49.5t-20.5 -49.5t-53.5 -19.5zM245 566q-33 0 -54 19.5t-21 49.5t21 49.5t54 19.5t54 -19.5t21 -49.5t-21 -49.5t-54 -19.5zM59 0q-21 0 -21 15v4q0 9 18.5 26t18.5 39v262q0 23 -18.5 43
t-18.5 26v3q0 8 18 18l100 50q17 7 26.5 1.5t9.5 -18.5v-385q0 -22 20.5 -39t20.5 -26v-4q0 -15 -22 -15h-152z" />
    <glyph glyph-name="eth" unicode="&#xf0;" horiz-adv-x="575" 
d="M385 616q158 -155 158 -374q0 -115 -69.5 -183.5t-183.5 -68.5q-116 0 -188 72.5t-72 182.5q0 106 64.5 175.5t163.5 69.5q78 0 128 -53q-28 80 -91 148l-125 -44q-15 -6 -20 6l-8 17q-6 15 11 22l103 36q-37 32 -95 75q-18 15 -11.5 31.5t23.5 13.5q91 -25 171 -89
l110 38q15 5 20 -6l8 -18q6 -14 -12 -21zM307 28q51 0 82.5 44.5t31.5 113.5v16q-11 127 -53 188.5t-102 61.5q-55 0 -86.5 -45t-31.5 -123q0 -111 44.5 -183.5t114.5 -72.5z" />
    <glyph glyph-name="ntilde" unicode="&#xf1;" horiz-adv-x="588" 
d="M143 592q-15 0 -12 19q8 45 35 75t69 30q36 0 86.5 -27t69.5 -27q33 0 47 27q6 13 19 13h8q17 0 12 -19q-25 -103 -102 -103q-33 0 -83.5 27.5t-72.5 27.5q-29 0 -46 -27q-10 -16 -20 -16h-10zM532 84q1 -22 18.5 -39.5t17.5 -26.5v-4q0 -15 -22 -15h-146q-22 0 -22 15v4
q0 9 18.5 26.5t17.5 39.5l-10 193q-7 165 -105 165q-47 0 -76 -34.5t-29 -89.5v-235q0 -22 20.5 -39t20.5 -26v-4q0 -15 -22 -15h-155q-21 0 -21 15v4q0 9 20 26t20 39v268q0 19 -11.5 31t-22.5 19.5t-11 16.5v3q0 10 18 18l97 47q16 7 23.5 1.5t7.5 -19.5v-65q21 41 61 64
t91 23q77 0 130 -53t60 -164z" />
    <glyph glyph-name="ograve" unicode="&#xf2;" horiz-adv-x="572" 
d="M370 549l-198 76q-31 9 -17 39l22 44q15 30 44 9l174 -129q16 -13 6 -30q-9 -14 -31 -9zM300 -10q-123 0 -197 75t-74 180t72 175t176 70q116 0 190 -73.5t74 -179.5q0 -105 -67 -176t-174 -71zM315 28q48 0 78 44.5t30 123.5q0 106 -45.5 181t-113.5 75
q-54 0 -85.5 -43.5t-31.5 -124.5q0 -98 47.5 -177t120.5 -79z" />
    <glyph glyph-name="oacute" unicode="&#xf3;" horiz-adv-x="572" 
d="M200 554q-21 -7 -31 8q-9 17 6 30l175 129q27 21 44 -9l21 -44q7 -12 2.5 -23.5t-19.5 -15.5zM300 -10q-123 0 -197 75t-74 180t72 175t176 70q116 0 190 -73.5t74 -179.5q0 -105 -67 -176t-174 -71zM315 28q48 0 78 44.5t30 123.5q0 106 -45.5 181t-113.5 75
q-54 0 -85.5 -43.5t-31.5 -124.5q0 -98 47.5 -177t120.5 -79z" />
    <glyph glyph-name="ocircumflex" unicode="&#xf4;" horiz-adv-x="572" 
d="M151 553q-17 -9 -30.5 4.5t3.5 31.5l110 105q16 16 36 16h24q19 0 36 -16l117 -105q18 -17 6 -32.5t-35 -3.5l-139 72zM277 490q116 0 190 -73.5t74 -179.5q0 -105 -67 -176t-174 -71q-123 0 -197 75t-74 180t72 175t176 70zM315 28q48 0 78 44.5t30 123.5
q0 106 -45.5 181t-113.5 75q-54 0 -85.5 -43.5t-31.5 -124.5q0 -98 47.5 -177t120.5 -79z" />
    <glyph glyph-name="otilde" unicode="&#xf5;" horiz-adv-x="572" 
d="M211 716q36 0 86.5 -27t69.5 -27q33 0 47 27q6 13 19 13h8q17 0 12 -19q-25 -103 -102 -103q-33 0 -83.5 27.5t-72.5 27.5q-29 0 -46 -27q-10 -16 -20 -16h-10q-15 0 -12 19q8 45 35 75t69 30zM300 -10q-123 0 -197 75t-74 180t72 175t176 70q116 0 190 -73.5t74 -179.5
q0 -105 -67 -176t-174 -71zM315 28q48 0 78 44.5t30 123.5q0 106 -45.5 181t-113.5 75q-54 0 -85.5 -43.5t-31.5 -124.5q0 -98 47.5 -177t120.5 -79z" />
    <glyph glyph-name="odieresis" unicode="&#xf6;" horiz-adv-x="572" 
d="M181 566q-34 0 -55 19.5t-21 49.5t21 49.5t55 19.5q33 0 53.5 -19.5t20.5 -49.5t-20.5 -49.5t-53.5 -19.5zM391 566q-33 0 -54 19.5t-21 49.5t21 49.5t54 19.5t54 -19.5t21 -49.5t-21 -49.5t-54 -19.5zM300 -10q-123 0 -197 75t-74 180t72 175t176 70q116 0 190 -73.5
t74 -179.5q0 -105 -67 -176t-174 -71zM315 28q48 0 78 44.5t30 123.5q0 106 -45.5 181t-113.5 75q-54 0 -85.5 -43.5t-31.5 -124.5q0 -98 47.5 -177t120.5 -79z" />
    <glyph glyph-name="divide" unicode="&#xf7;" 
d="M300 410q-35 0 -56.5 20.5t-21.5 51.5t21.5 51.5t56.5 20.5q34 0 55.5 -20.5t21.5 -51.5t-21.5 -51.5t-55.5 -20.5zM110 240q-17 0 -17 13v50q0 13 17 13h380q18 0 18 -13v-50q0 -13 -18 -13h-380zM300 -10q-35 0 -56.5 20.5t-21.5 51.5t21.5 51.5t56.5 20.5
q34 0 55.5 -20.5t21.5 -51.5t-21.5 -51.5t-55.5 -20.5z" />
    <glyph glyph-name="oslash" unicode="&#xf8;" horiz-adv-x="580" 
d="M542 451l-55 -52q58 -69 58 -162q0 -105 -67 -176t-174 -71t-180 60l-57 -55q-9 -9 -18 0l-17 16q-10 10 3 21l55 52q-57 69 -57 161q0 105 72 175t176 70q101 0 171 -57l54 52q12 12 24 2l14 -14q10 -10 -2 -22zM151 284q0 -64 21 -120l214 206q-46 82 -118 82
q-54 0 -85.5 -43.5t-31.5 -124.5zM427 196q0 68 -20 126l-214 -206q51 -88 126 -88q48 0 78 44.5t30 123.5z" />
    <glyph glyph-name="ugrave" unicode="&#xf9;" horiz-adv-x="575" 
d="M175 625q-31 9 -17 39l22 44q15 30 44 9l174 -129q16 -13 6 -30q-9 -14 -31 -9zM503 94q0 -26 8 -39t17.5 -14.5t17.5 -6t8 -15.5q0 -25 -75 -25q-42 0 -62 17t-19 57q-44 -78 -150 -78q-84 0 -135 56t-51 162v173q0 23 -19 41.5t-19 25.5v3q0 15 18 18l105 17
q34 5 34 -15l-2 -274q0 -159 100 -159q46 0 76.5 37.5t30.5 97.5v208q0 23 -19.5 41.5t-19.5 25.5v3q0 15 17 18l107 17q32 5 32 -15v-377z" />
    <glyph glyph-name="uacute" unicode="&#xfa;" horiz-adv-x="575" 
d="M202 554q-21 -7 -31 8q-9 17 6 30l175 129q27 21 44 -9l21 -44q7 -12 2.5 -23.5t-19.5 -15.5zM503 94q0 -26 8 -39t17.5 -14.5t17.5 -6t8 -15.5q0 -25 -75 -25q-42 0 -62 17t-19 57q-44 -78 -150 -78q-84 0 -135 56t-51 162v173q0 23 -19 41.5t-19 25.5v3q0 15 18 18
l105 17q34 5 34 -15l-2 -274q0 -159 100 -159q46 0 76.5 37.5t30.5 97.5v208q0 23 -19.5 41.5t-19.5 25.5v3q0 15 17 18l107 17q32 5 32 -15v-377z" />
    <glyph glyph-name="ucircumflex" unicode="&#xfb;" horiz-adv-x="575" 
d="M154 553q-17 -9 -30.5 4.5t3.5 31.5l110 105q16 16 36 16h24q19 0 36 -16l117 -105q18 -17 6 -32.5t-35 -3.5l-139 72zM503 94q0 -26 8 -39t17.5 -14.5t17.5 -6t8 -15.5q0 -25 -75 -25q-42 0 -62 17t-19 57q-44 -78 -150 -78q-84 0 -135 56t-51 162v173q0 23 -19 41.5
t-19 25.5v3q0 15 18 18l105 17q34 5 34 -15l-2 -274q0 -159 100 -159q46 0 76.5 37.5t30.5 97.5v208q0 23 -19.5 41.5t-19.5 25.5v3q0 15 17 18l107 17q32 5 32 -15v-377z" />
    <glyph glyph-name="udieresis" unicode="&#xfc;" horiz-adv-x="575" 
d="M184 566q-34 0 -55 19.5t-21 49.5t21 49.5t55 19.5q33 0 53.5 -19.5t20.5 -49.5t-20.5 -49.5t-53.5 -19.5zM394 566q-33 0 -54 19.5t-21 49.5t21 49.5t54 19.5t54 -19.5t21 -49.5t-21 -49.5t-54 -19.5zM503 94q0 -26 8 -39t17.5 -14.5t17.5 -6t8 -15.5q0 -25 -75 -25
q-42 0 -62 17t-19 57q-44 -78 -150 -78q-84 0 -135 56t-51 162v173q0 23 -19 41.5t-19 25.5v3q0 15 18 18l105 17q34 5 34 -15l-2 -274q0 -159 100 -159q46 0 76.5 37.5t30.5 97.5v208q0 23 -19.5 41.5t-19.5 25.5v3q0 15 17 18l107 17q32 5 32 -15v-377z" />
    <glyph glyph-name="yacute" unicode="&#xfd;" horiz-adv-x="535" 
d="M202 554q-21 -7 -31 8q-9 17 6 30l175 129q27 21 44 -9l21 -44q7 -12 2.5 -23.5t-19.5 -15.5zM519 480q17 0 17 -14v-4q0 -11 -19 -29.5t-29 -40.5l-189 -414q-18 -41 -30.5 -65t-36 -58t-53.5 -51t-65 -17q-59 0 -97 30.5t-38 67.5q0 22 13 36t36 14q22 0 36 -16.5
t19.5 -37t17.5 -37t31 -16.5q52 0 112 149l-195 415q-11 22 -31 40.5t-20 29.5v4q0 14 18 14h158q17 0 17 -15v-3q0 -8 -9 -18t-12.5 -19t5.5 -34l132 -303l124 292q9 30 0 41.5t-25 22t-16 18.5v3q0 15 18 15h111z" />
    <glyph glyph-name="thorn" unicode="&#xfe;" horiz-adv-x="568" 
d="M305 490q95 0 163.5 -66.5t68.5 -175.5q0 -112 -67.5 -185t-163.5 -73q-81 0 -132 53v-181q0 -22 20.5 -39t20.5 -27v-3q0 -15 -21 -15h-153q-21 0 -21 15v3q0 10 19 27t19 39v748q0 20 -21.5 36.5t-21.5 26.5v4q0 13 18 21l107 51q19 8 27 3t8 -19v-294q48 51 130 51z
M292 28q60 0 93.5 48t33.5 135q0 108 -39.5 174.5t-103.5 66.5q-38 0 -66.5 -26.5t-34.5 -66.5l-1 -199q4 -52 39.5 -92t78.5 -40z" />
    <glyph glyph-name="ydieresis" unicode="&#xff;" horiz-adv-x="535" 
d="M184 566q-34 0 -55 19.5t-21 49.5t21 49.5t55 19.5q33 0 53.5 -19.5t20.5 -49.5t-20.5 -49.5t-53.5 -19.5zM394 566q-33 0 -54 19.5t-21 49.5t21 49.5t54 19.5t54 -19.5t21 -49.5t-21 -49.5t-54 -19.5zM519 480q17 0 17 -14v-4q0 -11 -19 -29.5t-29 -40.5l-189 -414
q-18 -41 -30.5 -65t-36 -58t-53.5 -51t-65 -17q-59 0 -97 30.5t-38 67.5q0 22 13 36t36 14q22 0 36 -16.5t19.5 -37t17.5 -37t31 -16.5q52 0 112 149l-195 415q-11 22 -31 40.5t-20 29.5v4q0 14 18 14h158q17 0 17 -15v-3q0 -8 -9 -18t-12.5 -19t5.5 -34l132 -303l124 292
q9 30 0 41.5t-25 22t-16 18.5v3q0 15 18 15h111z" />
    <glyph glyph-name="Amacron" unicode="&#x100;" horiz-adv-x="681" 
d="M192 804q-20 0 -20 18v39q0 18 20 18h269q20 0 20 -18v-39q0 -18 -20 -18h-269zM633 83q9 -22 30 -39t21 -27v-3q0 -14 -21 -14h-178q-21 0 -21 14v3q0 8 12.5 17t22 20.5t2.5 28.5l-39 99h-302l-37 -99q-7 -17 2.5 -28.5t22 -20.5t12.5 -17v-3q0 -14 -22 -14h-113
q-21 0 -21 14v3q0 10 21 26.5t30 39.5l210 539q7 19 -13 42t-20 29v3q0 14 17 14h79q39 0 54 -38zM180 236h261l-134 342z" />
    <glyph glyph-name="amacron" unicode="&#x101;" horiz-adv-x="521" 
d="M101 595q-20 0 -20 18v39q0 18 20 18h269q20 0 20 -18v-39q0 -18 -20 -18h-269zM465 90q2 -22 11.5 -34.5t19 -15.5t17 -8t7.5 -13q0 -25 -81 -25q-40 0 -58.5 12.5t-21.5 47.5q-40 -64 -139 -64q-84 0 -135.5 39.5t-51.5 111.5q-1 71 51 110.5t131 39.5q72 0 116 -34
l-2 20q-9 92 -32 134t-73 42q-31 0 -51.5 -19t-28 -41.5t-21.5 -41.5t-35 -19q-22 0 -35.5 12.5t-13.5 33.5q0 48 52.5 80t132.5 32q94 0 152 -55.5t69 -152.5zM253 28q41 0 66.5 30t23.5 71l-3 31q-3 43 -29 68t-66 25q-42 0 -68 -26.5t-26 -71.5q0 -53 28.5 -90t73.5 -37z
" />
    <glyph glyph-name="Abreve" unicode="&#x102;" horiz-adv-x="681" 
d="M327 769q-64 0 -108.5 37.5t-52.5 91.5q-3 19 17 24t26 -8q11 -30 44 -47.5t74 -17.5q42 0 75 17.5t44 47.5q6 12 25.5 7t17.5 -23q-7 -54 -51.5 -91.5t-110.5 -37.5zM633 83q9 -22 30 -39t21 -27v-3q0 -14 -21 -14h-178q-21 0 -21 14v3q0 8 12.5 17t22 20.5t2.5 28.5
l-39 99h-302l-37 -99q-7 -17 2.5 -28.5t22 -20.5t12.5 -17v-3q0 -14 -22 -14h-113q-21 0 -21 14v3q0 10 21 26.5t30 39.5l210 539q7 19 -13 42t-20 29v3q0 14 17 14h79q39 0 54 -38zM180 236h261l-134 342z" />
    <glyph glyph-name="abreve" unicode="&#x103;" horiz-adv-x="521" 
d="M235 557q-64 0 -108.5 37.5t-52.5 91.5q-3 19 17 24t26 -8q11 -30 44 -47.5t74 -17.5q42 0 75 17.5t44 47.5q6 12 25.5 7t17.5 -23q-7 -54 -51.5 -91.5t-110.5 -37.5zM465 90q2 -22 11.5 -34.5t19 -15.5t17 -8t7.5 -13q0 -25 -81 -25q-40 0 -58.5 12.5t-21.5 47.5
q-40 -64 -139 -64q-84 0 -135.5 39.5t-51.5 111.5q-1 71 51 110.5t131 39.5q72 0 116 -34l-2 20q-9 92 -32 134t-73 42q-31 0 -51.5 -19t-28 -41.5t-21.5 -41.5t-35 -19q-22 0 -35.5 12.5t-13.5 33.5q0 48 52.5 80t132.5 32q94 0 152 -55.5t69 -152.5zM253 28q41 0 66.5 30
t23.5 71l-3 31q-3 43 -29 68t-66 25q-42 0 -68 -26.5t-26 -71.5q0 -53 28.5 -90t73.5 -37z" />
    <glyph glyph-name="Aogonek" unicode="&#x104;" horiz-adv-x="681" 
d="M633 83q9 -22 30 -39t21 -27v-3q0 -14 -21 -14h-53q-64 -67 -64 -120q0 -48 36 -48q9 0 24 5q17 6 22 -13q5 -22 -13 -32q-1 -1 -2 -1q-18 -10 -50 -10q-41 0 -71.5 21t-30.5 62q0 72 108 136h-84q-21 0 -21 14v3q0 8 12.5 17t22 20.5t2.5 28.5l-39 99h-302l-37 -99
q-7 -17 2.5 -28.5t22 -20.5t12.5 -17v-3q0 -14 -22 -14h-113q-21 0 -21 14v3q0 10 21 26.5t30 39.5l210 539q7 19 -13 42t-20 29v3q0 14 17 14h79q39 0 54 -38zM180 236h261l-134 342z" />
    <glyph glyph-name="aogonek" unicode="&#x105;" horiz-adv-x="521" 
d="M520 19q0 -21 -56 -24q-51 -61 -51 -106q0 -48 36 -48q9 0 24 5q17 6 22 -13q5 -22 -13 -32q-1 -1 -2 -1q-18 -10 -50 -10q-41 0 -71.5 21t-30.5 62q0 63 87 122q-27 3 -40.5 16.5t-15.5 42.5q-40 -64 -139 -64q-84 0 -135.5 39.5t-51.5 111.5q-1 71 51 110.5t131 39.5
q72 0 116 -34l-2 20q-9 92 -32 134t-73 42q-31 0 -51.5 -19t-28 -41.5t-21.5 -41.5t-35 -19q-22 0 -35.5 12.5t-13.5 33.5q0 48 52.5 80t132.5 32q94 0 152 -55.5t69 -152.5l20 -192q2 -22 11.5 -34.5t19 -15.5t17 -8t7.5 -13zM253 28q41 0 66.5 30t23.5 71l-3 31
q-3 43 -29 68t-66 25q-42 0 -68 -26.5t-26 -71.5q0 -53 28.5 -90t73.5 -37z" />
    <glyph glyph-name="Cacute" unicode="&#x106;" horiz-adv-x="673" 
d="M261 779q-21 -2 -28 14q-6 18 11 28l197 93q31 15 41 -17l12 -47q5 -14 -1.5 -24t-22.5 -11zM366 -10q-134 0 -236.5 114.5t-102.5 258.5q0 156 93 256t239 100q113 0 196 -60.5t83 -126.5q0 -25 -15 -40t-42 -15q-25 0 -45 19.5t-36.5 47.5t-36 56.5t-53 48t-78.5 19.5
q-77 0 -131.5 -65.5t-54.5 -169.5q0 -145 76 -240.5t175 -95.5q74 0 127 44t81 102q7 10 18 12.5t19 -5t6 -21.5q-14 -101 -87.5 -170t-194.5 -69z" />
    <glyph glyph-name="cacute" unicode="&#x107;" horiz-adv-x="504" 
d="M176 554q-21 -7 -31 8q-9 17 6 30l175 129q27 21 44 -9l21 -44q7 -12 2.5 -23.5t-19.5 -15.5zM279 -10q-108 0 -182.5 73.5t-74.5 178.5q0 111 73 179t179 69q82 1 141.5 -39.5t59.5 -92.5q0 -19 -12.5 -31.5t-38.5 -11.5q-24 1 -43 23t-31 47t-36.5 46t-58.5 21
q-51 0 -83 -44t-32 -110q0 -102 49 -163.5t129 -61.5q87 0 129 82q8 12 21 9t11 -18q-8 -64 -60.5 -110t-139.5 -46z" />
    <glyph glyph-name="Cdotaccent" unicode="&#x10a;" horiz-adv-x="673" 
d="M344 768q-36 0 -57.5 20t-21.5 51t22 51.5t57 20.5q34 0 55.5 -20.5t21.5 -51.5t-21.5 -51t-55.5 -20zM366 -10q-134 0 -236.5 114.5t-102.5 258.5q0 156 93 256t239 100q113 0 196 -60.5t83 -126.5q0 -25 -15 -40t-42 -15q-25 0 -45 19.5t-36.5 47.5t-36 56.5t-53 48
t-78.5 19.5q-77 0 -131.5 -65.5t-54.5 -169.5q0 -145 76 -240.5t175 -95.5q74 0 127 44t81 102q7 10 18 12.5t19 -5t6 -21.5q-14 -101 -87.5 -170t-194.5 -69z" />
    <glyph glyph-name="cdotaccent" unicode="&#x10b;" horiz-adv-x="504" 
d="M261 563q-37 0 -60 21t-23 54t23 54t60 21q36 0 58.5 -21t22.5 -54t-22.5 -54t-58.5 -21zM279 -10q-108 0 -182.5 73.5t-74.5 178.5q0 111 73 179t179 69q82 1 141.5 -39.5t59.5 -92.5q0 -19 -12.5 -31.5t-38.5 -11.5q-24 1 -43 23t-31 47t-36.5 46t-58.5 21
q-51 0 -83 -44t-32 -110q0 -102 49 -163.5t129 -61.5q87 0 129 82q8 12 21 9t11 -18q-8 -64 -60.5 -110t-139.5 -46z" />
    <glyph glyph-name="Ccaron" unicode="&#x10c;" horiz-adv-x="673" 
d="M322 763l-112 105q-12 13 1.5 25.5t27.5 4.5l135 -75l134 75q9 6 19.5 1t13.5 -14t-4 -17l-116 -105q-16 -15 -36 -15h-27q-20 0 -36 15zM605 243q7 10 18 12.5t19 -5t6 -21.5q-14 -101 -87.5 -170t-194.5 -69q-134 0 -236.5 114.5t-102.5 258.5q0 156 93 256t239 100
q113 0 196 -60.5t83 -126.5q0 -25 -15 -40t-42 -15q-25 0 -45 19.5t-36.5 47.5t-36 56.5t-53 48t-78.5 19.5q-77 0 -131.5 -65.5t-54.5 -169.5q0 -145 76 -240.5t175 -95.5q74 0 127 44t81 102z" />
    <glyph glyph-name="ccaron" unicode="&#x10d;" horiz-adv-x="504" 
d="M210 567l-112 110q-12 13 1.5 26t27.5 5l135 -78l134 78q9 6 19.5 1t13.5 -14.5t-4 -17.5l-116 -110q-16 -15 -36 -15h-27q-20 0 -36 15zM447 155q8 12 21 9t11 -18q-8 -64 -60.5 -110t-139.5 -46q-108 0 -182.5 73.5t-74.5 178.5q0 111 73 179t179 69q82 1 141.5 -39.5
t59.5 -92.5q0 -19 -12.5 -31.5t-38.5 -11.5q-24 1 -43 23t-31 47t-36.5 46t-58.5 21q-51 0 -83 -44t-32 -110q0 -102 49 -163.5t129 -61.5q87 0 129 82z" />
    <glyph glyph-name="Dcaron" unicode="&#x10e;" horiz-adv-x="751" 
d="M301 763l-112 105q-12 13 1.5 25.5t27.5 4.5l135 -75l134 75q9 6 19.5 1t13.5 -14t-4 -17l-116 -105q-16 -15 -36 -15h-27q-20 0 -36 15zM295 710q184 0 302.5 -100.5t118.5 -251.5q0 -163 -105.5 -260.5t-270.5 -97.5h-265q-22 0 -22 14v3q0 9 19 26.5t19 39.5v544
q0 22 -19 39.5t-19 26.5v3q0 14 22 14h220zM333 51q114 0 186.5 71t72.5 191q0 149 -92 247.5t-228 98.5h-28q-34 0 -34 -37v-500q0 -34 16 -52.5t44 -18.5h63z" />
    <glyph glyph-name="dcaron" unicode="&#x10f;" horiz-adv-x="593" 
d="M669 797q21 0 21 -23q0 -71 -28.5 -129t-74.5 -92q-17 -13 -31 -3l-7 5q-13 10 0 28q56 78 56 191q0 9 5.5 16t13.5 7h45zM509 83q0 -22 19 -40t19 -26v-3q0 -14 -17 -14h-104q-18 0 -20 19l-3 35q-50 -64 -140 -64q-96 0 -164.5 69t-68.5 182q0 109 67.5 179t167.5 70
q78 0 131 -51v188q0 19 -11.5 31t-23 19.5t-11.5 16.5v2q0 13 18 20l106 34q35 12 35 -18v-649zM290 28q41 0 73.5 34t32.5 95v160q0 50 -38 92.5t-89 42.5q-56 0 -90 -45.5t-35 -124.5q-2 -105 38.5 -179t107.5 -75z" />
    <glyph glyph-name="Dcroat" unicode="&#x110;" horiz-adv-x="754" 
d="M298 710q184 0 302.5 -100.5t118.5 -251.5q0 -163 -105.5 -260.5t-270.5 -97.5h-265q-22 0 -22 14v3q0 9 19 26.5t19 39.5v253h-52q-15 0 -15 13v22q0 14 15 14h52v242q0 22 -19 39.5t-19 26.5v3q0 14 22 14h220zM336 51q114 0 186.5 71t72.5 191q0 149 -92 247.5
t-228 98.5h-28q-34 0 -34 -37v-237h124q16 0 16 -14v-20q0 -15 -16 -15h-124v-214q0 -34 16 -52.5t44 -18.5h63z" />
    <glyph glyph-name="dcroat" unicode="&#x111;" horiz-adv-x="575" 
d="M570 587q16 0 16 -14v-20q0 -15 -16 -15h-61v-455q0 -22 19 -40t19 -26v-3q0 -14 -17 -14h-104q-18 0 -20 19l-3 35q-50 -64 -140 -64q-96 0 -164.5 69t-68.5 182q0 109 67.5 179t167.5 70q78 0 131 -51v99h-121q-15 0 -15 13v22q0 14 15 14h121v40q0 19 -11.5 31
t-23 19.5t-11.5 16.5v2q0 13 18 20l106 34q35 12 35 -18v-145h61zM290 28q41 0 73.5 34t32.5 95v160q0 50 -38 92.5t-89 42.5q-56 0 -90 -45.5t-35 -124.5q-2 -105 38.5 -179t107.5 -75z" />
    <glyph glyph-name="Emacron" unicode="&#x112;" horiz-adv-x="607" 
d="M168 804q-20 0 -20 18v39q0 18 20 18h269q20 0 20 -18v-39q0 -18 -20 -18h-269zM75 0q-22 0 -22 14v3q0 9 19 26.5t19 40.5v542q0 23 -19 41t-19 26v3q0 14 20 14h435q24 0 28 -25l24 -108q5 -23 -16 -23h-5q-13 0 -28.5 16.5t-28 36.5t-31 36.5t-38.5 16.5h-168
q-34 0 -34 -39v-233h154q15 0 26 10.5t16.5 22.5t13 22.5t14.5 10.5h6q15 0 15 -19v-142q0 -19 -15 -19h-6q-7 0 -14.5 10t-13 21.5t-16.5 21.5t-26 10h-154l-1 -234q0 -22 11.5 -37.5t33.5 -15.5h189q20 0 38 17t29 38t26 38t29 17h7q8 0 12.5 -7t2.5 -16l-23 -111
q-6 -26 -29 -26h-461z" />
    <glyph glyph-name="emacron" unicode="&#x113;" horiz-adv-x="493" 
d="M114 595q-20 0 -20 18v39q0 18 20 18h269q20 0 20 -18v-39q0 -18 -20 -18h-269zM438 147q8 11 20.5 8t11.5 -18q-8 -53 -62 -100t-141 -47q-102 0 -169.5 70t-67.5 184q0 106 69.5 176t169.5 70q90 0 138.5 -44.5t48.5 -102.5q0 -52 -51 -70l-242 -89q19 -52 57 -81
t90 -29q45 0 78.5 20.5t49.5 52.5zM249 452q-47 0 -75 -45t-28 -118q0 -34 6 -64l166 72q26 12 26 42q0 36 -27.5 74.5t-67.5 38.5z" />
    <glyph glyph-name="Edotaccent" unicode="&#x116;" horiz-adv-x="607" 
d="M309 768q-36 0 -57.5 20t-21.5 51t22 51.5t57 20.5q34 0 55.5 -20.5t21.5 -51.5t-21.5 -51t-55.5 -20zM75 0q-22 0 -22 14v3q0 9 19 26.5t19 40.5v542q0 23 -19 41t-19 26v3q0 14 20 14h435q24 0 28 -25l24 -108q5 -23 -16 -23h-5q-13 0 -28.5 16.5t-28 36.5t-31 36.5
t-38.5 16.5h-168q-34 0 -34 -39v-233h154q15 0 26 10.5t16.5 22.5t13 22.5t14.5 10.5h6q15 0 15 -19v-142q0 -19 -15 -19h-6q-7 0 -14.5 10t-13 21.5t-16.5 21.5t-26 10h-154l-1 -234q0 -22 11.5 -37.5t33.5 -15.5h189q20 0 38 17t29 38t26 38t29 17h7q8 0 12.5 -7t2.5 -16
l-23 -111q-6 -26 -29 -26h-461z" />
    <glyph glyph-name="edotaccent" unicode="&#x117;" horiz-adv-x="493" 
d="M249 563q-37 0 -60 21t-23 54t23 54t60 21q36 0 58.5 -21t22.5 -54t-22.5 -54t-58.5 -21zM438 147q8 11 20.5 8t11.5 -18q-8 -53 -62 -100t-141 -47q-102 0 -169.5 70t-67.5 184q0 106 69.5 176t169.5 70q90 0 138.5 -44.5t48.5 -102.5q0 -52 -51 -70l-242 -89
q19 -52 57 -81t90 -29q45 0 78.5 20.5t49.5 52.5zM249 452q-47 0 -75 -45t-28 -118q0 -34 6 -64l166 72q26 12 26 42q0 36 -27.5 74.5t-67.5 38.5z" />
    <glyph glyph-name="Eogonek" unicode="&#x118;" horiz-adv-x="607" 
d="M565 26q-5 -19 -14 -23q-63 -65 -63 -119q0 -48 36 -48q9 0 24 5q17 6 22 -13q5 -22 -13 -32q-1 -1 -2 -1q-18 -10 -50 -10q-41 0 -71.5 21t-30.5 62q0 70 102 132h-430q-22 0 -22 14v3q0 9 19 26.5t19 40.5v542q0 23 -19 41t-19 26v3q0 14 20 14h435q24 0 28 -25
l24 -108q5 -23 -16 -23h-5q-13 0 -28.5 16.5t-28 36.5t-31 36.5t-38.5 16.5h-168q-34 0 -34 -39v-233h154q15 0 26 10.5t16.5 22.5t13 22.5t14.5 10.5h6q15 0 15 -19v-142q0 -19 -15 -19h-6q-7 0 -14.5 10t-13 21.5t-16.5 21.5t-26 10h-154l-1 -234q0 -22 11.5 -37.5
t33.5 -15.5h189q20 0 38 17t29 38t26 38t29 17h7q8 0 12.5 -7t2.5 -16z" />
    <glyph glyph-name="eogonek" unicode="&#x119;" horiz-adv-x="493" 
d="M438 147q8 11 20.5 8t11.5 -18q-5 -31 -29 -64.5t-63 -55.5q-62 -65 -62 -118q0 -48 36 -48q9 0 24 5q17 6 22 -13q5 -22 -13 -32q-1 -1 -2 -1q-18 -10 -50 -10q-41 0 -71.5 21t-30.5 62q0 55 69 109q-22 -2 -33 -2q-102 0 -169.5 70t-67.5 184q0 106 69.5 176t169.5 70
q90 0 138.5 -44.5t48.5 -102.5q0 -52 -51 -70l-242 -89q19 -52 57 -81t90 -29q45 0 78.5 20.5t49.5 52.5zM249 452q-47 0 -75 -45t-28 -118q0 -34 6 -64l166 72q26 12 26 42q0 36 -27.5 74.5t-67.5 38.5z" />
    <glyph glyph-name="Ecaron" unicode="&#x11a;" horiz-adv-x="607" 
d="M252 763l-112 105q-12 13 1.5 25.5t27.5 4.5l135 -75l134 75q9 6 19.5 1t13.5 -14t-4 -17l-116 -105q-16 -15 -36 -15h-27q-20 0 -36 15zM573 160q8 0 12.5 -7t2.5 -16l-23 -111q-6 -26 -29 -26h-461q-22 0 -22 14v3q0 9 19 26.5t19 40.5v542q0 23 -19 41t-19 26v3
q0 14 20 14h435q24 0 28 -25l24 -108q5 -23 -16 -23h-5q-13 0 -28.5 16.5t-28 36.5t-31 36.5t-38.5 16.5h-168q-34 0 -34 -39v-233h154q15 0 26 10.5t16.5 22.5t13 22.5t14.5 10.5h6q15 0 15 -19v-142q0 -19 -15 -19h-6q-7 0 -14.5 10t-13 21.5t-16.5 21.5t-26 10h-154
l-1 -234q0 -22 11.5 -37.5t33.5 -15.5h189q20 0 38 17t29 38t26 38t29 17h7z" />
    <glyph glyph-name="ecaron" unicode="&#x11b;" horiz-adv-x="493" 
d="M198 567l-112 110q-12 13 1.5 26t27.5 5l135 -78l134 78q9 6 19.5 1t13.5 -14.5t-4 -17.5l-116 -110q-16 -15 -36 -15h-27q-20 0 -36 15zM438 147q8 11 20.5 8t11.5 -18q-8 -53 -62 -100t-141 -47q-102 0 -169.5 70t-67.5 184q0 106 69.5 176t169.5 70q90 0 138.5 -44.5
t48.5 -102.5q0 -52 -51 -70l-242 -89q19 -52 57 -81t90 -29q45 0 78.5 20.5t49.5 52.5zM249 452q-47 0 -75 -45t-28 -118q0 -34 6 -64l166 72q26 12 26 42q0 36 -27.5 74.5t-67.5 38.5z" />
    <glyph glyph-name="Gbreve" unicode="&#x11e;" horiz-adv-x="722" 
d="M378 769q-64 0 -108.5 37.5t-52.5 91.5q-3 19 17 24t26 -8q11 -30 44 -47.5t74 -17.5q42 0 75 17.5t44 47.5q6 12 25.5 7t17.5 -23q-7 -54 -51.5 -91.5t-110.5 -37.5zM385 -10q-145 0 -248.5 108t-103.5 255q0 164 96.5 265t239.5 101q120 0 201 -58.5t81 -125.5
q0 -25 -15 -40.5t-40 -15.5t-46.5 19.5t-39.5 47.5t-39 55.5t-55.5 47t-78.5 19.5q-79 0 -132 -68.5t-53 -171.5q0 -151 78 -254.5t184 -103.5q75 0 123 29v164q0 14 -10 24.5t-22 15.5t-22 11.5t-10 13.5v4q0 16 23 16l188 -1q21 0 21 -15v-4q0 -8 -13.5 -16t-27.5 -19.5
t-14 -30.5v-142q0 -31 -31 -57q-40 -32 -102 -52.5t-132 -20.5z" />
    <glyph glyph-name="gbreve" unicode="&#x11f;" horiz-adv-x="539" 
d="M271 552q-64 0 -108.5 37.5t-52.5 91.5q-3 19 17 24t26 -8q11 -30 44 -47.5t74 -17.5q42 0 75 17.5t44 47.5q6 12 25.5 7t17.5 -23q-7 -54 -51.5 -91.5t-110.5 -37.5zM464 480q21 0 32.5 -4t13 -10t-2.5 -14q-5 -12 -16.5 -17t-33 -8t-28.5 -5q28 -25 45.5 -61t17.5 -72
q0 -59 -31 -105.5t-85 -71.5q124 -29 124 -120q0 -66 -68 -105.5t-173 -39.5q-107 0 -169 43.5t-62 101.5q0 20 12.5 33.5t35.5 13.5q20 0 33.5 -16t23.5 -38.5t23.5 -45.5t40.5 -39t66 -16q54 0 86.5 28.5t32.5 74.5q0 43 -23.5 71t-64.5 32q-24 -2 -37 -2q-95 0 -160 56.5
t-65 139.5q0 91 64 148.5t166 57.5q27 0 83 -5t119 -5zM148 335q0 -85 38 -146.5t90 -61.5q46 0 73 33t27 85q0 85 -37.5 146t-95.5 61q-44 0 -69.5 -32.5t-25.5 -84.5z" />
    <glyph glyph-name="Gdotaccent" unicode="&#x120;" horiz-adv-x="722" 
d="M384 768q-36 0 -57.5 20t-21.5 51t22 51.5t57 20.5q34 0 55.5 -20.5t21.5 -51.5t-21.5 -51t-55.5 -20zM385 -10q-145 0 -248.5 108t-103.5 255q0 164 96.5 265t239.5 101q120 0 201 -58.5t81 -125.5q0 -25 -15 -40.5t-40 -15.5t-46.5 19.5t-39.5 47.5t-39 55.5t-55.5 47
t-78.5 19.5q-79 0 -132 -68.5t-53 -171.5q0 -151 78 -254.5t184 -103.5q75 0 123 29v164q0 14 -10 24.5t-22 15.5t-22 11.5t-10 13.5v4q0 16 23 16l188 -1q21 0 21 -15v-4q0 -8 -13.5 -16t-27.5 -19.5t-14 -30.5v-142q0 -31 -31 -57q-40 -32 -102 -52.5t-132 -20.5z" />
    <glyph glyph-name="gdotaccent" unicode="&#x121;" horiz-adv-x="539" 
d="M272 558q-37 0 -60 21t-23 54t23 54t60 21q36 0 58.5 -21t22.5 -54t-22.5 -54t-58.5 -21zM464 480q21 0 32.5 -4t13 -10t-2.5 -14q-5 -12 -16.5 -17t-33 -8t-28.5 -5q28 -25 45.5 -61t17.5 -72q0 -59 -31 -105.5t-85 -71.5q124 -29 124 -120q0 -66 -68 -105.5t-173 -39.5
q-107 0 -169 43.5t-62 101.5q0 20 12.5 33.5t35.5 13.5q20 0 33.5 -16t23.5 -38.5t23.5 -45.5t40.5 -39t66 -16q54 0 86.5 28.5t32.5 74.5q0 43 -23.5 71t-64.5 32q-24 -2 -37 -2q-95 0 -160 56.5t-65 139.5q0 91 64 148.5t166 57.5q27 0 83 -5t119 -5zM148 335
q0 -85 38 -146.5t90 -61.5q46 0 73 33t27 85q0 85 -37.5 146t-95.5 61q-44 0 -69.5 -32.5t-25.5 -84.5z" />
    <glyph glyph-name="uni0122" unicode="&#x122;" horiz-adv-x="722" 
d="M385 -10q-145 0 -248.5 108t-103.5 255q0 164 96.5 265t239.5 101q120 0 201 -58.5t81 -125.5q0 -25 -15 -40.5t-40 -15.5t-46.5 19.5t-39.5 47.5t-39 55.5t-55.5 47t-78.5 19.5q-79 0 -132 -68.5t-53 -171.5q0 -151 78 -254.5t184 -103.5q75 0 123 29v164q0 14 -10 24.5
t-22 15.5t-22 11.5t-10 13.5v4q0 16 23 16l188 -1q21 0 21 -15v-4q0 -8 -13.5 -16t-27.5 -19.5t-14 -30.5v-142q0 -31 -31 -57q-40 -32 -102 -52.5t-132 -20.5zM352 -309q-12 -7 -22 3.5t0 20.5q47 45 52 82q4 16 -9 16q-23 0 -38 18.5t-15 47.5q0 32 19 52.5t50 20.5
q30 0 51 -23t21 -61q0 -105 -109 -177z" />
    <glyph glyph-name="uni0123" unicode="&#x123;" horiz-adv-x="539" 
d="M259 553q-31 0 -52.5 23.5t-21.5 62.5q0 107 112 182q12 8 22 -3t0 -22q-48 -46 -53 -84q-4 -16 9 -16q24 0 39.5 -18.5t15.5 -48.5q0 -33 -19.5 -54.5t-51.5 -21.5zM464 480q21 0 32.5 -4t13 -10t-2.5 -14q-5 -12 -16.5 -17t-33 -8t-28.5 -5q28 -25 45.5 -61t17.5 -72
q0 -59 -31 -105.5t-85 -71.5q124 -29 124 -120q0 -66 -68 -105.5t-173 -39.5q-107 0 -169 43.5t-62 101.5q0 20 12.5 33.5t35.5 13.5q20 0 33.5 -16t23.5 -38.5t23.5 -45.5t40.5 -39t66 -16q54 0 86.5 28.5t32.5 74.5q0 43 -23.5 71t-64.5 32q-24 -2 -37 -2q-95 0 -160 56.5
t-65 139.5q0 91 64 148.5t166 57.5q27 0 83 -5t119 -5zM148 335q0 -85 38 -146.5t90 -61.5q46 0 73 33t27 85q0 85 -37.5 146t-95.5 61q-44 0 -69.5 -32.5t-25.5 -84.5z" />
    <glyph glyph-name="Hbar" unicode="&#x126;" horiz-adv-x="780" 
d="M737 567q20 0 20 -15v-18q0 -15 -20 -15h-53v-436q0 -22 20.5 -39.5t20.5 -26.5v-3q0 -14 -22 -14h-156q-21 0 -21 14v3q0 9 18.5 26.5t18.5 39.5v250h-348l-1 -250q0 -22 20 -39.5t20 -26.5v-3q0 -14 -21 -14h-156q-21 0 -21 14v3q0 9 18.5 26.5t18.5 39.5v436h-54
q-18 0 -18 15v18q0 15 18 15h54v60q0 22 -18.5 39.5t-18.5 26.5v3q0 14 21 14h156q21 0 21 -14v-3q0 -9 -19.5 -26.5t-19.5 -39.5v-60h348v60q0 22 -18.5 39.5t-18.5 26.5v3q0 14 21 14h156q22 0 22 -14v-3q0 -9 -20.5 -26.5t-20.5 -39.5v-60h53zM563 388v131h-348l-1 -131
h349z" />
    <glyph glyph-name="hbar" unicode="&#x127;" horiz-adv-x="581" 
d="M524 85q2 -22 19 -39.5t17 -27.5v-4q0 -14 -21 -14h-147q-21 0 -21 14v4q0 9 18.5 26.5t17.5 39.5l-10 198q-7 160 -105 160q-47 0 -76 -34.5t-29 -89.5v-235q0 -21 20.5 -38.5t20.5 -26.5v-3q0 -15 -22 -15h-155q-21 0 -21 15v3q0 9 10 17.5t20 19.5t10 28v455h-63
q-15 0 -15 13v22q0 14 15 14h63v27q0 18 -10.5 30t-21 19.5t-10.5 15.5v3q0 13 17 21l107 47q32 14 32 -16v-147h118q16 0 16 -14v-20q0 -15 -16 -15h-119v-115q48 67 140 67q77 0 130 -52t59 -159z" />
    <glyph glyph-name="Itilde" unicode="&#x128;" horiz-adv-x="305" 
d="M88 902q36 0 86.5 -27t69.5 -27q33 0 47 27q7 13 19 13h8q17 0 12 -19q-25 -103 -102 -103q-33 0 -83.5 27.5t-72.5 27.5q-29 0 -46 -27q-10 -16 -20 -16h-10q-15 0 -12 19q8 45 35 75t69 30zM54 14v3q0 8 18.5 25.5t18.5 39.5v545q0 22 -18.5 39.5t-18.5 26.5v3
q0 14 21 14h156q21 0 21 -14v-3q0 -9 -20 -26.5t-20 -39.5v-545q0 -22 20 -39.5t20 -25.5v-3q0 -14 -21 -14h-156q-21 0 -21 14z" />
    <glyph glyph-name="itilde" unicode="&#x129;" horiz-adv-x="265" 
d="M65 716q36 0 86.5 -27t69.5 -27q33 0 47 27q6 13 19 13h8q17 0 12 -19q-25 -103 -102 -103q-33 0 -83.5 27.5t-72.5 27.5q-29 0 -46 -27q-10 -16 -20 -16h-10q-15 0 -12 19q8 45 35 75t69 30zM59 0q-21 0 -21 15v4q0 9 18.5 26t18.5 39v262q0 23 -18.5 43t-18.5 26v3
q0 8 18 18l100 50q17 7 26.5 1.5t9.5 -18.5v-385q0 -22 20.5 -39t20.5 -26v-4q0 -15 -22 -15h-152z" />
    <glyph glyph-name="Imacron" unicode="&#x12a;" horiz-adv-x="305" 
d="M17 804q-20 0 -20 18v39q0 18 20 18h269q20 0 20 -18v-39q0 -18 -20 -18h-269zM54 14v3q0 8 18.5 25.5t18.5 39.5v545q0 22 -18.5 39.5t-18.5 26.5v3q0 14 21 14h156q21 0 21 -14v-3q0 -9 -20 -26.5t-20 -39.5v-545q0 -22 20 -39.5t20 -25.5v-3q0 -14 -21 -14h-156
q-21 0 -21 14z" />
    <glyph glyph-name="imacron" unicode="&#x12b;" horiz-adv-x="265" 
d="M4 595q-20 0 -20 18v39q0 18 20 18h269q20 0 20 -18v-39q0 -18 -20 -18h-269zM59 0q-21 0 -21 15v4q0 9 18.5 26t18.5 39v262q0 23 -18.5 43t-18.5 26v3q0 8 18 18l100 50q17 7 26.5 1.5t9.5 -18.5v-385q0 -22 20.5 -39t20.5 -26v-4q0 -15 -22 -15h-152z" />
    <glyph glyph-name="Iogonek" unicode="&#x12e;" horiz-adv-x="305" 
d="M252 693q0 -9 -20 -26.5t-20 -39.5v-545q0 -22 20 -39.5t20 -25.5v-3q0 -14 -21 -14h-53q-60 -65 -60 -116q0 -48 36 -48q9 0 24 5q17 6 22 -13q5 -22 -13 -32q-1 -1 -2 -1q-18 -10 -50 -10q-41 0 -71.5 21t-30.5 62q0 70 102 132h-60q-21 0 -21 14v3q0 8 18.5 25.5
t18.5 39.5v545q0 22 -18.5 39.5t-18.5 26.5v3q0 14 21 14h156q21 0 21 -14v-3z" />
    <glyph glyph-name="iogonek" unicode="&#x12f;" horiz-adv-x="265" 
d="M133 563q-37 0 -60 21t-23 54t23 54t60 21q36 0 58.5 -21t22.5 -54t-22.5 -54t-58.5 -21zM192 84q0 -22 20.5 -39t20.5 -26v-4q0 -15 -22 -15h-33q-60 -65 -60 -116q0 -48 36 -48q9 0 24 5q17 6 22 -13q5 -22 -13 -32q-1 -1 -2 -1q-18 -10 -50 -10q-41 0 -71.5 21
t-30.5 62q0 70 102 132h-76q-21 0 -21 15v4q0 9 18.5 26t18.5 39v262q0 23 -18.5 43t-18.5 26v3q0 8 18 18l100 50q17 7 26.5 1.5t9.5 -18.5v-385z" />
    <glyph glyph-name="Idotaccent" unicode="&#x130;" horiz-adv-x="305" 
d="M157 768q-36 0 -57.5 20t-21.5 51t22 51.5t57 20.5q34 0 55.5 -20.5t21.5 -51.5t-21.5 -51t-55.5 -20zM54 14v3q0 8 18.5 25.5t18.5 39.5v545q0 22 -18.5 39.5t-18.5 26.5v3q0 14 21 14h156q21 0 21 -14v-3q0 -9 -20 -26.5t-20 -39.5v-545q0 -22 20 -39.5t20 -25.5v-3
q0 -14 -21 -14h-156q-21 0 -21 14z" />
    <glyph glyph-name="dotlessi" unicode="&#x131;" horiz-adv-x="262" 
d="M59 0q-21 0 -21 15v4q0 9 18.5 26t18.5 39v262q0 23 -18.5 43t-18.5 26v3q0 8 18 18l100 50q17 7 26.5 1.5t9.5 -18.5v-385q0 -22 20.5 -39t20.5 -26v-4q0 -15 -22 -15h-152z" />
    <glyph glyph-name="IJ" unicode="&#x132;" horiz-adv-x="828" 
d="M54 14v3q0 8 18.5 25.5t18.5 39.5v545q0 22 -18.5 39.5t-18.5 26.5v3q0 14 21 14h156q21 0 21 -14v-3q0 -9 -20 -26.5t-20 -39.5v-545q0 -22 20 -39.5t20 -25.5v-3q0 -14 -21 -14h-156q-21 0 -21 14zM626 627q0 22 -19 39.5t-19 26.5v3q0 14 22 14h157q21 0 21 -14v-3
q0 -9 -20 -26.5t-20 -39.5l-1 -351q-1 -284 -225 -286q-59 0 -104 16.5t-69 43.5t-35.5 54.5t-11.5 53.5q0 27 15.5 43.5t40.5 16.5q27 0 43 -18t24 -44t17 -52.5t30.5 -44.5t57.5 -18q43 0 69.5 45t26.5 125v416z" />
    <glyph glyph-name="ij" unicode="&#x133;" horiz-adv-x="523" 
d="M133 563q-37 0 -60 21t-23 54t23 54t60 21q36 0 58.5 -21t22.5 -54t-22.5 -54t-58.5 -21zM396 563q-37 0 -60 21t-23 54t23 54t60 21q36 0 58.5 -21t22.5 -54t-22.5 -54t-58.5 -21zM59 0q-21 0 -21 15v4q0 9 18.5 26t18.5 39v262q0 23 -18.5 43t-18.5 26v3q0 8 18 18
l100 50q17 7 26.5 1.5t9.5 -18.5v-385q0 -22 20.5 -39t20.5 -26v-4q0 -15 -22 -15h-152zM321 -189q-57 0 -92 23.5t-35 65.5q0 22 14 36t37 14q24 0 37.5 -15t17 -33.5t14 -33.5t29.5 -15t31 14t12 36q0 30 -20.5 68t-20.5 63v312q0 24 -18.5 43t-18.5 26v3q0 9 17 18
l104 50q17 7 26.5 1.5t9.5 -18.5v-469q0 -68 -24 -117q-36 -72 -120 -72z" />
    <glyph glyph-name="uni0136" unicode="&#x136;" horiz-adv-x="693" 
d="M657 84q12 -20 26.5 -33t21 -19t6.5 -15v-3q0 -14 -20 -14h-177q-20 0 -20 14v3q0 7 17.5 24.5t7.5 35.5l-182 305l-125 -125v-173q0 -22 20.5 -40t20.5 -27v-3q0 -14 -22 -14h-156q-21 0 -21 14v3q0 9 18.5 27t18.5 40v543q0 22 -18.5 39.5t-18.5 26.5v3q0 14 21 14h156
q21 0 21 -14v-3q0 -9 -20 -26.5t-20 -39.5v-294l291 292q15 20 12.5 28t-12.5 20.5t-10 19.5v3q0 14 22 14h124q21 0 21 -14v-3q0 -9 -11.5 -17.5t-32.5 -22t-35 -28.5l-161 -160zM384 -48q30 0 51 -23t21 -61q0 -105 -109 -177q-12 -7 -22 3.5t0 20.5q47 45 52 82
q4 16 -9 16q-23 0 -38 18.5t-15 47.5q0 32 19 52.5t50 20.5z" />
    <glyph glyph-name="uni0137" unicode="&#x137;" horiz-adv-x="547" 
d="M507 66q7 -9 29 -23t22 -26v-3q0 -14 -18 -14h-161q-17 0 -17 15v2q0 9 14.5 22.5t4.5 26.5l-128 171l-68 -63v-91q0 -21 20.5 -38.5t20.5 -26.5v-3q0 -15 -22 -15h-152q-21 0 -21 15v3q0 10 18.5 27t18.5 38v527q0 24 -21 43t-21 25v3q0 10 17 18l106 50q17 7 26.5 1.5
t9.5 -17.5v-493l180 157q16 14 -3.5 36.5t-19.5 28.5v3q0 15 18 15h128q17 0 17 -14v-3q0 -10 -11.5 -19t-32.5 -21.5t-34 -24.5l-98 -90zM280 -48q30 0 51 -23t21 -61q0 -105 -109 -177q-12 -7 -22 3.5t0 20.5q47 45 52 82q4 16 -9 16q-23 0 -38 18.5t-15 47.5
q0 32 19 52.5t50 20.5z" />
    <glyph glyph-name="kgreenlandic" unicode="&#x138;" horiz-adv-x="554" 
d="M522 66q7 -9 26.5 -23t19.5 -26v-3q0 -14 -17 -14h-156q-18 0 -18 15v2q0 9 14 22.5t5 26.5l-132 171l-68 -62v-92q0 -21 20.5 -38.5t20.5 -26.5v-3q0 -15 -22 -15h-155q-22 0 -22 15v3q0 10 19 27t19 38v363q0 18 -11 31t-21.5 21.5t-10.5 15.5v3q0 10 18 18l108 50
q17 7 27 1.5t10 -17.5v-329l180 157q12 15 6.5 23t-18 21t-12.5 21v3q0 15 18 15h128q18 0 18 -14v-3q0 -10 -11.5 -19t-32.5 -21.5t-34 -24.5l-98 -90z" />
    <glyph glyph-name="Lacute" unicode="&#x139;" horiz-adv-x="586" 
d="M69 779q-21 -2 -28 14q-6 18 11 28l197 93q31 15 41 -17l12 -47q5 -14 -1.5 -24t-22.5 -11zM75 0q-21 0 -21 14v3q0 9 18.5 26.5t18.5 39.5v544q0 22 -18.5 39.5t-18.5 26.5v3q0 14 21 14h157q22 0 22 -14v-3q0 -9 -20.5 -26.5t-20.5 -39.5v-529q0 -21 9.5 -34t27.5 -13
h183q23 0 41.5 18.5t28.5 41.5t23 41.5t26 18.5h10q19 0 14 -20l-25 -125q-6 -26 -29 -26h-447z" />
    <glyph glyph-name="lacute" unicode="&#x13a;" horiz-adv-x="260" 
d="M9 792q-21 -2 -28 14q-6 18 11 28l197 93q31 15 41 -17l12 -47q5 -14 -1.5 -24t-22.5 -11zM53 0q-21 0 -21 15v3q0 10 18.5 27t18.5 38v527q0 24 -18.5 43t-18.5 25v3q0 9 17 18l101 50q17 7 26.5 1.5t9.5 -17.5v-650q0 -21 20.5 -38.5t20.5 -26.5v-3q0 -15 -22 -15h-152
z" />
    <glyph glyph-name="uni013B" unicode="&#x13b;" horiz-adv-x="586" 
d="M75 0q-21 0 -21 14v3q0 9 18.5 26.5t18.5 39.5v544q0 22 -18.5 39.5t-18.5 26.5v3q0 14 21 14h157q22 0 22 -14v-3q0 -9 -20.5 -26.5t-20.5 -39.5v-529q0 -21 9.5 -34t27.5 -13h183q23 0 41.5 18.5t28.5 41.5t23 41.5t26 18.5h10q19 0 14 -20l-25 -125q-6 -26 -29 -26
h-447zM277 -309q-12 -7 -22 3.5t0 20.5q47 45 52 82q4 16 -9 16q-23 0 -38 18.5t-15 47.5q0 32 19 52.5t50 20.5q30 0 51 -23t21 -61q0 -105 -109 -177z" />
    <glyph glyph-name="uni013C" unicode="&#x13c;" horiz-adv-x="260" 
d="M53 0q-21 0 -21 15v3q0 10 18.5 27t18.5 38v527q0 24 -18.5 43t-18.5 25v3q0 9 17 18l101 50q17 7 26.5 1.5t9.5 -17.5v-650q0 -21 20.5 -38.5t20.5 -26.5v-3q0 -15 -22 -15h-152zM97 -297q-12 -7 -22 3.5t0 20.5q47 45 52 82q4 16 -9 16q-23 0 -38 18.5t-15 47.5
q0 32 19 52.5t50 20.5q30 0 51 -23t21 -61q0 -105 -109 -177z" />
    <glyph glyph-name="Lcaron" unicode="&#x13d;" horiz-adv-x="589" 
d="M370 502l-7 5q-13 10 0 28q56 78 56 191q0 9 5.5 16t13.5 7h45q21 0 21 -23q0 -71 -28.5 -129t-74.5 -92q-17 -13 -31 -3zM75 0q-21 0 -21 14v3q0 9 18.5 26.5t18.5 39.5v544q0 22 -18.5 39.5t-18.5 26.5v3q0 14 21 14h157q22 0 22 -14v-3q0 -9 -20.5 -26.5t-20.5 -39.5
v-529q0 -21 9.5 -34t27.5 -13h183q23 0 41.5 18.5t28.5 41.5t23 41.5t26 18.5h10q19 0 14 -20l-25 -125q-6 -26 -29 -26h-447z" />
    <glyph glyph-name="lcaron" unicode="&#x13e;" horiz-adv-x="275" 
d="M232 552l-7 5q-13 10 0 28q56 78 56 191q0 9 5.5 16t13.5 7h45q21 0 21 -23q0 -71 -28.5 -129t-74.5 -92q-17 -13 -31 -3zM53 0q-21 0 -21 15v3q0 10 18.5 27t18.5 38v527q0 24 -18.5 43t-18.5 25v3q0 9 17 18l101 50q17 7 26.5 1.5t9.5 -17.5v-650q0 -21 20.5 -38.5
t20.5 -26.5v-3q0 -15 -22 -15h-152z" />
    <glyph glyph-name="Ldot" unicode="&#x13f;" horiz-adv-x="590" 
d="M75 0q-21 0 -21 14v3q0 9 18.5 26.5t18.5 39.5v544q0 22 -18.5 39.5t-18.5 26.5v3q0 14 21 14h157q22 0 22 -14v-3q0 -9 -20.5 -26.5t-20.5 -39.5v-529q0 -21 9.5 -34t27.5 -13h183q23 0 41.5 18.5t28.5 41.5t23 41.5t26 18.5h10q19 0 14 -20l-25 -125q-6 -26 -29 -26
h-447zM425 311q-34 0 -56 18.5t-22 53.5t22 53.5t56 18.5t56 -18.5t22 -53.5t-22 -53.5t-56 -18.5z" />
    <glyph glyph-name="ldot" unicode="&#x140;" horiz-adv-x="387" 
d="M53 0q-21 0 -21 15v3q0 10 18.5 27t18.5 38v527q0 24 -18.5 43t-18.5 25v3q0 9 17 18l101 50q17 7 26.5 1.5t9.5 -17.5v-650q0 -21 20.5 -38.5t20.5 -26.5v-3q0 -15 -22 -15h-152zM316 314q-34 0 -56 18.5t-22 53.5t22 53.5t56 18.5t56 -18.5t22 -53.5t-22 -53.5
t-56 -18.5z" />
    <glyph glyph-name="Lslash" unicode="&#x141;" horiz-adv-x="612" 
d="M588 171q19 0 14 -20l-25 -125q-6 -26 -29 -26h-447q-21 0 -21 14v3q0 9 18.5 26.5t18.5 39.5v190l-68 -34q-19 -8 -25 8l-6 13q-7 16 11 24l88 44v299q0 22 -18.5 39.5t-18.5 26.5v3q0 14 21 14h157q22 0 22 -14v-3q0 -9 -20.5 -26.5t-20.5 -39.5v-239l94 47q18 9 24 -8
l6 -12q6 -16 -11 -24l-113 -57v-236q0 -21 9.5 -34t27.5 -13h183q23 0 41.5 18.5t28.5 41.5t23 41.5t26 18.5h10z" />
    <glyph glyph-name="lslash" unicode="&#x142;" horiz-adv-x="326" 
d="M317 454q8 -12 -6 -21l-84 -55v-295q0 -21 20.5 -38.5t20.5 -26.5v-3q0 -15 -22 -15h-152q-21 0 -21 15v3q0 10 18.5 27t18.5 38v218l-63 -41q-11 -7 -19 3l-14 22q-8 10 5 20l91 60v245q0 24 -18.5 43t-18.5 25v3q0 9 17 18l101 50q17 7 26.5 1.5t9.5 -17.5v-291l53 35
q15 12 24 -2z" />
    <glyph glyph-name="Nacute" unicode="&#x143;" horiz-adv-x="753" 
d="M295 779q-21 -2 -28 14q-6 18 11 28l197 93q31 15 41 -17l12 -47q5 -14 -1.5 -24t-22.5 -11zM685 710q22 0 22 -15v-3q0 -8 -21 -25.5t-21 -39.5v-593q0 -34 -32 -34h-36q-17 0 -37 28l-405 550v-493q0 -22 22 -40.5t22 -27.5v-3q0 -14 -22 -14h-103q-22 0 -22 14v3
q0 9 19.5 27.5t19.5 40.5v541q0 22 -19.5 39t-19.5 26v4q0 15 22 15h99q25 0 42 -24l386 -537v478q0 22 -21 39.5t-21 25.5v3q0 15 22 15h104z" />
    <glyph glyph-name="nacute" unicode="&#x144;" horiz-adv-x="588" 
d="M224 554q-21 -7 -31 8q-9 17 6 30l175 129q27 21 44 -9l21 -44q7 -12 2.5 -23.5t-19.5 -15.5zM532 84q1 -22 18.5 -39.5t17.5 -26.5v-4q0 -15 -22 -15h-146q-22 0 -22 15v4q0 9 18.5 26.5t17.5 39.5l-10 193q-7 165 -105 165q-47 0 -76 -34.5t-29 -89.5v-235
q0 -22 20.5 -39t20.5 -26v-4q0 -15 -22 -15h-155q-21 0 -21 15v4q0 9 20 26t20 39v268q0 19 -11.5 31t-22.5 19.5t-11 16.5v3q0 10 18 18l97 47q16 7 23.5 1.5t7.5 -19.5v-65q21 41 61 64t91 23q77 0 130 -53t60 -164z" />
    <glyph glyph-name="uni0145" unicode="&#x145;" horiz-adv-x="753" 
d="M685 710q22 0 22 -15v-3q0 -8 -21 -25.5t-21 -39.5v-593q0 -34 -32 -34h-36q-17 0 -37 28l-405 550v-493q0 -22 22 -40.5t22 -27.5v-3q0 -14 -22 -14h-103q-22 0 -22 14v3q0 9 19.5 27.5t19.5 40.5v541q0 22 -19.5 39t-19.5 26v4q0 15 22 15h99q25 0 42 -24l386 -537v478
q0 22 -21 39.5t-21 25.5v3q0 15 22 15h104zM392 -48q30 0 51 -23t21 -61q0 -105 -109 -177q-12 -7 -22 3.5t0 20.5q47 45 52 82q4 16 -9 16q-23 0 -38 18.5t-15 47.5q0 32 19 52.5t50 20.5z" />
    <glyph glyph-name="uni0146" unicode="&#x146;" horiz-adv-x="588" 
d="M532 84q1 -22 18.5 -39.5t17.5 -26.5v-4q0 -15 -22 -15h-146q-22 0 -22 15v4q0 9 18.5 26.5t17.5 39.5l-10 193q-7 165 -105 165q-47 0 -76 -34.5t-29 -89.5v-235q0 -22 20.5 -39t20.5 -26v-4q0 -15 -22 -15h-155q-21 0 -21 15v4q0 9 20 26t20 39v268q0 19 -11.5 31
t-22.5 19.5t-11 16.5v3q0 10 18 18l97 47q16 7 23.5 1.5t7.5 -19.5v-65q21 41 61 64t91 23q77 0 130 -53t60 -164zM303 -48q30 0 51 -23t21 -61q0 -105 -109 -177q-12 -7 -22 3.5t0 20.5q47 45 52 82q4 16 -9 16q-23 0 -38 18.5t-15 47.5q0 32 19 52.5t50 20.5z" />
    <glyph glyph-name="Ncaron" unicode="&#x147;" horiz-adv-x="753" 
d="M328 763l-112 105q-12 13 1.5 25.5t27.5 4.5l135 -75l134 75q9 6 19.5 1t13.5 -14t-4 -17l-116 -105q-16 -15 -36 -15h-27q-20 0 -36 15zM685 710q22 0 22 -15v-3q0 -8 -21 -25.5t-21 -39.5v-593q0 -34 -32 -34h-36q-17 0 -37 28l-405 550v-493q0 -22 22 -40.5t22 -27.5
v-3q0 -14 -22 -14h-103q-22 0 -22 14v3q0 9 19.5 27.5t19.5 40.5v541q0 22 -19.5 39t-19.5 26v4q0 15 22 15h99q25 0 42 -24l386 -537v478q0 22 -21 39.5t-21 25.5v3q0 15 22 15h104z" />
    <glyph glyph-name="ncaron" unicode="&#x148;" horiz-adv-x="588" 
d="M259 567l-112 110q-12 13 1.5 26t27.5 5l135 -78l134 78q9 6 19.5 1t13.5 -14.5t-4 -17.5l-116 -110q-16 -15 -36 -15h-27q-20 0 -36 15zM532 84q1 -22 18.5 -39.5t17.5 -26.5v-4q0 -15 -22 -15h-146q-22 0 -22 15v4q0 9 18.5 26.5t17.5 39.5l-10 193q-7 165 -105 165
q-47 0 -76 -34.5t-29 -89.5v-235q0 -22 20.5 -39t20.5 -26v-4q0 -15 -22 -15h-155q-21 0 -21 15v4q0 9 20 26t20 39v268q0 19 -11.5 31t-22.5 19.5t-11 16.5v3q0 10 18 18l97 47q16 7 23.5 1.5t7.5 -19.5v-65q21 41 61 64t91 23q77 0 130 -53t60 -164z" />
    <glyph glyph-name="napostrophe" unicode="&#x149;" horiz-adv-x="644" 
d="M26 772q33 0 55.5 -24.5t22.5 -65.5q0 -113 -118 -191q-13 -8 -23.5 3.5t0.5 22.5q49 48 56 88q3 17 -10 17q-24 0 -40.5 20t-16.5 51q0 35 20.5 57t53.5 22zM589 84q1 -22 18.5 -39.5t17.5 -26.5v-4q0 -15 -22 -15h-146q-22 0 -22 15v4q0 9 18.5 26.5t17.5 39.5l-10 193
q-7 165 -105 165q-47 0 -76 -34.5t-29 -89.5v-235q0 -22 20.5 -39t20.5 -26v-4q0 -15 -22 -15h-155q-21 0 -21 15v4q0 9 20 26t20 39v268q0 19 -11 31t-22.5 19.5t-11.5 16.5v3q0 10 18 18l97 47q16 7 23.5 1.5t7.5 -19.5v-65q21 41 61 64t91 23q77 0 130 -53t60 -164z" />
    <glyph glyph-name="Eng" unicode="&#x14a;" horiz-adv-x="753" 
d="M685 710q22 0 22 -14v-3q0 -9 -21.5 -27.5t-21.5 -40.5v-613q0 -101 -45.5 -158.5t-139.5 -58.5q-90 -1 -140.5 50t-50.5 106q0 28 16 44.5t42 16.5q24 0 37.5 -17.5t20 -43t14.5 -50.5t27.5 -42.5t52.5 -17.5q48 0 74.5 44t27.5 114l-444 581v-495q0 -22 21 -40.5
t21 -27.5v-3q0 -14 -21 -14h-103q-22 0 -22 14v3q0 9 19.5 27.5t19.5 40.5v540q0 22 -19.5 40.5t-19.5 26.5v3q0 15 22 15h91q23 0 41 -24l394 -536v475q0 22 -19.5 40.5t-19.5 27.5v3q0 14 21 14h103z" />
    <glyph glyph-name="eng" unicode="&#x14b;" horiz-adv-x="576" 
d="M536 18q4 -81 -22 -135q-35 -74 -120 -74q-53 0 -89 25t-36 63q0 21 14.5 34t37.5 13t35.5 -14.5t16 -31.5t14 -31.5t29.5 -14.5q20 0 31.5 14t11.5 37q0 27 -20 66t-23 81l-12 222q-10 170 -107 170q-42 0 -70 -29t-33 -76v-253q0 -22 20.5 -39.5t20.5 -26.5v-4
q0 -14 -22 -14h-155q-21 0 -21 14v4q0 9 20 26.5t20 39.5v265q0 22 -22.5 41t-22.5 28v3q0 10 18 18l97 47q16 7 23.5 1.5t7.5 -19.5v-63q42 85 150 85q77 0 130.5 -54t61.5 -167z" />
    <glyph glyph-name="Omacron" unicode="&#x14c;" horiz-adv-x="767" 
d="M245 804q-20 0 -20 18v39q0 18 20 18h269q20 0 20 -18v-39q0 -18 -20 -18h-269zM390 -10q-155 0 -255 107.5t-100 257.5q0 159 98 262t252 103q153 0 250.5 -108.5t97.5 -260.5q0 -153 -99 -257t-244 -104zM422 44q84 0 138 64t54 155q0 170 -76 286.5t-195 116.5
q-85 0 -137 -61.5t-52 -159.5q0 -169 75 -285t193 -116z" />
    <glyph glyph-name="omacron" unicode="&#x14d;" horiz-adv-x="572" 
d="M151 595q-20 0 -20 18v39q0 18 20 18h269q20 0 20 -18v-39q0 -18 -20 -18h-269zM300 -10q-123 0 -197 75t-74 180t72 175t176 70q116 0 190 -73.5t74 -179.5q0 -105 -67 -176t-174 -71zM315 28q48 0 78 44.5t30 123.5q0 106 -45.5 181t-113.5 75q-54 0 -85.5 -43.5
t-31.5 -124.5q0 -98 47.5 -177t120.5 -79z" />
    <glyph glyph-name="Ohungarumlaut" unicode="&#x150;" horiz-adv-x="767" 
d="M245 746q-10 8 2 27l110 165q19 30 41 8l25 -23q27 -24 1 -43l-152 -130q-16 -13 -27 -4zM437 746q-9 8 2 26l111 166q18 29 41 8l25 -24q26 -23 0 -43l-151 -129q-16 -13 -28 -4zM390 -10q-155 0 -255 107.5t-100 257.5q0 159 98 262t252 103q153 0 250.5 -108.5
t97.5 -260.5q0 -153 -99 -257t-244 -104zM422 44q84 0 138 64t54 155q0 170 -76 286.5t-195 116.5q-85 0 -137 -61.5t-52 -159.5q0 -169 75 -285t193 -116z" />
    <glyph glyph-name="ohungarumlaut" unicode="&#x151;" horiz-adv-x="572" 
d="M138 547q-10 8 2 27l110 165q19 30 41 8l25 -23q27 -24 1 -43l-152 -130q-16 -13 -27 -4zM330 547q-9 8 2 26l111 166q18 29 41 8l25 -24q26 -23 0 -43l-151 -129q-16 -13 -28 -4zM300 -10q-123 0 -197 75t-74 180t72 175t176 70q116 0 190 -73.5t74 -179.5
q0 -105 -67 -176t-174 -71zM315 28q48 0 78 44.5t30 123.5q0 106 -45.5 181t-113.5 75q-54 0 -85.5 -43.5t-31.5 -124.5q0 -98 47.5 -177t120.5 -79z" />
    <glyph glyph-name="OE" unicode="&#x152;" horiz-adv-x="1083" 
d="M1051 156q8 0 12 -5t2 -14l-25 -111q-5 -26 -28 -26h-414q-22 0 -22 15v3q0 8 16.5 26t16.5 40v9q-92 -103 -231 -103q-142 0 -245.5 104t-103.5 261q0 162 93 263.5t241 101.5q149 0 246 -110v16q0 22 -16.5 40.5t-16.5 26.5v3q0 14 22 14h386q24 0 28 -25l22 -104
q5 -22 -17 -22h-8q-11 0 -23.5 16t-22.5 34.5t-27 34.5t-36 16h-165q-34 0 -34 -38v-237h172q19 0 30.5 16.5t18.5 33t15 16.5h8q15 0 15 -22v-136q0 -22 -15 -22h-8q-8 0 -15 16t-18.5 32t-30.5 16h-172v-237q0 -47 44 -47h181q22 0 40.5 16.5t28.5 36t21.5 36t22.5 16.5
h12zM416 44q84 0 137 60.5t53 158.5q0 87 -37 180t-101 158t-132 65q-84 0 -136 -61.5t-52 -159.5q0 -94 36.5 -186.5t99.5 -153.5t132 -61z" />
    <glyph glyph-name="oe" unicode="&#x153;" horiz-adv-x="886" 
d="M830 147q8 11 21 8t11 -18q-8 -53 -62 -100t-141 -47q-117 0 -184 86q-70 -86 -185 -86q-106 0 -183.5 73.5t-77.5 181.5q0 105 75 175t183 70q111 0 185 -88q66 88 180 88q91 0 143.5 -45t52.5 -102q0 -52 -51 -70l-242 -89q19 -52 57 -81t90 -29q70 0 128 73zM641 452
q-47 0 -75 -45t-28 -118q0 -35 6 -67l166 69q26 10 26 48q0 36 -27.5 74.5t-67.5 38.5zM313 29q50 0 79.5 45t29.5 112q0 57 -18.5 117t-57.5 104t-87 44q-51 0 -81.5 -45t-30.5 -112q0 -108 46.5 -186.5t119.5 -78.5z" />
    <glyph glyph-name="Racute" unicode="&#x154;" horiz-adv-x="666" 
d="M241 779q-21 -2 -28 14q-6 18 11 28l197 93q31 15 41 -17l12 -47q5 -14 -1.5 -24t-22.5 -11zM596 83q12 -18 29.5 -30.5t27.5 -19.5t10 -16v-3q0 -14 -21 -14h-174q-21 0 -21 14v3q0 8 11 18t15.5 18t-5.5 30l-127 190h-9l-119 -2v-188q0 -22 20.5 -39.5t20.5 -26.5v-3
q0 -14 -22 -14h-157q-21 0 -21 14v3q0 9 18.5 26.5t18.5 39.5v544q0 22 -18.5 39.5t-18.5 26.5v3q0 14 21 14h226q137 0 219 -56.5t83 -165.5q0 -64 -38.5 -116.5t-110.5 -78.5zM318 323q73 0 117 39t44 111q0 88 -54.5 137t-131.5 49h-50q-30 0 -30 -40v-239q0 -57 49 -57
h56z" />
    <glyph glyph-name="racute" unicode="&#x155;" horiz-adv-x="405" 
d="M139 554q-21 -7 -31 8q-9 17 6 30l175 129q27 21 44 -9l21 -44q7 -12 2.5 -23.5t-19.5 -15.5zM311 490q43 0 67.5 -24t24.5 -60q0 -63 -52 -63q-22 0 -34 12t-15 27t-14 27t-30 12q-33 0 -51 -36t-18 -88v-214q0 -22 23 -39t23 -26v-4q0 -14 -21 -14h-155q-21 0 -21 14v4
q0 9 19 26t19 39v269q0 23 -21.5 39.5t-21.5 25.5v3q0 11 18 21l98 45q29 14 29 -17v-78q34 99 133 99z" />
    <glyph glyph-name="uni0156" unicode="&#x156;" horiz-adv-x="666" 
d="M596 83q12 -18 29.5 -30.5t27.5 -19.5t10 -16v-3q0 -14 -21 -14h-174q-21 0 -21 14v3q0 8 11 18t15.5 18t-5.5 30l-127 190h-9l-119 -2v-188q0 -22 20.5 -39.5t20.5 -26.5v-3q0 -14 -22 -14h-157q-21 0 -21 14v3q0 9 18.5 26.5t18.5 39.5v544q0 22 -18.5 39.5t-18.5 26.5
v3q0 14 21 14h226q137 0 219 -56.5t83 -165.5q0 -64 -38.5 -116.5t-110.5 -78.5zM318 323q73 0 117 39t44 111q0 88 -54.5 137t-131.5 49h-50q-30 0 -30 -40v-239q0 -57 49 -57h56zM340 -37q30 0 51 -23t21 -61q0 -105 -109 -177q-12 -7 -22 3.5t0 20.5q47 45 52 82
q4 16 -9 16q-23 0 -38 18.5t-15 47.5q0 32 19 52.5t50 20.5z" />
    <glyph glyph-name="uni0157" unicode="&#x157;" horiz-adv-x="405" 
d="M311 490q43 0 67.5 -24t24.5 -60q0 -63 -52 -63q-22 0 -34 12t-15 27t-14 27t-30 12q-33 0 -51 -36t-18 -88v-214q0 -22 23 -39t23 -26v-4q0 -14 -21 -14h-155q-21 0 -21 14v4q0 9 19 26t19 39v269q0 23 -21.5 39.5t-21.5 25.5v3q0 11 18 21l98 45q29 14 29 -17v-78
q34 99 133 99zM135 -48q30 0 51 -23t21 -61q0 -105 -109 -177q-12 -7 -22 3.5t0 20.5q47 45 52 82q4 16 -9 16q-23 0 -38 18.5t-15 47.5q0 32 19 52.5t50 20.5z" />
    <glyph glyph-name="Rcaron" unicode="&#x158;" horiz-adv-x="666" 
d="M280 763l-112 105q-12 13 1.5 25.5t27.5 4.5l135 -75l134 75q9 6 19.5 1t13.5 -14t-4 -17l-116 -105q-16 -15 -36 -15h-27q-20 0 -36 15zM596 83q12 -18 29.5 -30.5t27.5 -19.5t10 -16v-3q0 -14 -21 -14h-174q-21 0 -21 14v3q0 8 11 18t15.5 18t-5.5 30l-127 190h-9
l-119 -2v-188q0 -22 20.5 -39.5t20.5 -26.5v-3q0 -14 -22 -14h-157q-21 0 -21 14v3q0 9 18.5 26.5t18.5 39.5v544q0 22 -18.5 39.5t-18.5 26.5v3q0 14 21 14h226q137 0 219 -56.5t83 -165.5q0 -64 -38.5 -116.5t-110.5 -78.5zM318 323q73 0 117 39t44 111q0 88 -54.5 137
t-131.5 49h-50q-30 0 -30 -40v-239q0 -57 49 -57h56z" />
    <glyph glyph-name="rcaron" unicode="&#x159;" horiz-adv-x="405" 
d="M174 567l-112 110q-12 13 1.5 26t27.5 5l135 -78l134 78q9 6 19.5 1t13.5 -14.5t-4 -17.5l-116 -110q-16 -15 -36 -15h-27q-20 0 -36 15zM311 490q43 0 67.5 -24t24.5 -60q0 -63 -52 -63q-22 0 -34 12t-15 27t-14 27t-30 12q-33 0 -51 -36t-18 -88v-214q0 -22 23 -39
t23 -26v-4q0 -14 -21 -14h-155q-21 0 -21 14v4q0 9 19 26t19 39v269q0 23 -21.5 39.5t-21.5 25.5v3q0 11 18 21l98 45q29 14 29 -17v-78q34 99 133 99z" />
    <glyph glyph-name="Sacute" unicode="&#x15a;" horiz-adv-x="617" 
d="M235 779q-21 -2 -28 14q-6 18 11 28l197 93q31 15 41 -17l12 -47q5 -14 -1.5 -24t-22.5 -11zM320 -10q-135 0 -212 57.5t-77 120.5q0 22 13 36.5t36 13.5q21 -1 37 -14.5t25.5 -33.5t24 -43t32 -43t50 -33t76.5 -13q61 0 99 33t38 87q0 46 -23 76t-59.5 44t-81 23.5
t-89 22t-81 32.5t-59.5 61t-23 102q0 87 69 143.5t189 56.5t194.5 -52.5t73.5 -115.5q0 -51 -52 -51q-22 0 -37.5 12.5t-23.5 31.5t-20.5 41.5t-27 41.5t-43 31.5t-67.5 12.5q-63 0 -98 -34t-35 -85q0 -44 23 -72.5t59.5 -42.5t81 -24.5t89 -24t81 -34.5t59.5 -62t23 -101
q0 -92 -77 -146.5t-187 -54.5z" />
    <glyph glyph-name="sacute" unicode="&#x15b;" horiz-adv-x="473" 
d="M149 554q-21 -7 -31 8q-9 17 6 30l175 129q27 21 44 -9l21 -44q7 -12 2.5 -23.5t-19.5 -15.5zM237 -9q-93 0 -151 35.5t-58 79.5q0 22 13.5 34t36.5 12q20 0 33.5 -13t21.5 -32t18.5 -37.5t32 -31.5t53.5 -13q41 0 66.5 20t25.5 57t-30 57.5t-72.5 30.5t-85.5 23
t-73 46.5t-30 88.5q0 61 55 101.5t141 40.5q89 0 144.5 -36.5t55.5 -82.5q0 -19 -13 -31t-33 -12q-19 0 -31.5 13t-21 31.5t-18 37t-29 31.5t-48.5 13q-36 0 -60 -22t-24 -55q0 -37 30 -58t72.5 -31.5t85.5 -23.5t73 -46t30 -88q0 -60 -57.5 -99.5t-152.5 -39.5z" />
    <glyph glyph-name="Scedilla" unicode="&#x15e;" horiz-adv-x="617" 
d="M584 191q0 -87 -69 -141t-172 -59l-2 -46q47 1 81 -19t34 -57t-36.5 -58.5t-89.5 -21.5q-46 0 -84 18q-18 9 -12 32q5 19 18 11q26 -15 60 -15q24 0 40 9.5t15 28.5q-1 33 -60 33q-13 0 -20 8.5t-5 21.5l10 55q-123 6 -192 62t-69 115q0 22 13 36.5t36 13.5
q21 -1 37 -14.5t25.5 -33.5t24 -43t32 -43t50 -33t76.5 -13q61 0 99 33t38 87q0 46 -23 76t-59.5 44t-81 23.5t-89 22t-81 32.5t-59.5 61t-23 102q0 87 69 143.5t189 56.5t194.5 -52.5t73.5 -115.5q0 -51 -52 -51q-22 0 -37.5 12.5t-23.5 31.5t-20.5 41.5t-27 41.5t-43 31.5
t-67.5 12.5q-63 0 -98 -34t-35 -85q0 -44 23 -72.5t59.5 -42.5t81 -24.5t89 -24t81 -34.5t59.5 -62t23 -101z" />
    <glyph glyph-name="scedilla" unicode="&#x15f;" horiz-adv-x="473" 
d="M447 130q0 -55 -50 -93.5t-133 -44.5l-2 -47q47 1 81 -19t34 -57t-36.5 -58.5t-89.5 -21.5q-46 0 -84 18q-18 9 -12 32q5 19 18 11q26 -15 60 -15q24 0 40 9.5t15 28.5q-1 33 -60 33q-13 0 -20 8.5t-5 21.5l10 56q-83 4 -134 38.5t-51 75.5q0 22 13.5 34t36.5 12
q20 0 33.5 -13t21.5 -32t18.5 -37.5t32 -31.5t53.5 -13q41 0 66.5 20t25.5 57t-30 57.5t-72.5 30.5t-85.5 23t-73 46.5t-30 88.5q0 61 55 101.5t141 40.5q89 0 144.5 -36.5t55.5 -82.5q0 -19 -13 -31t-33 -12q-19 0 -31.5 13t-21 31.5t-18 37t-29 31.5t-48.5 13
q-36 0 -60 -22t-24 -55q0 -37 30 -58t72.5 -31.5t85.5 -23.5t73 -46t30 -88z" />
    <glyph glyph-name="Scaron" unicode="&#x160;" horiz-adv-x="617" 
d="M263 763l-112 105q-12 13 1.5 25.5t27.5 4.5l135 -75l134 75q9 6 19.5 1t13.5 -14t-4 -17l-116 -105q-16 -15 -36 -15h-27q-20 0 -36 15zM168 552q0 -44 23 -72.5t59.5 -42.5t81 -24.5t89 -24t81 -34.5t59.5 -62t23 -101q0 -92 -77 -146.5t-187 -54.5q-135 0 -212 57.5
t-77 120.5q0 22 13 36.5t36 13.5q21 -1 37 -14.5t25.5 -33.5t24 -43t32 -43t50 -33t76.5 -13q61 0 99 33t38 87q0 46 -23 76t-59.5 44t-81 23.5t-89 22t-81 32.5t-59.5 61t-23 102q0 87 69 143.5t189 56.5t194.5 -52.5t73.5 -115.5q0 -51 -52 -51q-22 0 -37.5 12.5
t-23.5 31.5t-20.5 41.5t-27 41.5t-43 31.5t-67.5 12.5q-63 0 -98 -34t-35 -85z" />
    <glyph glyph-name="scaron" unicode="&#x161;" horiz-adv-x="473" 
d="M184 567l-112 110q-12 13 1.5 26t27.5 5l135 -78l134 78q9 6 19.5 1t13.5 -14.5t-4 -17.5l-116 -110q-16 -15 -36 -15h-27q-20 0 -36 15zM156 377q0 -37 30 -58t72.5 -31.5t85.5 -23.5t73 -46t30 -88q0 -60 -57.5 -99.5t-152.5 -39.5q-93 0 -151 35.5t-58 79.5
q0 22 13.5 34t36.5 12q20 0 33.5 -13t21.5 -32t18.5 -37.5t32 -31.5t53.5 -13q41 0 66.5 20t25.5 57t-30 57.5t-72.5 30.5t-85.5 23t-73 46.5t-30 88.5q0 61 55 101.5t141 40.5q89 0 144.5 -36.5t55.5 -82.5q0 -19 -13 -31t-33 -12q-19 0 -31.5 13t-21 31.5t-18 37t-29 31.5
t-48.5 13q-36 0 -60 -22t-24 -55z" />
    <glyph glyph-name="uni0162" unicode="&#x162;" horiz-adv-x="619" 
d="M609 566q2 -10 -3 -16t-14 -6h-12q-11 0 -23 17.5t-21 38.5t-25 38.5t-35 17.5h-109v-573q0 -22 20 -39.5t20 -26.5v-3q0 -14 -22 -14h-54l-2 -55q47 1 81 -19t34 -57t-36.5 -58.5t-89.5 -21.5q-46 0 -84 18q-18 9 -12 32q5 19 18 11q26 -15 60 -15q24 0 40 9.5t15 28.5
q-1 33 -60 33q-13 0 -20 8.5t-5 21.5l12 64h-53q-21 0 -21 14v3q0 9 19.5 26.5t19.5 39.5v573h-109q-24 0 -41.5 -28t-30.5 -56t-27 -28h-12q-20 0 -17 23l18 118q3 25 28 25h502q25 0 29 -25z" />
    <glyph glyph-name="uni0163" unicode="&#x163;" horiz-adv-x="372" 
d="M233 -55q47 1 81 -19t34 -57t-36.5 -58.5t-89.5 -21.5q-46 0 -84 18q-18 9 -12 32q5 19 18 11q26 -15 60 -15q24 0 40 9.5t15 28.5q-1 33 -60 33q-13 0 -20 8.5t-5 21.5l11 58q-48 11 -75.5 51t-27.5 107v279h-57q-17 0 -17 17v14q0 18 17 18h31q38 0 61.5 26t29.5 71
q3 22 20 22h15q19 0 19 -22l1 -97h126q8 0 13 -5t5 -13v-14q0 -17 -18 -17h-126v-280q0 -35 16 -54.5t41 -19.5q60 0 71 52q4 8 12 10t14.5 -2t6.5 -13q0 -51 -34.5 -90.5t-93.5 -43.5z" />
    <glyph glyph-name="Tcaron" unicode="&#x164;" horiz-adv-x="619" 
d="M256 763l-112 105q-12 13 1.5 25.5t27.5 4.5l135 -75l134 75q9 6 19.5 1t13.5 -14t-4 -17l-116 -105q-16 -15 -36 -15h-27q-20 0 -36 15zM609 566q2 -10 -3 -16t-14 -6h-12q-11 0 -23 17.5t-21 38.5t-25 38.5t-35 17.5h-109v-573q0 -22 20 -39.5t20 -26.5v-3
q0 -14 -22 -14h-156q-21 0 -21 14v3q0 9 19.5 26.5t19.5 39.5v573h-109q-24 0 -41.5 -28t-30.5 -56t-27 -28h-12q-20 0 -17 23l18 118q3 25 28 25h502q25 0 29 -25z" />
    <glyph glyph-name="tcaron" unicode="&#x165;" horiz-adv-x="372" 
d="M276 527l-7 5q-13 10 0 28q56 78 56 191q0 9 5.5 16t13.5 7h45q21 0 21 -23q0 -71 -28.5 -129t-74.5 -92q-17 -13 -31 -3zM222 -10q-65 0 -102.5 41.5t-37.5 120.5v279h-57q-17 0 -17 17v14q0 18 17 18h31q38 0 61.5 26t29.5 71q3 22 20 22h15q19 0 19 -22l1 -97h126
q8 0 13 -5t5 -13v-14q0 -17 -18 -17h-126v-280q0 -35 16 -54.5t41 -19.5q60 0 71 52q4 8 12 10t14.5 -2t6.5 -13q0 -54 -38.5 -94t-102.5 -40z" />
    <glyph glyph-name="Tbar" unicode="&#x166;" horiz-adv-x="622" 
d="M611 566q2 -10 -3 -16t-14 -6h-12q-11 0 -23 17.5t-21 38.5t-25 38.5t-35 17.5h-109v-271h85q16 0 16 -14v-20q0 -15 -16 -15h-85v-253q0 -22 20 -39.5t20 -26.5v-3q0 -14 -22 -14h-156q-21 0 -21 14v3q0 9 19.5 26.5t19.5 39.5v253h-90q-15 0 -15 13v22q0 14 15 14h90
v271h-109q-24 0 -41.5 -28t-30.5 -56t-27 -28h-12q-20 0 -17 23l18 118q3 25 28 25h502q25 0 29 -25z" />
    <glyph glyph-name="tbar" unicode="&#x167;" horiz-adv-x="385" 
d="M341 129q4 8 12 10t14.5 -2t6.5 -13q0 -54 -38.5 -94t-102.5 -40q-65 0 -102.5 41.5t-37.5 120.5v115h-55q-15 0 -15 13v22q0 14 15 14h55v115h-57q-17 0 -17 17v14q0 18 17 18h31q38 0 61.5 26t29.5 71q3 22 20 22h15q19 0 19 -22l1 -97h126q7 0 12.5 -5t5.5 -13v-14
q0 -17 -18 -17h-126v-115h120q16 0 16 -14v-20q0 -15 -16 -15h-120v-116q0 -35 16 -54.5t41 -19.5q60 0 71 52z" />
    <glyph glyph-name="Utilde" unicode="&#x168;" horiz-adv-x="720" 
d="M318 902q36 0 86.5 -27t69.5 -27q33 0 47 27q7 13 19 13h8q17 0 12 -19q-25 -103 -102 -103q-33 0 -83.5 27.5t-72.5 27.5q-29 0 -46 -27q-10 -16 -20 -16h-10q-15 0 -12 19q8 45 35 75t69 30zM369 -10q-130 0 -210 76t-80 207v354q0 22 -19 39.5t-19 25.5v4q0 14 22 14
h157q21 0 21 -14v-4q0 -8 -20 -25.5t-20 -39.5v-354q0 -107 52 -168t141 -61q75 0 128.5 58.5t53.5 170.5v354q0 22 -19.5 39.5t-19.5 25.5v4q0 14 22 14h101q22 0 22 -14v-4q0 -8 -21 -25.5t-21 -39.5v-355q0 -130 -74.5 -206t-196.5 -76z" />
    <glyph glyph-name="utilde" unicode="&#x169;" horiz-adv-x="575" 
d="M122 592q-15 0 -12 19q8 45 35 75t69 30q36 0 86.5 -27t69.5 -27q33 0 47 27q7 13 19 13h8q17 0 12 -19q-25 -103 -102 -103q-33 0 -83.5 27.5t-72.5 27.5q-29 0 -46 -27q-10 -16 -20 -16h-10zM503 94q0 -26 8 -39t17.5 -14.5t17.5 -6t8 -15.5q0 -25 -75 -25
q-42 0 -62 17t-19 57q-44 -78 -150 -78q-84 0 -135 56t-51 162v173q0 23 -19 41.5t-19 25.5v3q0 15 18 18l105 17q34 5 34 -15l-2 -274q0 -159 100 -159q46 0 76.5 37.5t30.5 97.5v208q0 23 -19.5 41.5t-19.5 25.5v3q0 15 17 18l107 17q32 5 32 -15v-377z" />
    <glyph glyph-name="Umacron" unicode="&#x16a;" horiz-adv-x="720" 
d="M238 804q-20 0 -20 18v39q0 18 20 18h269q20 0 20 -18v-39q0 -18 -20 -18h-269zM369 -10q-130 0 -210 76t-80 207v354q0 22 -19 39.5t-19 25.5v4q0 14 22 14h157q21 0 21 -14v-4q0 -8 -20 -25.5t-20 -39.5v-354q0 -107 52 -168t141 -61q75 0 128.5 58.5t53.5 170.5v354
q0 22 -19.5 39.5t-19.5 25.5v4q0 14 22 14h101q22 0 22 -14v-4q0 -8 -21 -25.5t-21 -39.5v-355q0 -130 -74.5 -206t-196.5 -76z" />
    <glyph glyph-name="umacron" unicode="&#x16b;" horiz-adv-x="575" 
d="M153 595q-20 0 -20 18v39q0 18 20 18h269q20 0 20 -18v-39q0 -18 -20 -18h-269zM503 94q0 -26 8 -39t17.5 -14.5t17.5 -6t8 -15.5q0 -25 -75 -25q-42 0 -62 17t-19 57q-44 -78 -150 -78q-84 0 -135 56t-51 162v173q0 23 -19 41.5t-19 25.5v3q0 15 18 18l105 17
q34 5 34 -15l-2 -274q0 -159 100 -159q46 0 76.5 37.5t30.5 97.5v208q0 23 -19.5 41.5t-19.5 25.5v3q0 15 17 18l107 17q32 5 32 -15v-377z" />
    <glyph glyph-name="Uring" unicode="&#x16e;" horiz-adv-x="720" 
d="M382 751q-55 0 -91 30t-36 73q0 47 35.5 76.5t92.5 29.5q55 0 91.5 -29t36.5 -73q0 -47 -35.5 -77t-93.5 -30zM383 788q25 0 40.5 18t15.5 50q0 29 -16 47t-40 18q-25 0 -40.5 -16.5t-15.5 -48.5q0 -29 16 -48.5t40 -19.5zM369 -10q-130 0 -210 76t-80 207v354
q0 22 -19 39.5t-19 25.5v4q0 14 22 14h157q21 0 21 -14v-4q0 -8 -20 -25.5t-20 -39.5v-354q0 -107 52 -168t141 -61q75 0 128.5 58.5t53.5 170.5v354q0 22 -19.5 39.5t-19.5 25.5v4q0 14 22 14h101q22 0 22 -14v-4q0 -8 -21 -25.5t-21 -39.5v-355q0 -130 -74.5 -206
t-196.5 -76z" />
    <glyph glyph-name="uring" unicode="&#x16f;" horiz-adv-x="575" 
d="M287 540q-55 0 -91 30t-36 73q0 47 35.5 76.5t92.5 29.5q55 0 91.5 -29t36.5 -73q0 -47 -35.5 -77t-93.5 -30zM288 710q-25 0 -40.5 -16.5t-15.5 -48.5q0 -29 16 -48.5t40 -19.5q25 0 40.5 18t15.5 50q0 29 -16 47t-40 18zM503 94q0 -26 8 -39t17.5 -14.5t17.5 -6
t8 -15.5q0 -25 -75 -25q-42 0 -62 17t-19 57q-44 -78 -150 -78q-84 0 -135 56t-51 162v173q0 23 -19 41.5t-19 25.5v3q0 15 18 18l105 17q34 5 34 -15l-2 -274q0 -159 100 -159q46 0 76.5 37.5t30.5 97.5v208q0 23 -19.5 41.5t-19.5 25.5v3q0 15 17 18l107 17q32 5 32 -15
v-377z" />
    <glyph glyph-name="Uhungarumlaut" unicode="&#x170;" horiz-adv-x="720" 
d="M237 746q-10 8 2 27l110 165q19 30 41 8l25 -23q27 -24 1 -43l-152 -130q-16 -13 -27 -4zM429 746q-9 8 2 26l111 166q18 29 41 8l25 -24q26 -23 0 -43l-151 -129q-16 -13 -28 -4zM369 -10q-130 0 -210 76t-80 207v354q0 22 -19 39.5t-19 25.5v4q0 14 22 14h157
q21 0 21 -14v-4q0 -8 -20 -25.5t-20 -39.5v-354q0 -107 52 -168t141 -61q75 0 128.5 58.5t53.5 170.5v354q0 22 -19.5 39.5t-19.5 25.5v4q0 14 22 14h101q22 0 22 -14v-4q0 -8 -21 -25.5t-21 -39.5v-355q0 -130 -74.5 -206t-196.5 -76z" />
    <glyph glyph-name="uhungarumlaut" unicode="&#x171;" horiz-adv-x="575" 
d="M123 547q-10 8 2 27l110 165q19 30 41 8l25 -23q27 -24 1 -43l-152 -130q-16 -13 -27 -4zM315 547q-9 8 2 26l111 166q18 29 41 8l25 -24q26 -23 0 -43l-151 -129q-16 -13 -28 -4zM503 94q0 -26 8 -39t17.5 -14.5t17.5 -6t8 -15.5q0 -25 -75 -25q-42 0 -62 17t-19 57
q-44 -78 -150 -78q-84 0 -135 56t-51 162v173q0 23 -19 41.5t-19 25.5v3q0 15 18 18l105 17q34 5 34 -15l-2 -274q0 -159 100 -159q46 0 76.5 37.5t30.5 97.5v208q0 23 -19.5 41.5t-19.5 25.5v3q0 15 17 18l107 17q32 5 32 -15v-377z" />
    <glyph glyph-name="Uogonek" unicode="&#x172;" horiz-adv-x="720" 
d="M660 710q22 0 22 -14v-4q0 -8 -21 -25.5t-21 -39.5v-355q0 -115 -58.5 -188t-157.5 -90q-55 -60 -55 -110q0 -48 36 -48q9 0 24 5q17 6 22 -13q5 -22 -13 -32q-1 -1 -2 -1q-18 -10 -50 -10q-41 0 -71.5 21t-30.5 62q0 62 86 122h-1q-130 0 -210 76t-80 207v354
q0 22 -19 39.5t-19 25.5v4q0 14 22 14h157q21 0 21 -14v-4q0 -8 -20 -25.5t-20 -39.5v-354q0 -107 52 -168t141 -61q75 0 128.5 58.5t53.5 170.5v354q0 22 -19.5 39.5t-19.5 25.5v4q0 14 22 14h101z" />
    <glyph glyph-name="uogonek" unicode="&#x173;" horiz-adv-x="575" 
d="M554 19q0 -22 -55 -25q-51 -58 -51 -105q0 -48 36 -48q9 0 24 5q17 6 22 -13q5 -22 -13 -32q-1 -1 -2 -1q-18 -10 -50 -10q-41 0 -71.5 21t-30.5 62q0 63 88 123q-54 9 -53 72q-44 -78 -150 -78q-84 0 -135 56t-51 162v173q0 23 -19 41.5t-19 25.5v3q0 15 18 18l105 17
q34 5 34 -15l-2 -274q0 -159 100 -159q46 0 76.5 37.5t30.5 97.5v208q0 23 -19.5 41.5t-19.5 25.5v3q0 15 17 18l107 17q32 5 32 -15v-377q0 -26 8 -39t17.5 -14.5t17.5 -6t8 -15.5z" />
    <glyph glyph-name="Wcircumflex" unicode="&#x174;" horiz-adv-x="994" 
d="M394 763q-17 -9 -30.5 4.5t3.5 31.5l110 105q16 16 36 16h24q19 0 36 -16l117 -105q18 -17 6 -32.5t-35 -3.5l-139 72zM969 710q20 0 20 -14v-3q0 -10 -22 -26t-30 -40l-195 -593q-11 -34 -48 -34q-33 0 -45 32l-136 402l-140 -400q-11 -34 -43 -34t-45 32l-237 594
q-8 19 -22.5 31.5t-24 19.5t-9.5 17v2q0 14 20 14h176q21 0 21 -14v-3q0 -9 -12 -17.5t-20.5 -20t-1.5 -29.5l176 -476l131 375l-34 102q-7 21 -31 39t-24 28v2q0 14 19 14h176q19 0 19 -14v-2q0 -8 -12.5 -16t-22.5 -19.5t-4 -31.5l151 -476l149 476q7 22 -14.5 39.5
t-21.5 25.5v3q0 15 20 15h117z" />
    <glyph glyph-name="wcircumflex" unicode="&#x175;" horiz-adv-x="743" 
d="M257 550q-17 -9 -30.5 4.5t3.5 31.5l110 105q16 16 36 16h24q19 0 36 -16l117 -105q18 -17 6 -32.5t-35 -3.5l-139 72zM727 480q17 0 17 -14v-4q0 -10 -21 -27t-29 -39l-135 -374q-7 -22 -28 -22h-26q-24 0 -30 22l-103 324l-103 -324q-7 -22 -29 -22h-18q-21 0 -30 22
l-150 374q-8 21 -25.5 38.5t-17.5 27.5v4q0 14 18 14h154q17 0 17 -15v-3q0 -7 -7 -13t-13.5 -11.5t-10.5 -16t2 -26.5l94 -273l104 337q6 18 20 18l48 1q15 0 20 -17l102 -340l92 264q7 18 2 31t-14 19t-17.5 13t-8.5 14v3q0 15 18 15h108z" />
    <glyph glyph-name="Ycircumflex" unicode="&#x176;" horiz-adv-x="672" 
d="M214 763q-17 -9 -30.5 4.5t3.5 31.5l110 105q16 16 36 16h24q19 0 36 -16l117 -105q18 -17 6 -32.5t-35 -3.5l-139 72zM643 710q21 0 21 -14v-3q0 -11 -22 -27t-35 -39l-202 -339v-205q0 -22 20 -39.5t20 -26.5v-3q0 -14 -21 -14h-157q-21 0 -21 14v3q0 9 18.5 26.5
t18.5 39.5v196l-222 348q-12 20 -36 37.5t-24 28.5v3q0 14 22 14h184q22 0 22 -14v-3q0 -8 -13.5 -18.5t-21.5 -19t0 -28.5l174 -299l177 299q8 21 0 29.5t-22.5 18.5t-14.5 18v3q0 14 20 14h115z" />
    <glyph glyph-name="ycircumflex" unicode="&#x177;" horiz-adv-x="535" 
d="M153 553q-17 -9 -30.5 4.5t3.5 31.5l110 105q16 16 36 16h24q19 0 36 -16l117 -105q18 -17 6 -32.5t-35 -3.5l-139 72zM519 480q17 0 17 -14v-4q0 -11 -19 -29.5t-29 -40.5l-189 -414q-18 -41 -30.5 -65t-36 -58t-53.5 -51t-65 -17q-59 0 -97 30.5t-38 67.5q0 22 13 36
t36 14q22 0 36 -16.5t19.5 -37t17.5 -37t31 -16.5q52 0 112 149l-195 415q-11 22 -31 40.5t-20 29.5v4q0 14 18 14h158q17 0 17 -15v-3q0 -8 -9 -18t-12.5 -19t5.5 -34l132 -303l124 292q9 30 0 41.5t-25 22t-16 18.5v3q0 15 18 15h111z" />
    <glyph glyph-name="Ydieresis" unicode="&#x178;" horiz-adv-x="672" 
d="M246 783q-34 0 -55 19.5t-21 49.5t21 49.5t55 19.5q33 0 53.5 -19.5t20.5 -49.5t-20.5 -49.5t-53.5 -19.5zM456 783q-33 0 -54 19.5t-21 49.5t21 49.5t54 19.5t54 -19.5t21 -49.5t-21 -49.5t-54 -19.5zM643 710q21 0 21 -14v-3q0 -11 -22 -27t-35 -39l-202 -339v-205
q0 -22 20 -39.5t20 -26.5v-3q0 -14 -21 -14h-157q-21 0 -21 14v3q0 9 18.5 26.5t18.5 39.5v196l-222 348q-12 20 -36 37.5t-24 28.5v3q0 14 22 14h184q22 0 22 -14v-3q0 -8 -13.5 -18.5t-21.5 -19t0 -28.5l174 -299l177 299q8 21 0 29.5t-22.5 18.5t-14.5 18v3q0 14 20 14
h115z" />
    <glyph glyph-name="Zacute" unicode="&#x179;" horiz-adv-x="613" 
d="M227 779q-21 -2 -28 14q-6 18 11 28l197 93q31 15 41 -17l12 -47q5 -14 -1.5 -24t-22.5 -11zM585 166q24 0 18 -22l-29 -122q-7 -22 -24 -22h-508q-9 0 -15.5 6t-6.5 14v8q0 9 16 32l400 600h-275q-16 0 -32 -17t-26.5 -38t-25 -38t-28.5 -17h-5q-25 0 -19 28l27 107
q6 25 29 25h476q8 0 14 -6t6 -14v-10q0 -10 -18 -37l-397 -593h293q22 0 41.5 18t31.5 40t26.5 40t27.5 18h3z" />
    <glyph glyph-name="zacute" unicode="&#x17a;" horiz-adv-x="488" 
d="M181 554q-21 -7 -31 8q-9 17 6 30l175 129q27 21 44 -9l21 -44q7 -12 2.5 -23.5t-19.5 -15.5zM462 141q22 0 15 -25l-28 -94q-7 -22 -25 -22h-378q-8 0 -15 6t-7 14v8q0 8 16 32l277 385h-152q-19 0 -36 -15.5t-27.5 -34.5t-24.5 -34.5t-27 -15.5h-5q-11 0 -15 8t0 21
l25 81q9 25 29 25h343q8 0 14 -6t6 -14v-10q0 -8 -21 -37l-276 -378h179q22 0 41.5 16.5t31 36.5t26.5 36.5t28 16.5h6z" />
    <glyph glyph-name="Zdotaccent" unicode="&#x17b;" horiz-adv-x="613" 
d="M324 768q-36 0 -57.5 20t-21.5 51t22 51.5t57 20.5q34 0 55.5 -20.5t21.5 -51.5t-21.5 -51t-55.5 -20zM585 166q24 0 18 -22l-29 -122q-7 -22 -24 -22h-508q-9 0 -15.5 6t-6.5 14v8q0 9 16 32l400 600h-275q-16 0 -32 -17t-26.5 -38t-25 -38t-28.5 -17h-5q-25 0 -19 28
l27 107q6 25 29 25h476q8 0 14 -6t6 -14v-10q0 -10 -18 -37l-397 -593h293q22 0 41.5 18t31.5 40t26.5 40t27.5 18h3z" />
    <glyph glyph-name="zdotaccent" unicode="&#x17c;" horiz-adv-x="488" 
d="M267 563q-37 0 -60 21t-23 54t23 54t60 21q36 0 58.5 -21t22.5 -54t-22.5 -54t-58.5 -21zM462 141q22 0 15 -25l-28 -94q-7 -22 -25 -22h-378q-8 0 -15 6t-7 14v8q0 8 16 32l277 385h-152q-19 0 -36 -15.5t-27.5 -34.5t-24.5 -34.5t-27 -15.5h-5q-11 0 -15 8t0 21l25 81
q9 25 29 25h343q8 0 14 -6t6 -14v-10q0 -8 -21 -37l-276 -378h179q22 0 41.5 16.5t31 36.5t26.5 36.5t28 16.5h6z" />
    <glyph glyph-name="Zcaron" unicode="&#x17d;" horiz-adv-x="613" 
d="M266 763l-112 105q-12 13 1.5 25.5t27.5 4.5l135 -75l134 75q9 6 19.5 1t13.5 -14t-4 -17l-116 -105q-16 -15 -36 -15h-27q-20 0 -36 15zM585 166q24 0 18 -22l-29 -122q-7 -22 -24 -22h-508q-9 0 -15.5 6t-6.5 14v8q0 9 16 32l400 600h-275q-16 0 -32 -17t-26.5 -38
t-25 -38t-28.5 -17h-5q-25 0 -19 28l27 107q6 25 29 25h476q8 0 14 -6t6 -14v-10q0 -10 -18 -37l-397 -593h293q22 0 41.5 18t31.5 40t26.5 40t27.5 18h3z" />
    <glyph glyph-name="zcaron" unicode="&#x17e;" horiz-adv-x="488" 
d="M215 567l-112 110q-12 13 1.5 26t27.5 5l135 -78l134 78q9 6 19.5 1t13.5 -14.5t-4 -17.5l-116 -110q-16 -15 -36 -15h-27q-20 0 -36 15zM462 141q22 0 15 -25l-28 -94q-7 -22 -25 -22h-378q-8 0 -15 6t-7 14v8q0 8 16 32l277 385h-152q-19 0 -36 -15.5t-27.5 -34.5
t-24.5 -34.5t-27 -15.5h-5q-11 0 -15 8t0 21l25 81q9 25 29 25h343q8 0 14 -6t6 -14v-10q0 -8 -21 -37l-276 -378h179q22 0 41.5 16.5t31 36.5t26.5 36.5t28 16.5h6z" />
    <glyph glyph-name="uni01EA" unicode="&#x1ea;" horiz-adv-x="767" 
d="M733 351q0 -130 -74 -227.5t-190 -124.5q-60 -65 -60 -116q0 -48 36 -48q9 0 24 5q17 6 22 -13q5 -22 -13 -32q-1 -1 -2 -1q-18 -10 -50 -10q-41 0 -71.5 21t-30.5 62q0 65 89 124q-8 -1 -23 -1q-155 0 -255 107.5t-100 257.5q0 159 98 262t252 103q153 0 250.5 -108.5
t97.5 -260.5zM154 445q0 -169 75 -285t193 -116q84 0 138 64t54 155q0 170 -76 286.5t-195 116.5q-85 0 -137 -61.5t-52 -159.5z" />
    <glyph glyph-name="uni01EB" unicode="&#x1eb;" horiz-adv-x="572" 
d="M541 237q0 -97 -58 -166t-153 -79q-50 -60 -50 -105q0 -48 36 -48q9 0 24 5q17 6 22 -13q5 -22 -13 -32q-1 -1 -2 -1q-18 -10 -50 -10q-41 0 -71.5 21t-30.5 62q0 60 83 120q-114 7 -181.5 81t-67.5 173q0 105 72 175t176 70q116 0 190 -73.5t74 -179.5zM147 284
q0 -98 47.5 -177t120.5 -79q48 0 78 44.5t30 123.5q0 106 -45.5 181t-113.5 75q-54 0 -85.5 -43.5t-31.5 -124.5z" />
    <glyph glyph-name="AEacute" unicode="&#x1fc;" horiz-adv-x="943" 
d="M496 779q-21 -2 -28 14q-6 18 11 28l197 93q31 15 41 -17l12 -47q5 -14 -1.5 -24t-22.5 -11zM911 156q19 0 14 -19l-25 -111q-5 -26 -28 -26h-421q-22 0 -22 14v3q0 10 19 28t19 39v99h-247l-57 -100q-8 -20 -2 -28t17.5 -18.5t11.5 -18.5v-3q0 -15 -22 -15h-153
q-22 0 -22 15v3q0 10 24.5 26.5t37.5 38.5l310 527q10 24 5 35.5t-17 25t-12 20.5v5q0 14 20 14h483q23 0 29 -25l22 -104q2 -10 -3 -16t-14 -6h-5q-13 0 -27.5 16t-26 34.5t-30.5 34.5t-39 16h-139q-34 0 -34 -40v-229h149q19 0 32.5 16.5t22.5 32.5t18 16h6q15 0 15 -22
v-137q0 -21 -15 -21h-6q-9 0 -18 15t-22.5 30.5t-32.5 15.5h-149v-238q0 -23 12 -36t32 -13h158q22 0 42 16.5t31.5 36.5t25.5 36.5t27 16.5h6zM251 237h216v380z" />
    <glyph glyph-name="aeacute" unicode="&#x1fd;" horiz-adv-x="798" 
d="M346 553q-21 -7 -31 8q-9 17 6 30l175 129q27 21 44 -9l21 -44q7 -12 2.5 -23.5t-19.5 -15.5zM739 151q8 11 21 8t11 -18q-8 -53 -62 -100t-141 -47q-129 0 -194 104q-11 -46 -50.5 -77t-103.5 -31q-83 0 -135 40.5t-52 110.5t50.5 110t131.5 40q72 0 117 -34l-2 20
q-9 92 -32.5 134t-73.5 42q-31 0 -50.5 -19t-26.5 -41.5t-21.5 -41.5t-36.5 -19q-23 0 -36.5 13t-13.5 34q0 48 55.5 79.5t129.5 31.5q109 0 170 -75q68 79 176 79q90 0 138.5 -44.5t48.5 -102.5q0 -52 -51 -70l-242 -89q19 -52 57 -81t90 -29q70 0 128 73zM550 456
q-47 0 -75 -45t-28 -118q0 -34 6 -64l166 72q26 12 26 42q0 36 -27.5 74.5t-67.5 38.5zM253 29q42 0 66.5 33.5t23.5 74.5l-3 32q-5 38 -31 60t-64 22q-41 0 -67 -24t-26 -62q0 -59 27.5 -97.5t73.5 -38.5z" />
    <glyph glyph-name="Oslashacute" unicode="&#x1fe;" horiz-adv-x="781" 
d="M301 779q-21 -2 -28 14q-6 18 11 28l197 93q31 15 41 -17l12 -47q5 -14 -1.5 -24t-22.5 -11zM665 587q76 -101 76 -236q0 -153 -99 -257t-244 -104q-150 0 -251 103l-69 -66q-11 -8 -21 0l-19 17q-9 9 5 22l70 67q-70 96 -70 222q0 159 98 262t252 103q140 0 237 -94
l61 58q15 14 25 4l17 -16q11 -9 -3 -23zM162 445q0 -127 43 -225l342 327q-77 119 -196 119q-85 0 -137 -61.5t-52 -159.5zM430 44q84 0 138 64t54 155q0 134 -49 237l-344 -328q78 -128 201 -128z" />
    <glyph glyph-name="oslashacute" unicode="&#x1ff;" horiz-adv-x="580" 
d="M197 554q-21 -7 -31 8q-9 17 6 30l175 129q27 21 44 -9l21 -44q7 -12 2.5 -23.5t-19.5 -15.5zM542 451l-55 -52q58 -69 58 -162q0 -105 -67 -176t-174 -71t-180 60l-57 -55q-9 -9 -18 0l-17 16q-10 10 3 21l55 52q-57 69 -57 161q0 105 72 175t176 70q101 0 171 -57
l54 52q12 12 24 2l14 -14q10 -10 -2 -22zM151 284q0 -64 21 -120l214 206q-46 82 -118 82q-54 0 -85.5 -43.5t-31.5 -124.5zM427 196q0 68 -20 126l-214 -206q51 -88 126 -88q48 0 78 44.5t30 123.5z" />
    <glyph glyph-name="uni0218" unicode="&#x218;" horiz-adv-x="617" 
d="M320 -10q-135 0 -212 57.5t-77 120.5q0 22 13 36.5t36 13.5q21 -1 37 -14.5t25.5 -33.5t24 -43t32 -43t50 -33t76.5 -13q61 0 99 33t38 87q0 46 -23 76t-59.5 44t-81 23.5t-89 22t-81 32.5t-59.5 61t-23 102q0 87 69 143.5t189 56.5t194.5 -52.5t73.5 -115.5
q0 -51 -52 -51q-22 0 -37.5 12.5t-23.5 31.5t-20.5 41.5t-27 41.5t-43 31.5t-67.5 12.5q-63 0 -98 -34t-35 -85q0 -44 23 -72.5t59.5 -42.5t81 -24.5t89 -24t81 -34.5t59.5 -62t23 -101q0 -92 -77 -146.5t-187 -54.5zM284 -309q-12 -7 -22 3.5t0 20.5q47 45 52 82
q4 16 -9 16q-23 0 -38 18.5t-15 47.5q0 32 19 52.5t50 20.5q30 0 51 -23t21 -61q0 -105 -109 -177z" />
    <glyph glyph-name="uni0219" unicode="&#x219;" horiz-adv-x="473" 
d="M237 -9q-93 0 -151 35.5t-58 79.5q0 22 13.5 34t36.5 12q20 0 33.5 -13t21.5 -32t18.5 -37.5t32 -31.5t53.5 -13q41 0 66.5 20t25.5 57t-30 57.5t-72.5 30.5t-85.5 23t-73 46.5t-30 88.5q0 61 55 101.5t141 40.5q89 0 144.5 -36.5t55.5 -82.5q0 -19 -13 -31t-33 -12
q-19 0 -31.5 13t-21 31.5t-18 37t-29 31.5t-48.5 13q-36 0 -60 -22t-24 -55q0 -37 30 -58t72.5 -31.5t85.5 -23.5t73 -46t30 -88q0 -60 -57.5 -99.5t-152.5 -39.5zM205 -309q-12 -7 -22 3.5t0 20.5q47 45 52 82q4 16 -9 16q-23 0 -38 18.5t-15 47.5q0 32 19 52.5t50 20.5
q30 0 51 -23t21 -61q0 -105 -109 -177z" />
    <glyph glyph-name="uni021A" unicode="&#x21a;" horiz-adv-x="619" 
d="M229 0q-21 0 -21 14v3q0 9 19.5 26.5t19.5 39.5v573h-109q-24 0 -41.5 -28t-30.5 -56t-27 -28h-12q-20 0 -17 23l18 118q3 25 28 25h502q25 0 29 -25l22 -119q2 -10 -3 -16t-14 -6h-12q-11 0 -23 17.5t-21 38.5t-25 38.5t-35 17.5h-109v-573q0 -22 20 -39.5t20 -26.5v-3
q0 -14 -22 -14h-156zM276 -309q-12 -7 -22 3.5t0 20.5q47 45 52 82q4 16 -9 16q-23 0 -38 18.5t-15 47.5q0 32 19 52.5t50 20.5q30 0 51 -23t21 -61q0 -105 -109 -177z" />
    <glyph glyph-name="uni021B" unicode="&#x21b;" horiz-adv-x="372" 
d="M222 -10q-65 0 -102.5 41.5t-37.5 120.5v279h-57q-17 0 -17 17v14q0 18 17 18h31q38 0 61.5 26t29.5 71q3 22 20 22h15q19 0 19 -22l1 -97h126q8 0 13 -5t5 -13v-14q0 -17 -18 -17h-126v-280q0 -35 16 -54.5t41 -19.5q60 0 71 52q4 8 12 10t14.5 -2t6.5 -13
q0 -54 -38.5 -94t-102.5 -40zM173 -304q-12 -7 -22 3.5t0 20.5q47 45 52 82q4 16 -9 16q-23 0 -38 18.5t-15 47.5q0 32 19 52.5t50 20.5q30 0 51 -23t21 -61q0 -105 -109 -177z" />
    <glyph glyph-name="uni0237" unicode="&#x237;" horiz-adv-x="258" 
d="M56 -189q-57 0 -92 23.5t-35 65.5q0 22 14 36t37 14q24 0 37.5 -15t17 -33.5t14 -33.5t29.5 -15t31 14t12 36q0 30 -20.5 68t-20.5 63v312q0 24 -18.5 43t-18.5 26v3q0 9 17 18l104 50q16 7 26 1.5t10 -18.5v-469q0 -68 -24 -117q-36 -72 -120 -72z" />
    <glyph glyph-name="circumflex" unicode="&#x2c6;" 
d="M362 585q18 -17 6 -32.5t-35 -3.5l-139 72l-128 -72q-17 -9 -30.5 4.5t3.5 31.5l110 105q16 16 36 16h24q19 0 36 -16z" />
    <glyph glyph-name="caron" unicode="&#x2c7;" 
d="M335 704q9 6 19.5 1t13.5 -14.5t-4 -17.5l-116 -110q-16 -15 -36 -15h-27q-20 0 -36 15l-112 110q-12 13 1.5 26t27.5 5l135 -78z" />
    <glyph glyph-name="breve" unicode="&#x2d8;" 
d="M221 553q-64 0 -108.5 37.5t-52.5 91.5q-3 19 17 24t26 -8q11 -30 44 -47.5t74 -17.5q42 0 75 17.5t44 47.5q6 12 25.5 7t17.5 -23q-7 -54 -51.5 -91.5t-110.5 -37.5z" />
    <glyph glyph-name="dotaccent" unicode="&#x2d9;" 
d="M149 563q-37 0 -60 21t-23 54t23 54t60 21q36 0 58.5 -21t22.5 -54t-22.5 -54t-58.5 -21z" />
    <glyph glyph-name="ring" unicode="&#x2da;" 
d="M212 536q-55 0 -91 30t-36 73q0 47 35.5 76.5t92.5 29.5q55 0 91.5 -29t36.5 -73q0 -47 -35.5 -77t-93.5 -30zM213 573q25 0 40.5 18t15.5 50q0 29 -16 47t-40 18q-25 0 -40.5 -16.5t-15.5 -48.5q0 -29 16 -48.5t40 -19.5z" />
    <glyph glyph-name="ogonek" unicode="&#x2db;" 
d="M338 -218q-41 0 -71.5 21t-30.5 62q0 36 30 71.5t80 65.5h40q-65 -67 -65 -121q0 -48 36 -48q9 0 24 5q17 6 22 -13q5 -22 -13 -32q-1 -1 -2 -1q-18 -10 -50 -10z" />
    <glyph glyph-name="tilde" unicode="&#x2dc;" 
d="M177 712q36 0 86.5 -27t69.5 -27q33 0 47 27q6 13 19 13h8q17 0 12 -19q-25 -103 -102 -103q-33 0 -83.5 27.5t-72.5 27.5q-29 0 -46 -27q-10 -16 -20 -16h-10q-15 0 -12 19q8 45 35 75t69 30z" />
    <glyph glyph-name="hungarumlaut" unicode="&#x2dd;" 
d="M58 543q-10 8 2 27l110 165q19 30 41 8l25 -23q27 -24 1 -43l-152 -130q-16 -13 -27 -4zM250 543q-9 8 2 26l111 166q18 29 41 8l25 -24q26 -23 0 -43l-151 -129q-16 -13 -28 -4z" />
    <glyph glyph-name="gravecomb" unicode="&#x300;" horiz-adv-x="0" 
d="M-263 549l-198 76q-31 9 -17 39l22 44q15 30 44 9l174 -129q16 -13 6 -30q-9 -14 -31 -9z" />
    <glyph glyph-name="acutecomb" unicode="&#x301;" horiz-adv-x="0" 
d="M-355 550q-21 -7 -31 8q-9 17 6 30l175 129q27 21 44 -9l21 -44q7 -12 2.5 -23.5t-19.5 -15.5z" />
    <glyph glyph-name="uni0302" unicode="&#x302;" horiz-adv-x="0" 
d="M-40 585q18 -17 6 -32.5t-35 -3.5l-139 72l-128 -72q-17 -9 -30.5 4.5t3.5 31.5l110 105q16 16 36 16h24q19 0 36 -16z" />
    <glyph glyph-name="tildecomb" unicode="&#x303;" horiz-adv-x="0" 
d="M-423 712q36 0 86.5 -27t69.5 -27q33 0 47 27q6 13 19 13h8q17 0 12 -19q-25 -103 -102 -103q-33 0 -83.5 27.5t-72.5 27.5q-29 0 -46 -27q-10 -16 -20 -16h-10q-15 0 -12 19q8 45 35 75t69 30z" />
    <glyph glyph-name="uni0304" unicode="&#x304;" horiz-adv-x="0" 
d="M-432 591q-20 0 -20 18v39q0 18 20 18h269q20 0 20 -18v-39q0 -18 -20 -18h-269z" />
    <glyph glyph-name="uni0306" unicode="&#x306;" horiz-adv-x="0" 
d="M-285 553q-64 0 -108.5 37.5t-52.5 91.5q-3 19 17 24t26 -8q11 -30 44 -47.5t74 -17.5q42 0 75 17.5t44 47.5q6 12 25.5 7t17.5 -23q-7 -54 -51.5 -91.5t-110.5 -37.5z" />
    <glyph glyph-name="uni0307" unicode="&#x307;" horiz-adv-x="0" 
d="M-150 563q-37 0 -60 21t-23 54t23 54t60 21q36 0 58.5 -21t22.5 -54t-22.5 -54t-58.5 -21z" />
    <glyph glyph-name="uni0308" unicode="&#x308;" horiz-adv-x="0" 
d="M-420 566q-34 0 -55 19.5t-21 49.5t21 49.5t55 19.5q33 0 53.5 -19.5t20.5 -49.5t-20.5 -49.5t-53.5 -19.5zM-210 566q-33 0 -54 19.5t-21 49.5t21 49.5t54 19.5t54 -19.5t21 -49.5t-21 -49.5t-54 -19.5z" />
    <glyph glyph-name="uni030A" unicode="&#x30a;" horiz-adv-x="0" 
d="M-307 536q-55 0 -91 30t-36 73q0 47 35.5 76.5t92.5 29.5q55 0 91.5 -29t36.5 -73q0 -47 -35.5 -77t-93.5 -30zM-306 573q25 0 40.5 18t15.5 50q0 29 -16 47t-40 18q-25 0 -40.5 -16.5t-15.5 -48.5q0 -29 16 -48.5t40 -19.5z" />
    <glyph glyph-name="uni030B" unicode="&#x30b;" horiz-adv-x="0" 
d="M-439 543q-10 8 2 27l110 165q19 30 41 8l25 -23q27 -24 1 -43l-152 -130q-16 -13 -27 -4zM-247 543q-9 8 2 26l111 166q18 29 41 8l25 -24q26 -23 0 -43l-151 -129q-16 -13 -28 -4z" />
    <glyph glyph-name="uni030C" unicode="&#x30c;" horiz-adv-x="0" 
d="M-67 704q9 6 19.5 1t13.5 -14.5t-4 -17.5l-116 -110q-16 -15 -36 -15h-27q-20 0 -36 15l-112 110q-12 13 1.5 26t27.5 5l135 -78z" />
    <glyph glyph-name="uni0312" unicode="&#x312;" horiz-adv-x="0" 
d="M-174 406q-12 -8 -22 3t0 22q48 46 53 84q4 16 -9 16q-24 0 -39.5 18.5t-15.5 48.5q0 33 19.5 54.5t51.5 21.5q31 0 52.5 -23.5t21.5 -62.5q0 -107 -112 -182z" />
    <glyph glyph-name="uni0326" unicode="&#x326;" horiz-adv-x="0" 
d="M-323 -309q-12 -7 -22 3.5t0 20.5q47 45 52 82q4 16 -9 16q-23 0 -38 18.5t-15 47.5q0 32 19 52.5t50 20.5q30 0 51 -23t21 -61q0 -105 -109 -177z" />
    <glyph glyph-name="uni0327" unicode="&#x327;" horiz-adv-x="0" 
d="M-262 -55q47 1 81 -19t34 -57t-36.5 -58.5t-89.5 -21.5q-46 0 -84 18q-18 9 -12 32q5 19 18 11q26 -15 60 -15q24 0 40 9.5t15 28.5q-1 33 -60 33q-13 0 -20 8.5t-5 21.5l12 64h49z" />
    <glyph glyph-name="uni0328" unicode="&#x328;" horiz-adv-x="0" 
d="M-262 -218q-41 0 -71.5 21t-30.5 62q0 36 30 71.5t80 65.5h40q-65 -67 -65 -121q0 -48 36 -48q9 0 24 5q17 6 22 -13q5 -22 -13 -32q-1 -1 -2 -1q-18 -10 -50 -10z" />
    <glyph glyph-name="uni0335" unicode="&#x335;" horiz-adv-x="0" 
d="M-407 266q-15 0 -15 13v22q0 14 15 14h295q16 0 16 -14v-20q0 -15 -16 -15h-295z" />
    <glyph glyph-name="uni0336" unicode="&#x336;" horiz-adv-x="0" 
d="M-688 260q-18 0 -18 15v18q0 15 18 15h698q20 0 20 -15v-18q0 -15 -20 -15h-698z" />
    <glyph glyph-name="uni0337" unicode="&#x337;" horiz-adv-x="0" 
d="M-434 165q-11 -7 -19 3l-14 22q-8 10 5 20l261 172q15 12 24 -2l13 -21q8 -12 -6 -21z" />
    <glyph glyph-name="uni0338" unicode="&#x338;" horiz-adv-x="0" 
d="M-554 21l-17 16q-10 10 3 21l471 453q12 12 24 2l14 -14q10 -10 -2 -22l-475 -456q-9 -9 -18 0z" />
    <glyph glyph-name="Wgrave" unicode="&#x1e80;" horiz-adv-x="994" 
d="M401 814q-15 1 -21.5 11t-2.5 24l13 47q8 34 41 18l196 -93q17 -9 12 -28q-6 -15 -29 -15zM969 710q20 0 20 -14v-3q0 -10 -22 -26t-30 -40l-195 -593q-11 -34 -48 -34q-33 0 -45 32l-136 402l-140 -400q-11 -34 -43 -34t-45 32l-237 594q-8 19 -22.5 31.5t-24 19.5
t-9.5 17v2q0 14 20 14h176q21 0 21 -14v-3q0 -9 -12 -17.5t-20.5 -20t-1.5 -29.5l176 -476l131 375l-34 102q-7 21 -31 39t-24 28v2q0 14 19 14h176q19 0 19 -14v-2q0 -8 -12.5 -16t-22.5 -19.5t-4 -31.5l151 -476l149 476q7 22 -14.5 39.5t-21.5 25.5v3q0 15 20 15h117z
" />
    <glyph glyph-name="wgrave" unicode="&#x1e81;" horiz-adv-x="743" 
d="M278 622q-31 9 -17 39l22 44q15 30 44 9l174 -129q16 -13 6 -30q-9 -14 -31 -9zM727 480q17 0 17 -14v-4q0 -10 -21 -27t-29 -39l-135 -374q-7 -22 -28 -22h-26q-24 0 -30 22l-103 324l-103 -324q-7 -22 -29 -22h-18q-21 0 -30 22l-150 374q-8 21 -25.5 38.5t-17.5 27.5
v4q0 14 18 14h154q17 0 17 -15v-3q0 -7 -7 -13t-13.5 -11.5t-10.5 -16t2 -26.5l94 -273l104 337q6 18 20 18l48 1q15 0 20 -17l102 -340l92 264q7 18 2 31t-14 19t-17.5 13t-8.5 14v3q0 15 18 15h108z" />
    <glyph glyph-name="Wacute" unicode="&#x1e82;" horiz-adv-x="994" 
d="M438 779q-21 -2 -28 14q-6 18 11 28l197 93q31 15 41 -17l12 -47q5 -14 -1.5 -24t-22.5 -11zM969 710q20 0 20 -14v-3q0 -10 -22 -26t-30 -40l-195 -593q-11 -34 -48 -34q-33 0 -45 32l-136 402l-140 -400q-11 -34 -43 -34t-45 32l-237 594q-8 19 -22.5 31.5t-24 19.5
t-9.5 17v2q0 14 20 14h176q21 0 21 -14v-3q0 -9 -12 -17.5t-20.5 -20t-1.5 -29.5l176 -476l131 375l-34 102q-7 21 -31 39t-24 28v2q0 14 19 14h176q19 0 19 -14v-2q0 -8 -12.5 -16t-22.5 -19.5t-4 -31.5l151 -476l149 476q7 22 -14.5 39.5t-21.5 25.5v3q0 15 20 15h117z
" />
    <glyph glyph-name="wacute" unicode="&#x1e83;" horiz-adv-x="743" 
d="M306 551q-21 -7 -31 8q-9 17 6 30l175 129q27 21 44 -9l21 -44q7 -12 2.5 -23.5t-19.5 -15.5zM727 480q17 0 17 -14v-4q0 -10 -21 -27t-29 -39l-135 -374q-7 -22 -28 -22h-26q-24 0 -30 22l-103 324l-103 -324q-7 -22 -29 -22h-18q-21 0 -30 22l-150 374
q-8 21 -25.5 38.5t-17.5 27.5v4q0 14 18 14h154q17 0 17 -15v-3q0 -7 -7 -13t-13.5 -11.5t-10.5 -16t2 -26.5l94 -273l104 337q6 18 20 18l48 1q15 0 20 -17l102 -340l92 264q7 18 2 31t-14 19t-17.5 13t-8.5 14v3q0 15 18 15h108z" />
    <glyph glyph-name="Wdieresis" unicode="&#x1e84;" horiz-adv-x="994" 
d="M426 783q-34 0 -55 19.5t-21 49.5t21 49.5t55 19.5q33 0 53.5 -19.5t20.5 -49.5t-20.5 -49.5t-53.5 -19.5zM636 783q-33 0 -54 19.5t-21 49.5t21 49.5t54 19.5t54 -19.5t21 -49.5t-21 -49.5t-54 -19.5zM969 710q20 0 20 -14v-3q0 -10 -22 -26t-30 -40l-195 -593
q-11 -34 -48 -34q-33 0 -45 32l-136 402l-140 -400q-11 -34 -43 -34t-45 32l-237 594q-8 19 -22.5 31.5t-24 19.5t-9.5 17v2q0 14 20 14h176q21 0 21 -14v-3q0 -9 -12 -17.5t-20.5 -20t-1.5 -29.5l176 -476l131 375l-34 102q-7 21 -31 39t-24 28v2q0 14 19 14h176
q19 0 19 -14v-2q0 -8 -12.5 -16t-22.5 -19.5t-4 -31.5l151 -476l149 476q7 22 -14.5 39.5t-21.5 25.5v3q0 15 20 15h117z" />
    <glyph glyph-name="wdieresis" unicode="&#x1e85;" horiz-adv-x="743" 
d="M288 563q-34 0 -55 19.5t-21 49.5t21 49.5t55 19.5q33 0 53.5 -19.5t20.5 -49.5t-20.5 -49.5t-53.5 -19.5zM498 563q-33 0 -54 19.5t-21 49.5t21 49.5t54 19.5t54 -19.5t21 -49.5t-21 -49.5t-54 -19.5zM727 480q17 0 17 -14v-4q0 -10 -21 -27t-29 -39l-135 -374
q-7 -22 -28 -22h-26q-24 0 -30 22l-103 324l-103 -324q-7 -22 -29 -22h-18q-21 0 -30 22l-150 374q-8 21 -25.5 38.5t-17.5 27.5v4q0 14 18 14h154q17 0 17 -15v-3q0 -7 -7 -13t-13.5 -11.5t-10.5 -16t2 -26.5l94 -273l104 337q6 18 20 18l48 1q15 0 20 -17l102 -340l92 264
q7 18 2 31t-14 19t-17.5 13t-8.5 14v3q0 15 18 15h108z" />
    <glyph glyph-name="uni1E9E" unicode="&#x1e9e;" horiz-adv-x="661" 
d="M434 406q88 -8 143 -61.5t55 -142.5q0 -93 -69 -147.5t-182 -54.5q-14 0 -19.5 13.5t-1 27t16.5 13.5q59 0 95 33.5t36 96.5q0 77 -31.5 132t-84.5 55q-27 0 -32 20.5t8 30.5l113 120q0 56 -38 91t-118 35q-61 0 -98.5 -42.5t-37.5 -112.5v-428q0 -23 23.5 -40t23.5 -28
v-3q0 -4 -1 -7l-1.5 -4.5t-4 -2t-4.5 -0.5h-6h-172q-18 0 -18 14v3q0 9 19.5 27t19.5 41v415q0 98 73.5 159t189.5 61q110 0 180.5 -46t82.5 -111q6 -29 -20 -50z" />
    <glyph glyph-name="Ygrave" unicode="&#x1ef2;" horiz-adv-x="672" 
d="M221 814q-15 1 -21.5 11t-2.5 24l13 47q8 34 41 18l196 -93q17 -9 12 -28q-6 -15 -29 -15zM643 710q21 0 21 -14v-3q0 -11 -22 -27t-35 -39l-202 -339v-205q0 -22 20 -39.5t20 -26.5v-3q0 -14 -21 -14h-157q-21 0 -21 14v3q0 9 18.5 26.5t18.5 39.5v196l-222 348
q-12 20 -36 37.5t-24 28.5v3q0 14 22 14h184q22 0 22 -14v-3q0 -8 -13.5 -18.5t-21.5 -19t0 -28.5l174 -299l177 299q8 21 0 29.5t-22.5 18.5t-14.5 18v3q0 14 20 14h115z" />
    <glyph glyph-name="ygrave" unicode="&#x1ef3;" horiz-adv-x="535" 
d="M174 625q-31 9 -17 39l22 44q15 30 44 9l174 -129q16 -13 6 -30q-9 -14 -31 -9zM519 480q17 0 17 -14v-4q0 -11 -19 -29.5t-29 -40.5l-189 -414q-18 -41 -30.5 -65t-36 -58t-53.5 -51t-65 -17q-59 0 -97 30.5t-38 67.5q0 22 13 36t36 14q22 0 36 -16.5t19.5 -37t17.5 -37
t31 -16.5q52 0 112 149l-195 415q-11 22 -31 40.5t-20 29.5v4q0 14 18 14h158q17 0 17 -15v-3q0 -8 -9 -18t-12.5 -19t5.5 -34l132 -303l124 292q9 30 0 41.5t-25 22t-16 18.5v3q0 15 18 15h111z" />
    <glyph glyph-name="uni1EF8" unicode="&#x1ef8;" horiz-adv-x="672" 
d="M193 778q-15 0 -12 19q8 45 35 75t69 30q36 0 86.5 -27t69.5 -27q33 0 47 27q6 13 19 13h8q17 0 12 -19q-25 -103 -102 -103q-33 0 -83.5 27.5t-72.5 27.5q-29 0 -46 -27q-10 -16 -20 -16h-10zM643 710q21 0 21 -14v-3q0 -11 -22 -27t-35 -39l-202 -339v-205
q0 -22 20 -39.5t20 -26.5v-3q0 -14 -21 -14h-157q-21 0 -21 14v3q0 9 18.5 26.5t18.5 39.5v196l-222 348q-12 20 -36 37.5t-24 28.5v3q0 14 22 14h184q22 0 22 -14v-3q0 -8 -13.5 -18.5t-21.5 -19t0 -28.5l174 -299l177 299q8 21 0 29.5t-22.5 18.5t-14.5 18v3q0 14 20 14
h115z" />
    <glyph glyph-name="uni1EF9" unicode="&#x1ef9;" horiz-adv-x="535" 
d="M122 592q-15 0 -12 19q8 45 35 75t69 30q36 0 86.5 -27t69.5 -27q33 0 47 27q7 13 19 13h8q17 0 12 -19q-25 -103 -102 -103q-33 0 -83.5 27.5t-72.5 27.5q-29 0 -46 -27q-10 -16 -20 -16h-10zM519 480q17 0 17 -14v-4q0 -11 -19 -29.5t-29 -40.5l-189 -414
q-18 -41 -30.5 -65t-36 -58t-53.5 -51t-65 -17q-59 0 -97 30.5t-38 67.5q0 22 13 36t36 14q22 0 36 -16.5t19.5 -37t17.5 -37t31 -16.5q52 0 112 149l-195 415q-11 22 -31 40.5t-20 29.5v4q0 14 18 14h158q17 0 17 -15v-3q0 -8 -9 -18t-12.5 -19t5.5 -34l132 -303l124 292
q9 30 0 41.5t-25 22t-16 18.5v3q0 15 18 15h111z" />
    <glyph glyph-name="endash" unicode="&#x2013;" horiz-adv-x="559" 
d="M70 293q-17 0 -17 18v27q0 17 17 17h419q16 0 16 -17v-27q0 -18 -16 -18h-419z" />
    <glyph glyph-name="emdash" unicode="&#x2014;" horiz-adv-x="681" 
d="M70 293q-17 0 -17 18v27q0 17 17 17h541q17 0 17 -17v-27q0 -18 -17 -18h-541z" />
    <glyph glyph-name="quoteleft" unicode="&#x2018;" horiz-adv-x="220" 
d="M149 772q13 8 23.5 -3.5t-0.5 -22.5q-49 -48 -56 -88q-3 -17 10 -17q24 0 40.5 -20t16.5 -51q0 -35 -20.5 -57t-53.5 -22t-55.5 24.5t-22.5 65.5q0 113 118 191z" />
    <glyph glyph-name="quoteright" unicode="&#x2019;" horiz-adv-x="226" 
d="M81 459q-13 -8 -23.5 3.5t0.5 22.5q49 48 56 88q3 17 -10 17q-24 0 -40.5 20t-16.5 51q0 35 20.5 57t53.5 22t55.5 -24.5t22.5 -65.5q0 -113 -118 -191z" />
    <glyph glyph-name="quotesinglbase" unicode="&#x201a;" horiz-adv-x="229" 
d="M73 -141q-13 -8 -23.5 3.5t0.5 22.5q49 48 56 88q3 17 -10 17q-24 0 -40.5 20t-16.5 51q0 35 20.5 57t53.5 22t55.5 -24.5t22.5 -65.5q0 -113 -118 -191z" />
    <glyph glyph-name="quotedblleft" unicode="&#x201c;" horiz-adv-x="430" 
d="M149 781q13 8 23.5 -3.5t-0.5 -22.5q-49 -48 -56 -88q-3 -17 10 -17q24 0 40.5 -20t16.5 -51q0 -35 -20.5 -57t-53.5 -22t-55.5 24.5t-22.5 65.5q0 113 118 191zM360 781q13 8 23.5 -3.5t-0.5 -22.5q-49 -48 -56 -88q-3 -17 10 -17q24 0 40.5 -20t16.5 -51
q0 -35 -20.5 -57t-53.5 -22t-55.5 24.5t-22.5 65.5q0 113 118 191z" />
    <glyph glyph-name="quotedblright" unicode="&#x201d;" horiz-adv-x="437" 
d="M80 460q-13 -8 -23.5 3.5t0.5 22.5q49 48 56 88q3 17 -10 17q-24 0 -40.5 20t-16.5 51q0 35 20.5 57t53.5 22t55.5 -24.5t22.5 -65.5q0 -113 -118 -191zM291 460q-13 -8 -23.5 3.5t0.5 22.5q49 48 56 88q3 17 -10 17q-24 0 -40.5 20t-16.5 51q0 35 20.5 57t53.5 22
t55.5 -24.5t22.5 -65.5q0 -113 -118 -191z" />
    <glyph glyph-name="quotedblbase" unicode="&#x201e;" horiz-adv-x="440" 
d="M73 -141q-13 -8 -23.5 3.5t0.5 22.5q49 48 56 88q3 17 -10 17q-24 0 -40.5 20t-16.5 51q0 35 20.5 57t53.5 22t55.5 -24.5t22.5 -65.5q0 -113 -118 -191zM284 -141q-13 -8 -23.5 3.5t0.5 22.5q49 48 56 88q3 17 -10 17q-24 0 -40.5 20t-16.5 51q0 35 20.5 57t53.5 22
t55.5 -24.5t22.5 -65.5q0 -113 -118 -191z" />
    <glyph glyph-name="dagger" unicode="&#x2020;" horiz-adv-x="527" 
d="M473 528q21 2 29.5 -18.5t0 -41t-29.5 -18.5l-189 17l16 -514q1 -20 -18.5 -28t-38.5 0.5t-19 27.5l17 514l-189 -17q-19 -2 -27.5 18.5t-0.5 41t28 18.5l188 -17l-25 256q-3 27 22 37.5t50.5 -0.5t22.5 -37l-25 -256z" />
    <glyph glyph-name="daggerdbl" unicode="&#x2021;" horiz-adv-x="533" 
d="M471 312q22 2 30.5 -18.5t-0.5 -41.5t-30 -18l-178 16l10 -297q0 -20 -19 -28t-38.5 0.5t-18.5 27.5l10 297l-178 -16q-19 -2 -27 18.5t0 41t27 18.5l180 -16l5 171l-185 -17q-19 -2 -27 18.5t0 41t27 18.5l184 -17l-26 256q-3 27 22.5 37.5t51 -0.5t22.5 -37l-26 -256
l184 17q22 2 30.5 -18.5t-0.5 -41t-30 -18.5l-185 17l6 -172z" />
    <glyph glyph-name="bullet" unicode="&#x2022;" horiz-adv-x="380" 
d="M191 260q-57 0 -92.5 32.5t-35.5 83.5q0 52 35.5 85t92.5 33q56 0 90.5 -33t34.5 -85q0 -51 -34.5 -83.5t-90.5 -32.5z" />
    <glyph glyph-name="ellipsis" unicode="&#x2026;" horiz-adv-x="703" 
d="M120 -10q-34 0 -56 18.5t-22 52.5q0 35 22 53.5t56 18.5q33 0 55 -18.5t22 -53.5q0 -34 -22 -52.5t-55 -18.5zM357 -10q-34 0 -56 18.5t-22 52.5q0 35 22 53.5t56 18.5q33 0 55 -18.5t22 -53.5q0 -34 -22 -52.5t-55 -18.5zM584 -10q-34 0 -56 18.5t-22 52.5q0 35 22 53.5
t56 18.5q33 0 55 -18.5t22 -53.5q0 -34 -22 -52.5t-55 -18.5z" />
    <glyph glyph-name="perthousand" unicode="&#x2030;" horiz-adv-x="1275" 
d="M210 341q-76 0 -129.5 54t-53.5 135q0 84 50 137t130 53q75 0 128 -55.5t53 -136.5q0 -82 -52 -134.5t-126 -52.5zM230 0q-10 0 -13 6t2 14l375 679q6 11 16 11h43q9 0 12 -6t-1 -14l-373 -679q-7 -11 -20 -11h-41zM221 375q34 0 52 32t18 82q0 73 -28 134.5t-73 61.5
q-36 0 -54 -33t-18 -85q0 -75 28.5 -133.5t74.5 -58.5zM681 -10q-76 0 -129.5 54t-53.5 136q0 83 50 136t130 53q75 0 128 -55t53 -136q0 -83 -52.5 -135.5t-125.5 -52.5zM1076 -10q-76 0 -127 53.5t-51 136.5q0 84 47.5 136.5t127.5 52.5q74 0 125 -55t51 -136
q0 -83 -50 -135.5t-123 -52.5zM692 24q34 0 52 32t18 82q0 74 -28 135.5t-73 61.5q-36 0 -54 -33.5t-18 -84.5q0 -75 28.5 -134t74.5 -59zM1087 24q35 0 55 32.5t20 81.5q0 72 -30.5 134.5t-76.5 62.5q-35 0 -55.5 -34t-20.5 -84q0 -74 30.5 -133.5t77.5 -59.5z" />
    <glyph glyph-name="guilsinglleft" unicode="&#x2039;" horiz-adv-x="295" 
d="M251 475q-26 -116 -128 -191q45 -38 79 -85.5t45 -84.5q1 -6 -7.5 -11.5t-20.5 -5t-20 10.5q-18 22 -41 44.5t-35 33t-44 37t-38 31.5q-10 8 -9.5 32.5t9.5 32.5q114 83 170 166q7 11 24.5 6.5t15.5 -16.5z" />
    <glyph glyph-name="guilsinglright" unicode="&#x203a;" horiz-adv-x="290" 
d="M248 319q9 -8 9.5 -32.5t-9.5 -32.5q-6 -5 -26 -21.5t-27.5 -23t-24.5 -21.5t-26.5 -25t-23 -25t-25.5 -30q-8 -10 -19.5 -11t-20 5t-7.5 12q12 41 44 90.5t75 82.5q-96 66 -123 188q-2 12 15.5 16.5t24.5 -6.5q53 -84 164 -166z" />
    <glyph glyph-name="fraction" unicode="&#x2044;" horiz-adv-x="409" 
d="M-10 0q-10 0 -13 6t2 14l386 679q6 11 19 11h36q9 0 12.5 -6t-1.5 -14l-383 -679q-7 -11 -20 -11h-38z" />
    <glyph glyph-name="Euro" unicode="&#x20ac;" horiz-adv-x="701" 
d="M618 172q13 13 29.5 5t12.5 -28q-16 -61 -79 -109.5t-153 -48.5q-118 0 -200 84.5t-100 216.5h-83q-17 0 -17 13v20q0 13 17 13h78v21q0 24 1 36h-79q-17 0 -17 12v22q0 12 17 12h84q22 130 104.5 202t190.5 72q95 0 164.5 -39.5t69.5 -90.5q0 -22 -14 -37t-39 -15
q-27 0 -48.5 20.5t-35 45t-45 45t-77.5 20.5q-62 0 -106.5 -60.5t-49.5 -162.5h281q17 0 17 -12v-22q0 -12 -17 -12h-282q1 -22 5 -57h243q17 0 17 -13v-20q0 -13 -17 -13h-234q22 -94 74.5 -143.5t119.5 -49.5q100 0 168 73z" />
    <glyph glyph-name="trademark" unicode="&#x2122;" horiz-adv-x="768" 
d="M311 619h-9q-7 0 -20.5 24t-27.5 24h-38v-237q0 -10 11.5 -18t11.5 -13v-3q0 -8 -10 -8h-106q-10 0 -10 8v3q0 5 11 13t11 18v237h-40q-14 0 -27.5 -24t-19.5 -24h-9q-11 0 -9 11l10 68q1 11 13 11h243q12 0 13 -11l10 -68q2 -11 -8 -11zM706 431q2 -10 11 -18t9 -13v-4
q0 -8 -9 -8h-98q-10 0 -10 8v4q0 4 9.5 12.5t7.5 18.5l-33 183l-61 -167l1 -3h-2l-15 -42q-5 -14 -17 -14q-13 0 -18 13l-78 214l-29 -185q-2 -10 7.5 -18.5t9.5 -12.5v-3q0 -8 -9 -8h-70q-11 0 -11 8v3q0 5 10 13t11 18l38 238q2 11 -7.5 20t-9.5 13v1q0 7 9 7h76
q15 0 19 -12l64 -188l63 188q4 12 19 12h74q10 0 10 -6v-4q0 -4 -9 -13.5t-7 -19.5z" />
    <glyph glyph-name="minus" unicode="&#x2212;" 
d="M110 240q-17 0 -17 13v50q0 13 17 13h380q18 0 18 -13v-50q0 -13 -18 -13h-380z" />
    <glyph glyph-name="approxequal" unicode="&#x2248;" 
d="M194 491q48 0 114 -32.5t98 -32.5q47 0 72 38q9 14 22 14h23q16 0 13 -18q-10 -56 -47 -88.5t-86 -32.5q-44 0 -82 16.5t-69 33t-58 16.5q-40 0 -66 -40q-10 -16 -32 -16h-13q-15 0 -12 19q8 48 39 85.5t84 37.5zM189 292q48 0 114 -32.5t98 -32.5q47 0 72 38q9 14 22 14
h23q16 0 13 -18q-10 -56 -47 -88.5t-86 -32.5q-44 0 -82 16.5t-69 33t-58 16.5q-40 0 -66 -40q-10 -16 -32 -16h-13q-15 0 -12 19q8 48 39 85.5t84 37.5z" />
    <glyph glyph-name="notequal" unicode="&#x2260;" 
d="M490 329h-120l-56 -108h176q17 0 17 -13v-50q0 -13 -17 -13h-216l-65 -126q-5 -11 -17 -7l-22 10q-12 7 -5 20l54 103h-109q-18 0 -18 13v50q0 13 18 13h148l57 108h-205q-18 0 -18 13v50q0 14 18 14h245l58 111q7 16 20 9l19 -9q11 -6 5 -20l-47 -91h80q17 0 17 -14v-50
q0 -13 -17 -13z" />
    <glyph glyph-name="uniF8FF" unicode="&#xf8ff;" horiz-adv-x="1451" 
d="M691 583q0 26 17.5 44t43.5 18t44 -18t18 -44t-18 -43.5t-44 -17.5t-43.5 18t-17.5 43zM219 270h-119q0 78 2 156.5t4 117.5l3 40h100q9 -139 10 -314zM694 270q0 92 3 147h-61l3 -65q4 -4 15 -4q6 0 10.5 1t5.5 3l2 1v-74q-10 -15 -66 -15q-84 0 -84 66q0 15 2 50t2 37
h-22v79l119 30l1 -17h178q10 -64 10 -239h-118zM328 265q-92 0 -92 113q0 136 137 136q119 0 121 -117v-127h-83l-8 61q-6 -33 -23.5 -49.5t-51.5 -16.5zM1090 270h-114q0 26 1 56t1 40q0 26 -15 26q-18 0 -18 -26q0 -10 1.5 -40t1.5 -56h-114q0 78 2.5 137.5t5.5 80.5l2 21
h80q6 -45 6 -76q0 9 4.5 25t24.5 36t52 20q41 0 57.5 -24.5t18.5 -81.5zM1351 384q0 -55 -31 -87t-93 -32q-60 0 -90.5 33t-30.5 86q0 130 122 130q70 0 96.5 -34.5t26.5 -95.5zM390 375q0 26 -23 26t-23 -26q0 -30 23 -30t23 30zM1251 375q0 26 -23 26q-21 0 -21 -26
q0 -30 21 -30q23 0 23 30zM428 238h104q10 -60 10 -147q0 -73 -35 -107t-114 -34q-32 0 -54.5 4t-29.5 8l-7 5v83q20 -16 69 -16q24 0 37.5 7t15.5 14l2 7q-13 -11 -49 -11q-90 0 -90 83v13h-55l3 -65q4 -4 15 -4q6 0 10.5 1t5.5 3l2 1v-73q-10 -15 -67 -15q-82 0 -82 64
q0 46 3 88h-18v80l117 29l-1 -17l177 -1v-119q0 -27 14 -27q17 0 17 27v119zM733 243q37 0 58.5 -29t21.5 -83q0 -136 -137 -136q1 -13 1 -39h-119q0 76 2.5 146.5t5.5 103.5l2 32h78q7 -52 7 -76q2 11 6.5 25.5t24 35t49.5 20.5zM1070 129l-3 -37h-124q9 -18 49 -18
q16 0 30 3t20 6l6 3v-75q-20 -16 -78 -16q-69 0 -105 31t-36 86q0 64 32.5 97.5t93.5 33.5q54 0 84.5 -30t30.5 -84zM978 109q3 27 -17 27q-23 0 -23 -27h40zM670 72q4 0 10 1.5t16.5 11t10.5 25.5q0 22 -20 22q-22 0 -22 -32zM1075 13q0 -10 6.5 -16.5t16.5 -6.5
q9 0 15.5 6.5t6.5 16.5t-6.5 16t-15.5 6q-10 0 -16.5 -6t-6.5 -16zM1080 13q0 7 5 12.5t13 5.5q7 0 12 -5.5t5 -12.5t-5 -12.5t-12 -5.5q-8 0 -13 5.5t-5 12.5zM1108 2l-6 9q7 0 7 7t-10 7h-11v-23h5v9h5l4 -9h6zM1099 15h-6v6h5q6 0 6 -2q0 -4 -5 -4z" />
    <glyph glyph-name="uni00A40301" horiz-adv-x="535" 
d="M305 779q-21 -2 -28 14q-6 18 11 28l197 93q31 15 41 -17l12 -47q5 -14 -1.5 -24t-22.5 -11zM333 627q0 22 -19 39.5t-19 26.5v3q0 14 22 14h157q21 0 21 -14v-3q0 -9 -20 -26.5t-20 -39.5l-1 -351q-1 -284 -225 -286q-59 0 -104 16.5t-69 43.5t-35.5 54.5t-11.5 53.5
q0 27 15.5 43.5t40.5 16.5q27 0 43 -18t24 -44t17 -52.5t30.5 -44.5t57.5 -18q43 0 69.5 45t26.5 125v416z" />
    <glyph glyph-name="A.ss01" horiz-adv-x="678" 
d="M26 0q-21 0 -21 14v3q0 10 21 26.5t30 39.5l210 539q7 18 -14 41t-21 30v3q0 14 19 14h156q19 0 19 -14v-3q0 -8 -12 -18t-20.5 -22.5t-2.5 -27.5l237 -542q9 -22 30 -39t21 -27v-3q0 -14 -21 -14h-170q-21 0 -21 14v3q0 7 8 14t16 13t13.5 16t-0.5 23l-40 99h-302
l-37 -99q-7 -17 2.5 -28.5t22 -20.5t12.5 -17v-3q0 -14 -22 -14h-113zM181 236h263l-137 337z" />
    <glyph glyph-name="Aacute.ss01" horiz-adv-x="685" 
d="M249 779q-21 -2 -28 14q-6 18 11 28l197 93q31 15 41 -17l12 -47q5 -14 -1.5 -24t-22.5 -11zM26 0q-21 0 -21 14v3q0 10 21 26.5t30 39.5l210 539q7 18 -14 41t-21 30v3q0 14 19 14h156q19 0 19 -14v-3q0 -8 -12 -18t-20.5 -22.5t-2.5 -27.5l237 -542q9 -22 30 -39
t21 -27v-3q0 -14 -21 -14h-170q-21 0 -21 14v3q0 7 8 14t16 13t13.5 16t-0.5 23l-40 99h-302l-37 -99q-7 -17 2.5 -28.5t22 -20.5t12.5 -17v-3q0 -14 -22 -14h-113zM181 236h263l-137 337z" />
    <glyph glyph-name="Abreve.ss01" horiz-adv-x="685" 
d="M339 769q-64 0 -108.5 37.5t-52.5 91.5q-3 19 17 24t26 -8q11 -30 44 -47.5t74 -17.5q42 0 75 17.5t44 47.5q6 12 25.5 7t17.5 -23q-7 -54 -51.5 -91.5t-110.5 -37.5zM26 0q-21 0 -21 14v3q0 10 21 26.5t30 39.5l210 539q7 18 -14 41t-21 30v3q0 14 19 14h156
q19 0 19 -14v-3q0 -8 -12 -18t-20.5 -22.5t-2.5 -27.5l237 -542q9 -22 30 -39t21 -27v-3q0 -14 -21 -14h-170q-21 0 -21 14v3q0 7 8 14t16 13t13.5 16t-0.5 23l-40 99h-302l-37 -99q-7 -17 2.5 -28.5t22 -20.5t12.5 -17v-3q0 -14 -22 -14h-113zM181 236h263l-137 337z" />
    <glyph glyph-name="Acircumflex.ss01" horiz-adv-x="685" 
d="M205 763q-17 -9 -30.5 4.5t3.5 31.5l110 105q16 16 36 16h24q19 0 36 -16l117 -105q18 -17 6 -32.5t-35 -3.5l-139 72zM627 83q9 -22 30 -39t21 -27v-3q0 -14 -21 -14h-170q-21 0 -21 14v3q0 7 8 14t16 13t13.5 16t-0.5 23l-40 99h-302l-37 -99q-7 -17 2.5 -28.5
t22 -20.5t12.5 -17v-3q0 -14 -22 -14h-113q-21 0 -21 14v3q0 10 21 26.5t30 39.5l210 539q7 18 -14 41t-21 30v3q0 14 19 14h156q19 0 19 -14v-3q0 -8 -12 -18t-20.5 -22.5t-2.5 -27.5zM181 236h263l-137 337z" />
    <glyph glyph-name="Adieresis.ss01" horiz-adv-x="685" 
d="M236 783q-34 0 -55 19.5t-21 49.5t21 49.5t55 19.5q33 0 53.5 -19.5t20.5 -49.5t-20.5 -49.5t-53.5 -19.5zM446 783q-33 0 -54 19.5t-21 49.5t21 49.5t54 19.5t54 -19.5t21 -49.5t-21 -49.5t-54 -19.5zM26 0q-21 0 -21 14v3q0 10 21 26.5t30 39.5l210 539q7 18 -14 41
t-21 30v3q0 14 19 14h156q19 0 19 -14v-3q0 -8 -12 -18t-20.5 -22.5t-2.5 -27.5l237 -542q9 -22 30 -39t21 -27v-3q0 -14 -21 -14h-170q-21 0 -21 14v3q0 7 8 14t16 13t13.5 16t-0.5 23l-40 99h-302l-37 -99q-7 -17 2.5 -28.5t22 -20.5t12.5 -17v-3q0 -14 -22 -14h-113z
M181 236h263l-137 337z" />
    <glyph glyph-name="Agrave.ss01" horiz-adv-x="685" 
d="M421 778l-209 36q-15 1 -21.5 11t-2.5 24l13 47q8 34 41 18l196 -93q17 -9 12 -28q-6 -15 -29 -15zM26 0q-21 0 -21 14v3q0 10 21 26.5t30 39.5l210 539q7 18 -14 41t-21 30v3q0 14 19 14h156q19 0 19 -14v-3q0 -8 -12 -18t-20.5 -22.5t-2.5 -27.5l237 -542q9 -22 30 -39
t21 -27v-3q0 -14 -21 -14h-170q-21 0 -21 14v3q0 7 8 14t16 13t13.5 16t-0.5 23l-40 99h-302l-37 -99q-7 -17 2.5 -28.5t22 -20.5t12.5 -17v-3q0 -14 -22 -14h-113zM181 236h263l-137 337z" />
    <glyph glyph-name="Amacron.ss01" horiz-adv-x="685" 
d="M205 804q-20 0 -20 18v39q0 18 20 18h269q20 0 20 -18v-39q0 -18 -20 -18h-269zM26 0q-21 0 -21 14v3q0 10 21 26.5t30 39.5l210 539q7 18 -14 41t-21 30v3q0 14 19 14h156q19 0 19 -14v-3q0 -8 -12 -18t-20.5 -22.5t-2.5 -27.5l237 -542q9 -22 30 -39t21 -27v-3
q0 -14 -21 -14h-170q-21 0 -21 14v3q0 7 8 14t16 13t13.5 16t-0.5 23l-40 99h-302l-37 -99q-7 -17 2.5 -28.5t22 -20.5t12.5 -17v-3q0 -14 -22 -14h-113zM181 236h263l-137 337z" />
    <glyph glyph-name="Aogonek.ss01" horiz-adv-x="685" 
d="M627 83q9 -22 30 -39t21 -27v-3q0 -14 -21 -14h-46q-64 -67 -64 -120q0 -48 36 -48q9 0 24 5q17 6 22 -13q5 -22 -13 -32q-1 -1 -2 -1q-18 -10 -50 -10q-41 0 -71.5 21t-30.5 62q0 72 108 136h-83q-21 0 -21 14v3q0 7 8 14t16 13t13.5 16t-0.5 23l-40 99h-302l-37 -99
q-7 -17 2.5 -28.5t22 -20.5t12.5 -17v-3q0 -14 -22 -14h-113q-21 0 -21 14v3q0 10 21 26.5t30 39.5l210 539q7 18 -14 41t-21 30v3q0 14 19 14h156q19 0 19 -14v-3q0 -8 -12 -18t-20.5 -22.5t-2.5 -27.5zM181 236h263l-137 337z" />
    <glyph glyph-name="Aring.ss01" horiz-adv-x="685" 
d="M342 751q-55 0 -91 30t-36 73q0 47 35.5 76.5t92.5 29.5q55 0 91.5 -29t36.5 -73q0 -47 -35.5 -77t-93.5 -30zM343 788q25 0 40.5 18t15.5 50q0 29 -16 47t-40 18q-25 0 -40.5 -16.5t-15.5 -48.5q0 -29 16 -48.5t40 -19.5zM26 0q-21 0 -21 14v3q0 10 21 26.5t30 39.5
l210 539q7 18 -14 41t-21 30v3q0 14 19 14h156q19 0 19 -14v-3q0 -8 -12 -18t-20.5 -22.5t-2.5 -27.5l237 -542q9 -22 30 -39t21 -27v-3q0 -14 -21 -14h-170q-21 0 -21 14v3q0 7 8 14t16 13t13.5 16t-0.5 23l-40 99h-302l-37 -99q-7 -17 2.5 -28.5t22 -20.5t12.5 -17v-3
q0 -14 -22 -14h-113zM181 236h263l-137 337z" />
    <glyph glyph-name="Atilde.ss01" horiz-adv-x="685" 
d="M276 902q36 0 86.5 -27t69.5 -27q33 0 47 27q7 13 19 13h8q17 0 12 -19q-25 -103 -102 -103q-33 0 -83.5 27.5t-72.5 27.5q-29 0 -46 -27q-10 -16 -20 -16h-10q-15 0 -12 19q8 45 35 75t69 30zM26 0q-21 0 -21 14v3q0 10 21 26.5t30 39.5l210 539q7 18 -14 41t-21 30v3
q0 14 19 14h156q19 0 19 -14v-3q0 -8 -12 -18t-20.5 -22.5t-2.5 -27.5l237 -542q9 -22 30 -39t21 -27v-3q0 -14 -21 -14h-170q-21 0 -21 14v3q0 7 8 14t16 13t13.5 16t-0.5 23l-40 99h-302l-37 -99q-7 -17 2.5 -28.5t22 -20.5t12.5 -17v-3q0 -14 -22 -14h-113zM181 236h263
l-137 337z" />
    <glyph glyph-name="G.ss01" horiz-adv-x="725" 
d="M687 347q22 0 22 -14v-3q0 -9 -14 -17t-28 -20.5t-14 -30.5v-252q0 -20 -18 -20q-15 0 -22 10l-30 57q-36 -31 -90.5 -49t-109.5 -18q-147 0 -247.5 109t-100.5 259q0 158 101.5 259.5t235.5 101.5q120 0 201 -58.5t81 -125.5q0 -26 -15 -41t-40 -15t-46.5 19.5
t-39.5 47.5t-39 55.5t-55.5 47t-78.5 19.5q-75 0 -129 -68t-54 -167q0 -148 77.5 -251.5t183.5 -103.5q82 0 122 31v154q0 14 -10 24.5t-21.5 16t-21.5 13t-10 14.5v3q0 14 22 14z" />
    <glyph glyph-name="Gbreve.ss01" horiz-adv-x="722" 
d="M381 769q-64 0 -108.5 37.5t-52.5 91.5q-3 19 17 24t26 -8q11 -30 44 -47.5t74 -17.5q42 0 75 17.5t44 47.5q6 12 25.5 7t17.5 -23q-7 -54 -51.5 -91.5t-110.5 -37.5zM687 347q22 0 22 -14v-3q0 -9 -14 -17t-28 -20.5t-14 -30.5v-252q0 -20 -18 -20q-15 0 -22 10l-30 57
q-36 -31 -90.5 -49t-109.5 -18q-147 0 -247.5 109t-100.5 259q0 158 101.5 259.5t235.5 101.5q120 0 201 -58.5t81 -125.5q0 -26 -15 -41t-40 -15t-46.5 19.5t-39.5 47.5t-39 55.5t-55.5 47t-78.5 19.5q-75 0 -129 -68t-54 -167q0 -148 77.5 -251.5t183.5 -103.5
q82 0 122 31v154q0 14 -10 24.5t-21.5 16t-21.5 13t-10 14.5v3q0 14 22 14z" />
    <glyph glyph-name="uni0122.ss01" horiz-adv-x="722" 
d="M687 347q22 0 22 -14v-3q0 -9 -14 -17t-28 -20.5t-14 -30.5v-252q0 -20 -18 -20q-15 0 -22 10l-30 57q-36 -31 -90.5 -49t-109.5 -18q-147 0 -247.5 109t-100.5 259q0 158 101.5 259.5t235.5 101.5q120 0 201 -58.5t81 -125.5q0 -26 -15 -41t-40 -15t-46.5 19.5
t-39.5 47.5t-39 55.5t-55.5 47t-78.5 19.5q-75 0 -129 -68t-54 -167q0 -148 77.5 -251.5t183.5 -103.5q82 0 122 31v154q0 14 -10 24.5t-21.5 16t-21.5 13t-10 14.5v3q0 14 22 14zM392 -48q30 0 51 -23t21 -61q0 -105 -109 -177q-12 -7 -22 3.5t0 20.5q47 45 52 82
q4 16 -9 16q-23 0 -38 18.5t-15 47.5q0 32 19 52.5t50 20.5z" />
    <glyph glyph-name="Gdotaccent.ss01" horiz-adv-x="722" 
d="M387 768q-36 0 -57.5 20t-21.5 51t22 51.5t57 20.5q34 0 55.5 -20.5t21.5 -51.5t-21.5 -51t-55.5 -20zM687 347q22 0 22 -14v-3q0 -9 -14 -17t-28 -20.5t-14 -30.5v-252q0 -20 -18 -20q-15 0 -22 10l-30 57q-36 -31 -90.5 -49t-109.5 -18q-147 0 -247.5 109t-100.5 259
q0 158 101.5 259.5t235.5 101.5q120 0 201 -58.5t81 -125.5q0 -26 -15 -41t-40 -15t-46.5 19.5t-39.5 47.5t-39 55.5t-55.5 47t-78.5 19.5q-75 0 -129 -68t-54 -167q0 -148 77.5 -251.5t183.5 -103.5q82 0 122 31v154q0 14 -10 24.5t-21.5 16t-21.5 13t-10 14.5v3
q0 14 22 14z" />
    <glyph glyph-name="K.ss01" horiz-adv-x="702" 
d="M656 102q3 -27 27.5 -52t24.5 -33v-3q0 -14 -22 -14h-174q-22 0 -22 14v3q0 8 20.5 25.5t19.5 41.5q0 76 -51.5 168t-130.5 141l-136 -136v-173q0 -22 20.5 -40.5t20.5 -26.5v-3q0 -14 -22 -14h-156q-21 0 -21 14v3q0 8 18.5 26.5t18.5 40.5v543q0 22 -18.5 39.5
t-18.5 25.5v4q0 14 21 14h156q22 0 22 -14v-4q0 -8 -20.5 -25.5t-20.5 -39.5v-294l291 292q15 20 12 28t-13.5 20t-10.5 19v4q0 14 21 14h124q21 0 21 -14v-4q0 -9 -10.5 -17.5t-31 -21.5t-34.5 -28l-153 -153q100 -63 160.5 -170.5t67.5 -199.5z" />
    <glyph glyph-name="uni0136.ss01" horiz-adv-x="702" 
d="M656 102q3 -27 27.5 -52t24.5 -33v-3q0 -14 -22 -14h-174q-22 0 -22 14v3q0 8 20.5 25.5t19.5 41.5q0 76 -51.5 168t-130.5 141l-136 -136v-173q0 -22 20.5 -40.5t20.5 -26.5v-3q0 -14 -22 -14h-156q-21 0 -21 14v3q0 8 18.5 26.5t18.5 40.5v543q0 22 -18.5 39.5
t-18.5 25.5v4q0 14 21 14h156q22 0 22 -14v-4q0 -8 -20.5 -25.5t-20.5 -39.5v-294l291 292q15 20 12 28t-13.5 20t-10.5 19v4q0 14 21 14h124q21 0 21 -14v-4q0 -9 -10.5 -17.5t-31 -21.5t-34.5 -28l-153 -153q100 -63 160.5 -170.5t67.5 -199.5zM373 -48q30 0 51 -23
t21 -61q0 -105 -109 -177q-12 -7 -22 3.5t0 20.5q47 45 52 82q4 16 -9 16q-23 0 -38 18.5t-15 47.5q0 32 19 52.5t50 20.5z" />
    <glyph glyph-name="M.ss01" horiz-adv-x="898" 
d="M841 85q4 -22 22 -40t18 -28v-3q0 -14 -21 -14h-152q-21 0 -21 14v3q0 8 19 27t15 41l-80 461l-184 -521q-9 -24 -29 -24q-23 0 -32 23l-196 534l-74 -473q-3 -21 17.5 -40.5t20.5 -27.5v-3q0 -14 -22 -14h-101q-22 0 -22 14v3q0 10 18.5 29t21.5 39l90 540
q3 22 -15.5 40.5t-18.5 26.5v3q0 15 18 15h161q19 0 19 -15v-3q0 -6 -9.5 -16t-16.5 -22.5t-1 -28.5l158 -459l161 464q6 20 -12 38.5t-18 23.5v3q0 15 18 15h165q18 0 18 -14v-3q0 -8 -20 -28t-15 -46z" />
    <glyph glyph-name="N.ss01" horiz-adv-x="753" 
d="M685 710q22 0 22 -14v-3q0 -8 -21 -26t-21 -40v-593q0 -34 -32 -34h-36q-20 0 -40 28l-402 544v-487q0 -21 22 -40t22 -28v-3q0 -14 -22 -14h-103q-22 0 -22 14v3q0 9 19.5 28t19.5 40v541q0 22 -19.5 40t-19.5 27v3q0 14 22 14h177q19 0 19 -14v-3q0 -6 -11.5 -16.5
t-16 -20t7.5 -30.5l351 -479v480q0 22 -21 40t-21 26v3q0 14 22 14h104z" />
    <glyph glyph-name="Nacute.ss01" horiz-adv-x="753" 
d="M301 779q-21 -2 -28 14q-6 18 11 28l197 93q31 15 41 -17l12 -47q5 -14 -1.5 -24t-22.5 -11zM685 710q22 0 22 -14v-3q0 -8 -21 -26t-21 -40v-593q0 -34 -32 -34h-36q-20 0 -40 28l-402 544v-487q0 -21 22 -40t22 -28v-3q0 -14 -22 -14h-103q-22 0 -22 14v3q0 9 19.5 28
t19.5 40v541q0 22 -19.5 40t-19.5 27v3q0 14 22 14h177q19 0 19 -14v-3q0 -6 -11.5 -16.5t-16 -20t7.5 -30.5l351 -479v480q0 22 -21 40t-21 26v3q0 14 22 14h104z" />
    <glyph glyph-name="Ncaron.ss01" horiz-adv-x="753" 
d="M341 763l-112 105q-12 13 1.5 25.5t27.5 4.5l135 -75l134 75q9 6 19.5 1t13.5 -14t-4 -17l-116 -105q-16 -15 -36 -15h-27q-20 0 -36 15zM685 710q22 0 22 -14v-3q0 -8 -21 -26t-21 -40v-593q0 -34 -32 -34h-36q-20 0 -40 28l-402 544v-487q0 -21 22 -40t22 -28v-3
q0 -14 -22 -14h-103q-22 0 -22 14v3q0 9 19.5 28t19.5 40v541q0 22 -19.5 40t-19.5 27v3q0 14 22 14h177q19 0 19 -14v-3q0 -6 -11.5 -16.5t-16 -20t7.5 -30.5l351 -479v480q0 22 -21 40t-21 26v3q0 14 22 14h104z" />
    <glyph glyph-name="uni0145.ss01" horiz-adv-x="753" 
d="M685 710q22 0 22 -14v-3q0 -8 -21 -26t-21 -40v-593q0 -34 -32 -34h-36q-20 0 -40 28l-402 544v-487q0 -21 22 -40t22 -28v-3q0 -14 -22 -14h-103q-22 0 -22 14v3q0 9 19.5 28t19.5 40v541q0 22 -19.5 40t-19.5 27v3q0 14 22 14h177q19 0 19 -14v-3q0 -6 -11.5 -16.5
t-16 -20t7.5 -30.5l351 -479v480q0 22 -21 40t-21 26v3q0 14 22 14h104zM383 -48q30 0 51 -23t21 -61q0 -105 -109 -177q-12 -7 -22 3.5t0 20.5q47 45 52 82q4 16 -9 16q-23 0 -38 18.5t-15 47.5q0 32 19 52.5t50 20.5z" />
    <glyph glyph-name="Ntilde.ss01" horiz-adv-x="753" 
d="M236 778q-15 0 -12 19q8 45 35 75t69 30q36 0 86.5 -27t69.5 -27q33 0 47 27q7 13 19 13h8q17 0 12 -19q-25 -103 -102 -103q-33 0 -83.5 27.5t-72.5 27.5q-29 0 -46 -27q-10 -16 -20 -16h-10zM685 710q22 0 22 -14v-3q0 -8 -21 -26t-21 -40v-593q0 -34 -32 -34h-36
q-20 0 -40 28l-402 544v-487q0 -21 22 -40t22 -28v-3q0 -14 -22 -14h-103q-22 0 -22 14v3q0 9 19.5 28t19.5 40v541q0 22 -19.5 40t-19.5 27v3q0 14 22 14h177q19 0 19 -14v-3q0 -6 -11.5 -16.5t-16 -20t7.5 -30.5l351 -479v480q0 22 -21 40t-21 26v3q0 14 22 14h104z" />
    <glyph glyph-name="Q.ss01" horiz-adv-x="767" 
d="M800 -45q13 2 18.5 -7t-0.5 -24q-16 -33 -60.5 -62t-112.5 -29q-178 0 -300 160q-138 16 -224 119.5t-86 242.5q0 159 98 262t252 103q153 0 250.5 -108.5t97.5 -260.5q0 -141 -85.5 -242t-216.5 -117q90 -75 217 -75q34 0 64 7t57.5 18.5t30.5 12.5zM154 445
q0 -169 75 -285t193 -116q84 0 138 64t54 155q0 170 -76 286.5t-195 116.5q-85 0 -137 -61.5t-52 -159.5z" />
    <glyph glyph-name="R.ss01" horiz-adv-x="670" 
d="M611 78q1 -18 21 -34.5t20 -26.5v-3q0 -14 -21 -14h-153q-21 0 -21 14v3q0 10 15.5 24t15.5 32q-2 68 -33 123.5t-87 80.5q-22 -2 -36 -2h-119v-192q0 -22 20.5 -39.5t20.5 -26.5v-3q0 -14 -22 -14h-157q-21 0 -21 14v3q0 9 18.5 26.5t18.5 39.5v544q0 22 -18.5 39.5
t-18.5 26.5v3q0 14 21 14h226q137 0 219.5 -56.5t83.5 -165.5q0 -56 -34.5 -105t-95.5 -78q62 -34 97.5 -94.5t39.5 -132.5zM317 324q73 0 117 39.5t44 109.5q0 88 -54 137t-131 49h-50q-30 0 -30 -40v-236q0 -59 49 -59h55z" />
    <glyph glyph-name="Racute.ss01" horiz-adv-x="670" 
d="M236 779q-21 -2 -28 14q-6 18 11 28l197 93q31 15 41 -17l12 -47q5 -14 -1.5 -24t-22.5 -11zM611 78q1 -18 21 -34.5t20 -26.5v-3q0 -14 -21 -14h-153q-21 0 -21 14v3q0 10 15.5 24t15.5 32q-2 68 -33 123.5t-87 80.5q-22 -2 -36 -2h-119v-192q0 -22 20.5 -39.5
t20.5 -26.5v-3q0 -14 -22 -14h-157q-21 0 -21 14v3q0 9 18.5 26.5t18.5 39.5v544q0 22 -18.5 39.5t-18.5 26.5v3q0 14 21 14h226q137 0 219.5 -56.5t83.5 -165.5q0 -56 -34.5 -105t-95.5 -78q62 -34 97.5 -94.5t39.5 -132.5zM317 324q73 0 117 39.5t44 109.5q0 88 -54 137
t-131 49h-50q-30 0 -30 -40v-236q0 -59 49 -59h55z" />
    <glyph glyph-name="Rcaron.ss01" horiz-adv-x="670" 
d="M275 763l-112 105q-12 13 1.5 25.5t27.5 4.5l135 -75l134 75q9 6 19.5 1t13.5 -14t-4 -17l-116 -105q-16 -15 -36 -15h-27q-20 0 -36 15zM611 78q1 -18 21 -34.5t20 -26.5v-3q0 -14 -21 -14h-153q-21 0 -21 14v3q0 10 15.5 24t15.5 32q-2 68 -33 123.5t-87 80.5
q-22 -2 -36 -2h-119v-192q0 -22 20.5 -39.5t20.5 -26.5v-3q0 -14 -22 -14h-157q-21 0 -21 14v3q0 9 18.5 26.5t18.5 39.5v544q0 22 -18.5 39.5t-18.5 26.5v3q0 14 21 14h226q137 0 219.5 -56.5t83.5 -165.5q0 -56 -34.5 -105t-95.5 -78q62 -34 97.5 -94.5t39.5 -132.5z
M317 324q73 0 117 39.5t44 109.5q0 88 -54 137t-131 49h-50q-30 0 -30 -40v-236q0 -59 49 -59h55z" />
    <glyph glyph-name="uni0156.ss01" horiz-adv-x="670" 
d="M611 78q1 -18 21 -34.5t20 -26.5v-3q0 -14 -21 -14h-153q-21 0 -21 14v3q0 10 15.5 24t15.5 32q-2 68 -33 123.5t-87 80.5q-22 -2 -36 -2h-119v-192q0 -22 20.5 -39.5t20.5 -26.5v-3q0 -14 -22 -14h-157q-21 0 -21 14v3q0 9 18.5 26.5t18.5 39.5v544q0 22 -18.5 39.5
t-18.5 26.5v3q0 14 21 14h226q137 0 219.5 -56.5t83.5 -165.5q0 -56 -34.5 -105t-95.5 -78q62 -34 97.5 -94.5t39.5 -132.5zM317 324q73 0 117 39.5t44 109.5q0 88 -54 137t-131 49h-50q-30 0 -30 -40v-236q0 -59 49 -59h55zM354 -37q30 0 51 -23t21 -61q0 -105 -109 -177
q-12 -7 -22 3.5t0 20.5q47 45 52 82q4 16 -9 16q-23 0 -38 18.5t-15 47.5q0 32 19 52.5t50 20.5z" />
    <glyph glyph-name="U.ss01" horiz-adv-x="750" 
d="M658 94q0 -25 8.5 -38t18.5 -14t18.5 -5.5t8.5 -15.5q0 -27 -80 -27q-43 0 -61 21t-19 93q-58 -118 -221 -118q-115 0 -183 73.5t-68 202.5v343q0 23 -19 41.5t-19 25.5v3q0 15 18 18l110 18q35 6 35 -15l-2 -449q-1 -99 42 -156t116 -57q85 0 132.5 55.5t47.5 141.5v374
q0 23 -22 41.5t-22 25.5v3q0 14 22 18l106 18q33 5 33 -15v-606z" />
    <glyph glyph-name="Uacute.ss01" horiz-adv-x="750" 
d="M278 779q-21 -2 -28 14q-6 18 11 28l197 93q31 15 41 -17l12 -47q5 -14 -1.5 -24t-22.5 -11zM658 94q0 -25 8.5 -38t18.5 -14t18.5 -5.5t8.5 -15.5q0 -27 -80 -27q-43 0 -61 21t-19 93q-58 -118 -221 -118q-115 0 -183 73.5t-68 202.5v343q0 23 -19 41.5t-19 25.5v3
q0 15 18 18l110 18q35 6 35 -15l-2 -449q-1 -99 42 -156t116 -57q85 0 132.5 55.5t47.5 141.5v374q0 23 -22 41.5t-22 25.5v3q0 14 22 18l106 18q33 5 33 -15v-606z" />
    <glyph glyph-name="Ucircumflex.ss01" horiz-adv-x="750" 
d="M234 763q-17 -9 -30.5 4.5t3.5 31.5l110 105q16 16 36 16h24q19 0 36 -16l117 -105q18 -17 6 -32.5t-35 -3.5l-139 72zM658 94q0 -25 8.5 -38t18.5 -14t18.5 -5.5t8.5 -15.5q0 -27 -80 -27q-43 0 -61 21t-19 93q-58 -118 -221 -118q-115 0 -183 73.5t-68 202.5v343
q0 23 -19 41.5t-19 25.5v3q0 15 18 18l110 18q35 6 35 -15l-2 -449q-1 -99 42 -156t116 -57q85 0 132.5 55.5t47.5 141.5v374q0 23 -22 41.5t-22 25.5v3q0 14 22 18l106 18q33 5 33 -15v-606z" />
    <glyph glyph-name="Udieresis.ss01" horiz-adv-x="750" 
d="M265 783q-34 0 -55 19.5t-21 49.5t21 49.5t55 19.5q33 0 53.5 -19.5t20.5 -49.5t-20.5 -49.5t-53.5 -19.5zM475 783q-33 0 -54 19.5t-21 49.5t21 49.5t54 19.5t54 -19.5t21 -49.5t-21 -49.5t-54 -19.5zM658 94q0 -25 8.5 -38t18.5 -14t18.5 -5.5t8.5 -15.5q0 -27 -80 -27
q-43 0 -61 21t-19 93q-58 -118 -221 -118q-115 0 -183 73.5t-68 202.5v343q0 23 -19 41.5t-19 25.5v3q0 15 18 18l110 18q35 6 35 -15l-2 -449q-1 -99 42 -156t116 -57q85 0 132.5 55.5t47.5 141.5v374q0 23 -22 41.5t-22 25.5v3q0 14 22 18l106 18q33 5 33 -15v-606z" />
    <glyph glyph-name="Ugrave.ss01" horiz-adv-x="750" 
d="M240 814q-15 1 -21.5 11t-2.5 24l13 47q8 34 41 18l196 -93q17 -9 12 -28q-6 -15 -29 -15zM658 94q0 -25 8.5 -38t18.5 -14t18.5 -5.5t8.5 -15.5q0 -27 -80 -27q-43 0 -61 21t-19 93q-58 -118 -221 -118q-115 0 -183 73.5t-68 202.5v343q0 23 -19 41.5t-19 25.5v3
q0 15 18 18l110 18q35 6 35 -15l-2 -449q-1 -99 42 -156t116 -57q85 0 132.5 55.5t47.5 141.5v374q0 23 -22 41.5t-22 25.5v3q0 14 22 18l106 18q33 5 33 -15v-606z" />
    <glyph glyph-name="Uhungarumlaut.ss01" horiz-adv-x="750" 
d="M234 746q-10 8 2 27l110 165q19 30 41 8l25 -23q27 -24 1 -43l-152 -130q-16 -13 -27 -4zM426 746q-9 8 2 26l111 166q18 29 41 8l25 -24q26 -23 0 -43l-151 -129q-16 -13 -28 -4zM658 94q0 -25 8.5 -38t18.5 -14t18.5 -5.5t8.5 -15.5q0 -27 -80 -27q-43 0 -61 21t-19 93
q-58 -118 -221 -118q-115 0 -183 73.5t-68 202.5v343q0 23 -19 41.5t-19 25.5v3q0 15 18 18l110 18q35 6 35 -15l-2 -449q-1 -99 42 -156t116 -57q85 0 132.5 55.5t47.5 141.5v374q0 23 -22 41.5t-22 25.5v3q0 14 22 18l106 18q33 5 33 -15v-606z" />
    <glyph glyph-name="Umacron.ss01" horiz-adv-x="750" 
d="M233 804q-20 0 -20 18v39q0 18 20 18h269q20 0 20 -18v-39q0 -18 -20 -18h-269zM658 94q0 -25 8.5 -38t18.5 -14t18.5 -5.5t8.5 -15.5q0 -27 -80 -27q-43 0 -61 21t-19 93q-58 -118 -221 -118q-115 0 -183 73.5t-68 202.5v343q0 23 -19 41.5t-19 25.5v3q0 15 18 18
l110 18q35 6 35 -15l-2 -449q-1 -99 42 -156t116 -57q85 0 132.5 55.5t47.5 141.5v374q0 23 -22 41.5t-22 25.5v3q0 14 22 18l106 18q33 5 33 -15v-606z" />
    <glyph glyph-name="Uogonek.ss01" horiz-adv-x="750" 
d="M712 21q0 -20 -40 -25q-59 -64 -59 -115q0 -48 36 -48q9 0 24 5q17 6 22 -13q5 -22 -13 -32q-1 -1 -2 -1q-18 -10 -50 -10q-41 0 -71.5 21t-30.5 62q0 67 97 129q-39 1 -55.5 22.5t-17.5 91.5q-58 -118 -221 -118q-115 0 -183 73.5t-68 202.5v343q0 23 -19 41.5t-19 25.5
v3q0 15 18 18l110 18q35 6 35 -15l-2 -449q-1 -99 42 -156t116 -57q85 0 132.5 55.5t47.5 141.5v374q0 23 -22 41.5t-22 25.5v3q0 14 22 18l106 18q33 5 33 -15v-606q0 -25 8.5 -38t18.5 -14t18.5 -5.5t8.5 -15.5z" />
    <glyph glyph-name="Uring.ss01" horiz-adv-x="750" 
d="M371 751q-55 0 -91 30t-36 73q0 47 35.5 76.5t92.5 29.5q55 0 91.5 -29t36.5 -73q0 -47 -35.5 -77t-93.5 -30zM372 921q-25 0 -40.5 -16.5t-15.5 -48.5q0 -29 16 -48.5t40 -19.5q25 0 40.5 18t15.5 50q0 29 -16 47t-40 18zM658 94q0 -25 8.5 -38t18.5 -14t18.5 -5.5
t8.5 -15.5q0 -27 -80 -27q-43 0 -61 21t-19 93q-58 -118 -221 -118q-115 0 -183 73.5t-68 202.5v343q0 23 -19 41.5t-19 25.5v3q0 15 18 18l110 18q35 6 35 -15l-2 -449q-1 -99 42 -156t116 -57q85 0 132.5 55.5t47.5 141.5v374q0 23 -22 41.5t-22 25.5v3q0 14 22 18l106 18
q33 5 33 -15v-606z" />
    <glyph glyph-name="Utilde.ss01" horiz-adv-x="750" 
d="M212 778q-15 0 -12 19q8 45 35 75t69 30q36 0 86.5 -27t69.5 -27q33 0 47 27q7 13 19 13h8q17 0 12 -19q-25 -103 -102 -103q-33 0 -83.5 27.5t-72.5 27.5q-29 0 -46 -27q-10 -16 -20 -16h-10zM658 94q0 -25 8.5 -38t18.5 -14t18.5 -5.5t8.5 -15.5q0 -27 -80 -27
q-43 0 -61 21t-19 93q-58 -118 -221 -118q-115 0 -183 73.5t-68 202.5v343q0 23 -19 41.5t-19 25.5v3q0 15 18 18l110 18q35 6 35 -15l-2 -449q-1 -99 42 -156t116 -57q85 0 132.5 55.5t47.5 141.5v374q0 23 -22 41.5t-22 25.5v3q0 14 22 18l106 18q33 5 33 -15v-606z" />
    <glyph glyph-name="W.ss01" horiz-adv-x="973" 
d="M952 710q20 0 20 -14v-3q0 -11 -21 -27t-30 -39l-227 -593q-14 -34 -45 -34t-44 32l-99 251l-107 -249q-15 -34 -51 -34q-33 0 -48 32l-252 594q-10 23 -32 39t-22 27v4q0 14 20 14h173q20 0 20 -14v-4q0 -9 -12 -17t-20 -19.5t-1 -29.5l201 -493l99 233l-103 261
q-10 25 -29 40.5t-19 25.5v3q0 14 19 14h106q19 0 26 -19l63 -175l75 176q8 18 27 18h60q20 0 20 -14v-3q0 -8 -7.5 -13.5t-17 -9t-20.5 -13.5t-17 -24l-88 -204l101 -280l182 478q5 13 0 23t-13.5 15t-16 12.5t-7.5 14.5v3q0 15 21 15h116z" />
    <glyph glyph-name="Wacute.ss01" horiz-adv-x="973" 
d="M425 779q-21 -2 -28 14q-6 18 11 28l197 93q31 15 41 -17l12 -47q5 -14 -1.5 -24t-22.5 -11zM952 710q20 0 20 -14v-3q0 -11 -21 -27t-30 -39l-227 -593q-14 -34 -45 -34t-44 32l-99 251l-107 -249q-15 -34 -51 -34q-33 0 -48 32l-252 594q-10 23 -32 39t-22 27v4
q0 14 20 14h173q20 0 20 -14v-4q0 -9 -12 -17t-20 -19.5t-1 -29.5l201 -493l99 233l-103 261q-10 25 -29 40.5t-19 25.5v3q0 14 19 14h106q19 0 26 -19l63 -175l75 176q8 18 27 18h60q20 0 20 -14v-3q0 -8 -7.5 -13.5t-17 -9t-20.5 -13.5t-17 -24l-88 -204l101 -280l182 478
q5 13 0 23t-13.5 15t-16 12.5t-7.5 14.5v3q0 15 21 15h116z" />
    <glyph glyph-name="Wcircumflex.ss01" horiz-adv-x="973" 
d="M381 763q-17 -9 -30.5 4.5t3.5 31.5l110 105q16 16 36 16h24q19 0 36 -16l117 -105q18 -17 6 -32.5t-35 -3.5l-139 72zM952 710q20 0 20 -14v-3q0 -11 -21 -27t-30 -39l-227 -593q-14 -34 -45 -34t-44 32l-99 251l-107 -249q-15 -34 -51 -34q-33 0 -48 32l-252 594
q-10 23 -32 39t-22 27v4q0 14 20 14h173q20 0 20 -14v-4q0 -9 -12 -17t-20 -19.5t-1 -29.5l201 -493l99 233l-103 261q-10 25 -29 40.5t-19 25.5v3q0 14 19 14h106q19 0 26 -19l63 -175l75 176q8 18 27 18h60q20 0 20 -14v-3q0 -8 -7.5 -13.5t-17 -9t-20.5 -13.5t-17 -24
l-88 -204l101 -280l182 478q5 13 0 23t-13.5 15t-16 12.5t-7.5 14.5v3q0 15 21 15h116z" />
    <glyph glyph-name="Wdieresis.ss01" horiz-adv-x="973" 
d="M413 783q-34 0 -55 19.5t-21 49.5t21 49.5t55 19.5q33 0 53.5 -19.5t20.5 -49.5t-20.5 -49.5t-53.5 -19.5zM623 783q-33 0 -54 19.5t-21 49.5t21 49.5t54 19.5t54 -19.5t21 -49.5t-21 -49.5t-54 -19.5zM952 710q20 0 20 -14v-3q0 -11 -21 -27t-30 -39l-227 -593
q-14 -34 -45 -34t-44 32l-99 251l-107 -249q-15 -34 -51 -34q-33 0 -48 32l-252 594q-10 23 -32 39t-22 27v4q0 14 20 14h173q20 0 20 -14v-4q0 -9 -12 -17t-20 -19.5t-1 -29.5l201 -493l99 233l-103 261q-10 25 -29 40.5t-19 25.5v3q0 14 19 14h106q19 0 26 -19l63 -175
l75 176q8 18 27 18h60q20 0 20 -14v-3q0 -8 -7.5 -13.5t-17 -9t-20.5 -13.5t-17 -24l-88 -204l101 -280l182 478q5 13 0 23t-13.5 15t-16 12.5t-7.5 14.5v3q0 15 21 15h116z" />
    <glyph glyph-name="Wgrave.ss01" horiz-adv-x="973" 
d="M388 814q-15 1 -21.5 11t-2.5 24l13 47q8 34 41 18l196 -93q17 -9 12 -28q-6 -15 -29 -15zM952 710q20 0 20 -14v-3q0 -11 -21 -27t-30 -39l-227 -593q-14 -34 -45 -34t-44 32l-99 251l-107 -249q-15 -34 -51 -34q-33 0 -48 32l-252 594q-10 23 -32 39t-22 27v4
q0 14 20 14h173q20 0 20 -14v-4q0 -9 -12 -17t-20 -19.5t-1 -29.5l201 -493l99 233l-103 261q-10 25 -29 40.5t-19 25.5v3q0 14 19 14h106q19 0 26 -19l63 -175l75 176q8 18 27 18h60q20 0 20 -14v-3q0 -8 -7.5 -13.5t-17 -9t-20.5 -13.5t-17 -24l-88 -204l101 -280l182 478
q5 13 0 23t-13.5 15t-16 12.5t-7.5 14.5v3q0 15 21 15h116z" />
    <glyph glyph-name="i.loclTRK" horiz-adv-x="265" 
d="M139 563q-37 0 -60 21t-23 54t23 54t60 21q36 0 58.5 -21t22.5 -54t-22.5 -54t-58.5 -21zM59 0q-21 0 -21 15v4q0 9 18.5 26t18.5 39v262q0 23 -18.5 43t-18.5 26v3q0 8 18 18l100 50q17 7 26.5 1.5t9.5 -18.5v-385q0 -22 20.5 -39t20.5 -26v-4q0 -15 -22 -15h-152z" />
    <glyph glyph-name="uni006A0301" horiz-adv-x="258" 
d="M46 554q-21 -7 -31 8q-9 17 6 30l175 129q27 21 44 -9l21 -44q7 -12 2.5 -23.5t-19.5 -15.5zM56 -189q-57 0 -92 23.5t-35 65.5q0 22 14 36t37 14q24 0 37.5 -15t17 -33.5t14 -33.5t29.5 -15t31 14t12 36q0 30 -20.5 68t-20.5 63v312q0 24 -18.5 43t-18.5 26v3q0 9 17 18
l104 50q16 7 26 1.5t10 -18.5v-469q0 -68 -24 -117q-36 -72 -120 -72z" />
    <glyph glyph-name="a.ss01" horiz-adv-x="586" 
d="M549 443q0 -6 -10 -14.5t-20 -22.5t-10 -33v-290q0 -22 19 -40t19 -26v-3q0 -14 -17 -14h-104q-19 0 -19 19v40q-49 -69 -144 -69q-96 0 -164.5 69t-68.5 182q0 109 67.5 179t167.5 70q87 0 142 -63v37q0 13 10 19t27 2l87 -18q18 -5 18 -21v-3zM290 28q41 0 73.5 34
t32.5 95v160q0 50 -38 92.5t-89 42.5q-56 0 -90 -45.5t-35 -124.5q-2 -105 38.5 -179t107.5 -75z" />
    <glyph glyph-name="aacute.ss01" horiz-adv-x="586" 
d="M212 554q-21 -7 -31 8q-9 17 6 30l175 129q27 21 44 -9l21 -44q7 -12 2.5 -23.5t-19.5 -15.5zM549 443q0 -6 -10 -14.5t-20 -22.5t-10 -33v-290q0 -22 19 -40t19 -26v-3q0 -14 -17 -14h-104q-19 0 -19 19v40q-49 -69 -144 -69q-96 0 -164.5 69t-68.5 182q0 109 67.5 179
t167.5 70q87 0 142 -63v37q0 13 10 19t27 2l87 -18q18 -5 18 -21v-3zM290 28q41 0 73.5 34t32.5 95v160q0 50 -38 92.5t-89 42.5q-56 0 -90 -45.5t-35 -124.5q-2 -105 38.5 -179t107.5 -75z" />
    <glyph glyph-name="abreve.ss01" horiz-adv-x="586" 
d="M297 557q-64 0 -108.5 37.5t-52.5 91.5q-3 19 17 24t26 -8q11 -30 44 -47.5t74 -17.5q42 0 75 17.5t44 47.5q6 12 25.5 7t17.5 -23q-7 -54 -51.5 -91.5t-110.5 -37.5zM549 443q0 -6 -10 -14.5t-20 -22.5t-10 -33v-290q0 -22 19 -40t19 -26v-3q0 -14 -17 -14h-104
q-19 0 -19 19v40q-49 -69 -144 -69q-96 0 -164.5 69t-68.5 182q0 109 67.5 179t167.5 70q87 0 142 -63v37q0 13 10 19t27 2l87 -18q18 -5 18 -21v-3zM290 28q41 0 73.5 34t32.5 95v160q0 50 -38 92.5t-89 42.5q-56 0 -90 -45.5t-35 -124.5q-2 -105 38.5 -179t107.5 -75z" />
    <glyph glyph-name="acircumflex.ss01" horiz-adv-x="586" 
d="M163 553q-17 -9 -30.5 4.5t3.5 31.5l110 105q16 16 36 16h24q19 0 36 -16l117 -105q18 -17 6 -32.5t-35 -3.5l-139 72zM549 443q0 -6 -10 -14.5t-20 -22.5t-10 -33v-290q0 -22 19 -40t19 -26v-3q0 -14 -17 -14h-104q-19 0 -19 19v40q-49 -69 -144 -69q-96 0 -164.5 69
t-68.5 182q0 109 67.5 179t167.5 70q87 0 142 -63v37q0 13 10 19t27 2l87 -18q18 -5 18 -21v-3zM290 28q41 0 73.5 34t32.5 95v160q0 50 -38 92.5t-89 42.5q-56 0 -90 -45.5t-35 -124.5q-2 -105 38.5 -179t107.5 -75z" />
    <glyph glyph-name="adieresis.ss01" horiz-adv-x="586" 
d="M194 566q-34 0 -55 19.5t-21 49.5t21 49.5t55 19.5q33 0 53.5 -19.5t20.5 -49.5t-20.5 -49.5t-53.5 -19.5zM404 566q-33 0 -54 19.5t-21 49.5t21 49.5t54 19.5t54 -19.5t21 -49.5t-21 -49.5t-54 -19.5zM549 443q0 -6 -10 -14.5t-20 -22.5t-10 -33v-290q0 -22 19 -40
t19 -26v-3q0 -14 -17 -14h-104q-19 0 -19 19v40q-49 -69 -144 -69q-96 0 -164.5 69t-68.5 182q0 109 67.5 179t167.5 70q87 0 142 -63v37q0 13 10 19t27 2l87 -18q18 -5 18 -21v-3zM290 28q41 0 73.5 34t32.5 95v160q0 50 -38 92.5t-89 42.5q-56 0 -90 -45.5t-35 -124.5
q-2 -105 38.5 -179t107.5 -75z" />
    <glyph glyph-name="agrave.ss01" horiz-adv-x="586" 
d="M184 625q-31 9 -17 39l22 44q15 30 44 9l174 -129q16 -13 6 -30q-9 -14 -31 -9zM549 443q0 -6 -10 -14.5t-20 -22.5t-10 -33v-290q0 -22 19 -40t19 -26v-3q0 -14 -17 -14h-104q-19 0 -19 19v40q-49 -69 -144 -69q-96 0 -164.5 69t-68.5 182q0 109 67.5 179t167.5 70
q87 0 142 -63v37q0 13 10 19t27 2l87 -18q18 -5 18 -21v-3zM290 28q41 0 73.5 34t32.5 95v160q0 50 -38 92.5t-89 42.5q-56 0 -90 -45.5t-35 -124.5q-2 -105 38.5 -179t107.5 -75z" />
    <glyph glyph-name="amacron.ss01" horiz-adv-x="586" 
d="M163 595q-20 0 -20 18v39q0 18 20 18h269q20 0 20 -18v-39q0 -18 -20 -18h-269zM549 443q0 -6 -10 -14.5t-20 -22.5t-10 -33v-290q0 -22 19 -40t19 -26v-3q0 -14 -17 -14h-104q-19 0 -19 19v40q-49 -69 -144 -69q-96 0 -164.5 69t-68.5 182q0 109 67.5 179t167.5 70
q87 0 142 -63v37q0 13 10 19t27 2l87 -18q18 -5 18 -21v-3zM290 28q41 0 73.5 34t32.5 95v160q0 50 -38 92.5t-89 42.5q-56 0 -90 -45.5t-35 -124.5q-2 -105 38.5 -179t107.5 -75z" />
    <glyph glyph-name="aogonek.ss01" horiz-adv-x="586" 
d="M549 443q0 -6 -10 -14.5t-20 -22.5t-10 -33v-290q0 -22 19 -40t19 -26v-3q0 -14 -17 -14h-37q-56 -63 -56 -111t36 -48q9 0 24 5q17 6 22 -13q5 -22 -13 -32q-1 -1 -2 -1q-18 -10 -50 -10q-41 0 -71.5 21t-30.5 62q0 65 94 127h-20q-19 0 -19 19v40q-49 -69 -144 -69
q-96 0 -164.5 69t-68.5 182q0 109 67.5 179t167.5 70q87 0 142 -63v37q0 13 10 19t27 2l87 -18q18 -5 18 -21v-3zM290 28q41 0 73.5 34t32.5 95v160q0 50 -38 92.5t-89 42.5q-56 0 -90 -45.5t-35 -124.5q-2 -105 38.5 -179t107.5 -75z" />
    <glyph glyph-name="aring.ss01" horiz-adv-x="586" 
d="M297 540q-55 0 -91 30t-36 73q0 47 35.5 76.5t92.5 29.5q55 0 91.5 -29t36.5 -73q0 -47 -35.5 -77t-93.5 -30zM298 710q-25 0 -40.5 -16.5t-15.5 -48.5q0 -29 16 -48.5t40 -19.5q25 0 40.5 18t15.5 50q0 29 -16 47t-40 18zM549 443q0 -6 -10 -14.5t-20 -22.5t-10 -33
v-290q0 -22 19 -40t19 -26v-3q0 -14 -17 -14h-104q-19 0 -19 19v40q-49 -69 -144 -69q-96 0 -164.5 69t-68.5 182q0 109 67.5 179t167.5 70q87 0 142 -63v37q0 13 10 19t27 2l87 -18q18 -5 18 -21v-3zM290 28q41 0 73.5 34t32.5 95v160q0 50 -38 92.5t-89 42.5
q-56 0 -90 -45.5t-35 -124.5q-2 -105 38.5 -179t107.5 -75z" />
    <glyph glyph-name="atilde.ss01" horiz-adv-x="586" 
d="M132 592q-15 0 -12 19q8 45 35 75t69 30q36 0 86.5 -27t69.5 -27q33 0 47 27q7 13 19 13h8q17 0 12 -19q-25 -103 -102 -103q-33 0 -83.5 27.5t-72.5 27.5q-29 0 -46 -27q-10 -16 -20 -16h-10zM549 443q0 -6 -10 -14.5t-20 -22.5t-10 -33v-290q0 -22 19 -40t19 -26v-3
q0 -14 -17 -14h-104q-19 0 -19 19v40q-49 -69 -144 -69q-96 0 -164.5 69t-68.5 182q0 109 67.5 179t167.5 70q87 0 142 -63v37q0 13 10 19t27 2l87 -18q18 -5 18 -21v-3zM290 28q41 0 73.5 34t32.5 95v160q0 50 -38 92.5t-89 42.5q-56 0 -90 -45.5t-35 -124.5
q-2 -105 38.5 -179t107.5 -75z" />
    <glyph glyph-name="e.ss01" horiz-adv-x="498" 
d="M442 147q8 11 20.5 8t11.5 -18q-8 -54 -59 -100.5t-136 -46.5q-111 0 -180 70t-69 184q0 108 69 176.5t173 69.5q81 1 132.5 -35t51.5 -101q0 -54 -44.5 -92t-116.5 -54q-59 -13 -145 -5q19 -60 61 -94.5t99 -34.5q48 0 82 20.5t50 52.5zM255 450q-52 0 -85 -44.5
t-33 -110.5q0 -25 3 -48q75 -6 133 6q34 8 53 30.5t18 70.5q-1 40 -25.5 68t-63.5 28z" />
    <glyph glyph-name="eacute.ss01" horiz-adv-x="498" 
d="M176 554q-21 -7 -31 8q-9 17 6 30l175 129q27 21 44 -9l21 -44q7 -12 2.5 -23.5t-19.5 -15.5zM442 147q8 11 20.5 8t11.5 -18q-8 -54 -59 -100.5t-136 -46.5q-111 0 -180 70t-69 184q0 108 69 176.5t173 69.5q81 1 132.5 -35t51.5 -101q0 -54 -44.5 -92t-116.5 -54
q-59 -13 -145 -5q19 -60 61 -94.5t99 -34.5q48 0 82 20.5t50 52.5zM255 450q-52 0 -85 -44.5t-33 -110.5q0 -25 3 -48q75 -6 133 6q34 8 53 30.5t18 70.5q-1 40 -25.5 68t-63.5 28z" />
    <glyph glyph-name="ecaron.ss01" horiz-adv-x="498" 
d="M211 567l-112 110q-12 13 1.5 26t27.5 5l135 -78l134 78q9 6 19.5 1t13.5 -14.5t-4 -17.5l-116 -110q-16 -15 -36 -15h-27q-20 0 -36 15zM442 147q8 11 20.5 8t11.5 -18q-8 -54 -59 -100.5t-136 -46.5q-111 0 -180 70t-69 184q0 108 69 176.5t173 69.5q81 1 132.5 -35
t51.5 -101q0 -54 -44.5 -92t-116.5 -54q-59 -13 -145 -5q19 -60 61 -94.5t99 -34.5q48 0 82 20.5t50 52.5zM255 450q-52 0 -85 -44.5t-33 -110.5q0 -25 3 -48q75 -6 133 6q34 8 53 30.5t18 70.5q-1 40 -25.5 68t-63.5 28z" />
    <glyph glyph-name="ecircumflex.ss01" horiz-adv-x="498" 
d="M128 553q-17 -9 -30.5 4.5t3.5 31.5l110 105q16 16 36 16h24q19 0 36 -16l117 -105q18 -17 6 -32.5t-35 -3.5l-139 72zM442 147q8 11 20.5 8t11.5 -18q-8 -54 -59 -100.5t-136 -46.5q-111 0 -180 70t-69 184q0 108 69 176.5t173 69.5q81 1 132.5 -35t51.5 -101
q0 -54 -44.5 -92t-116.5 -54q-59 -13 -145 -5q19 -60 61 -94.5t99 -34.5q48 0 82 20.5t50 52.5zM255 450q-52 0 -85 -44.5t-33 -110.5q0 -25 3 -48q75 -6 133 6q34 8 53 30.5t18 70.5q-1 40 -25.5 68t-63.5 28z" />
    <glyph glyph-name="edieresis.ss01" horiz-adv-x="498" 
d="M158 566q-34 0 -55 19.5t-21 49.5t21 49.5t55 19.5q33 0 53.5 -19.5t20.5 -49.5t-20.5 -49.5t-53.5 -19.5zM368 566q-33 0 -54 19.5t-21 49.5t21 49.5t54 19.5t54 -19.5t21 -49.5t-21 -49.5t-54 -19.5zM442 147q8 11 20.5 8t11.5 -18q-8 -54 -59 -100.5t-136 -46.5
q-111 0 -180 70t-69 184q0 108 69 176.5t173 69.5q81 1 132.5 -35t51.5 -101q0 -54 -44.5 -92t-116.5 -54q-59 -13 -145 -5q19 -60 61 -94.5t99 -34.5q48 0 82 20.5t50 52.5zM255 450q-52 0 -85 -44.5t-33 -110.5q0 -25 3 -48q75 -6 133 6q34 8 53 30.5t18 70.5
q-1 40 -25.5 68t-63.5 28z" />
    <glyph glyph-name="edotaccent.ss01" horiz-adv-x="498" 
d="M262 563q-37 0 -60 21t-23 54t23 54t60 21q36 0 58.5 -21t22.5 -54t-22.5 -54t-58.5 -21zM442 147q8 11 20.5 8t11.5 -18q-8 -54 -59 -100.5t-136 -46.5q-111 0 -180 70t-69 184q0 108 69 176.5t173 69.5q81 1 132.5 -35t51.5 -101q0 -54 -44.5 -92t-116.5 -54
q-59 -13 -145 -5q19 -60 61 -94.5t99 -34.5q48 0 82 20.5t50 52.5zM255 450q-52 0 -85 -44.5t-33 -110.5q0 -25 3 -48q75 -6 133 6q34 8 53 30.5t18 70.5q-1 40 -25.5 68t-63.5 28z" />
    <glyph glyph-name="egrave.ss01" horiz-adv-x="498" 
d="M149 625q-31 9 -17 39l22 44q15 30 44 9l174 -129q16 -13 6 -30q-9 -14 -31 -9zM442 147q8 11 20.5 8t11.5 -18q-8 -54 -59 -100.5t-136 -46.5q-111 0 -180 70t-69 184q0 108 69 176.5t173 69.5q81 1 132.5 -35t51.5 -101q0 -54 -44.5 -92t-116.5 -54q-59 -13 -145 -5
q19 -60 61 -94.5t99 -34.5q48 0 82 20.5t50 52.5zM255 450q-52 0 -85 -44.5t-33 -110.5q0 -25 3 -48q75 -6 133 6q34 8 53 30.5t18 70.5q-1 40 -25.5 68t-63.5 28z" />
    <glyph glyph-name="emacron.ss01" horiz-adv-x="498" 
d="M127 595q-20 0 -20 18v39q0 18 20 18h269q20 0 20 -18v-39q0 -18 -20 -18h-269zM442 147q8 11 20.5 8t11.5 -18q-8 -54 -59 -100.5t-136 -46.5q-111 0 -180 70t-69 184q0 108 69 176.5t173 69.5q81 1 132.5 -35t51.5 -101q0 -54 -44.5 -92t-116.5 -54q-59 -13 -145 -5
q19 -60 61 -94.5t99 -34.5q48 0 82 20.5t50 52.5zM255 450q-52 0 -85 -44.5t-33 -110.5q0 -25 3 -48q75 -6 133 6q34 8 53 30.5t18 70.5q-1 40 -25.5 68t-63.5 28z" />
    <glyph glyph-name="eogonek.ss01" horiz-adv-x="498" 
d="M442 147q8 11 20.5 8t11.5 -18q-5 -34 -29.5 -68.5t-65.5 -55.5q-58 -63 -58 -114q0 -48 36 -48q9 0 24 5q17 6 22 -13q5 -22 -13 -32q-1 -1 -2 -1q-18 -10 -50 -10q-41 0 -71.5 21t-30.5 62q0 55 68 108q-8 -1 -25 -1q-111 0 -180 70t-69 184q0 108 69 176.5t173 69.5
q81 1 132.5 -35t51.5 -101q0 -54 -44.5 -92t-116.5 -54q-59 -13 -145 -5q19 -60 61 -94.5t99 -34.5q48 0 82 20.5t50 52.5zM255 450q-52 0 -85 -44.5t-33 -110.5q0 -25 3 -48q75 -6 133 6q34 8 53 30.5t18 70.5q-1 40 -25.5 68t-63.5 28z" />
    <glyph glyph-name="g.ss01" horiz-adv-x="578" 
d="M533 467q18 -5 18 -21v-3q0 -6 -10 -14.5t-20 -22.5t-10 -33v-319q0 -123 -63.5 -189t-164.5 -66q-100 0 -163 44t-63 96q0 19 13 32.5t37 13.5q19 0 33 -15t25 -37t24 -44t38.5 -37.5t60.5 -15.5q50 0 80 46t30 141v33q-50 -56 -135 -56q-95 0 -164 67.5t-69 173.5
q0 109 67.5 179t167.5 70q90 0 144 -64v38q0 13 10 19t27 2zM290 38q41 0 74.5 34t33.5 95v150q0 50 -39 92.5t-90 42.5q-56 0 -89.5 -45.5t-35.5 -124.5q-2 -98 39 -171t107 -73z" />
    <glyph glyph-name="gbreve.ss01" horiz-adv-x="578" 
d="M288 561q-64 0 -108.5 37.5t-52.5 91.5q-3 19 17 24t26 -8q11 -30 44 -47.5t74 -17.5q42 0 75 17.5t44 47.5q6 12 25.5 7t17.5 -23q-7 -54 -51.5 -91.5t-110.5 -37.5zM533 467q18 -5 18 -21v-3q0 -6 -10 -14.5t-20 -22.5t-10 -33v-319q0 -123 -63.5 -189t-164.5 -66
q-100 0 -163 44t-63 96q0 19 13 32.5t37 13.5q19 0 33 -15t25 -37t24 -44t38.5 -37.5t60.5 -15.5q50 0 80 46t30 141v33q-50 -56 -135 -56q-95 0 -164 67.5t-69 173.5q0 109 67.5 179t167.5 70q90 0 144 -64v38q0 13 10 19t27 2zM290 38q41 0 74.5 34t33.5 95v150
q0 50 -39 92.5t-90 42.5q-56 0 -89.5 -45.5t-35.5 -124.5q-2 -98 39 -171t107 -73z" />
    <glyph glyph-name="uni0123.ss01" horiz-adv-x="578" 
d="M290 553q-31 0 -52.5 23.5t-21.5 62.5q0 107 112 182q12 8 22 -3t0 -22q-48 -46 -53 -84q-4 -16 9 -16q24 0 39.5 -18.5t15.5 -48.5q0 -33 -19.5 -54.5t-51.5 -21.5zM533 467q18 -5 18 -21v-3q0 -6 -10 -14.5t-20 -22.5t-10 -33v-319q0 -123 -63.5 -189t-164.5 -66
q-100 0 -163 44t-63 96q0 19 13 32.5t37 13.5q19 0 33 -15t25 -37t24 -44t38.5 -37.5t60.5 -15.5q50 0 80 46t30 141v33q-50 -56 -135 -56q-95 0 -164 67.5t-69 173.5q0 109 67.5 179t167.5 70q90 0 144 -64v38q0 13 10 19t27 2zM290 38q41 0 74.5 34t33.5 95v150
q0 50 -39 92.5t-90 42.5q-56 0 -89.5 -45.5t-35.5 -124.5q-2 -98 39 -171t107 -73z" />
    <glyph glyph-name="gdotaccent.ss01" horiz-adv-x="578" 
d="M289 568q-37 0 -60 21t-23 54t23 54t60 21q36 0 58.5 -21t22.5 -54t-22.5 -54t-58.5 -21zM533 467q18 -5 18 -21v-3q0 -6 -10 -14.5t-20 -22.5t-10 -33v-319q0 -123 -63.5 -189t-164.5 -66q-100 0 -163 44t-63 96q0 19 13 32.5t37 13.5q19 0 33 -15t25 -37t24 -44
t38.5 -37.5t60.5 -15.5q50 0 80 46t30 141v33q-50 -56 -135 -56q-95 0 -164 67.5t-69 173.5q0 109 67.5 179t167.5 70q90 0 144 -64v38q0 13 10 19t27 2zM290 38q41 0 74.5 34t33.5 95v150q0 50 -39 92.5t-90 42.5q-56 0 -89.5 -45.5t-35.5 -124.5q-2 -98 39 -171t107 -73z
" />
    <glyph glyph-name="k.ss01" horiz-adv-x="550" 
d="M514 67q5 -8 25.5 -21.5t20.5 -27.5v-3q0 -15 -17 -15h-156q-18 0 -18 16v3q0 10 14 22.5t6 25.5l-114 166q-39 -10 -88 -12v-136q0 -21 21 -38.5t21 -27.5v-4q0 -15 -22 -15h-155q-22 0 -22 15v4q0 10 19 27.5t19 38.5v523q0 23 -21 43.5t-21 27.5v2q0 11 18 18l109 51
q16 7 25 1.5t9 -18.5v-460q53 2 89.5 19.5t52.5 41t28.5 51t18.5 50.5t20 38.5t36 15.5q26 0 39.5 -14t13.5 -37q0 -36 -28.5 -83.5t-84.5 -82.5z" />
    <glyph glyph-name="uni0137.ss01" horiz-adv-x="550" 
d="M514 67q5 -8 25.5 -21.5t20.5 -27.5v-3q0 -15 -17 -15h-156q-18 0 -18 16v3q0 10 14 22.5t6 25.5l-114 166q-39 -10 -88 -12v-136q0 -21 21 -38.5t21 -27.5v-4q0 -15 -22 -15h-155q-22 0 -22 15v4q0 10 19 27.5t19 38.5v523q0 23 -21 43.5t-21 27.5v2q0 11 18 18l109 51
q16 7 25 1.5t9 -18.5v-460q53 2 89.5 19.5t52.5 41t28.5 51t18.5 50.5t20 38.5t36 15.5q26 0 39.5 -14t13.5 -37q0 -36 -28.5 -83.5t-84.5 -82.5zM281 -48q30 0 51 -23t21 -61q0 -105 -109 -177q-12 -7 -22 3.5t0 20.5q47 45 52 82q4 16 -9 16q-23 0 -38 18.5t-15 47.5
q0 32 19 52.5t50 20.5z" />
    <glyph glyph-name="kgreenlandic.ss01" horiz-adv-x="550" 
d="M514 67q5 -8 25.5 -21.5t20.5 -27.5v-3q0 -15 -17 -15h-156q-18 0 -18 16v3q0 10 14 22.5t6 25.5l-114 166q-39 -10 -88 -12v-136q0 -21 21 -38.5t21 -27.5v-4q0 -15 -22 -15h-155q-22 0 -22 15v4q0 10 19 27.5t19 38.5v358q0 23 -21 43.5t-21 27.5v2q0 9 18 18l109 51
q16 7 25 1.5t9 -18.5v-295q53 2 89.5 19.5t52.5 41t28.5 51t18.5 50.5t20 38.5t36 15.5q26 0 39.5 -14t13.5 -37q0 -36 -28.5 -83.5t-84.5 -82.5z" />
    <glyph glyph-name="v.ss01" horiz-adv-x="531" 
d="M224 -10q-70 0 -115 44.5t-45 143.5v203q0 23 -19 41.5t-19 25.5v3q0 15 17 18l106 17q34 5 34 -15l-2 -325q-1 -107 68 -108q71 -1 126 70.5t55 171.5q0 33 -13 57t-28.5 35t-28.5 28.5t-13 39.5t14 36t42 14q40 0 67 -37.5t27 -121.5q0 -153 -79 -247t-194 -94z" />
    <glyph glyph-name="w.ss01" horiz-adv-x="803" 
d="M671 490q45 0 71 -43.5t26 -115.5q0 -155 -72.5 -248t-173.5 -93q-102 0 -134 93q-58 -93 -168 -93q-67 0 -111.5 44.5t-44.5 143.5v203q0 23 -19 41.5t-19 25.5v3q0 15 17 18l106 17q34 5 34 -20l-2 -332q-1 -44 15 -70t47 -26q58 0 94 62.5t36 142.5v138q0 23 -19 41.5
t-19 25.5v3q0 15 18 18l98 20q34 6 34 -23l-2 -330q-2 -98 63 -98q56 0 105.5 70t49.5 162q0 30 -13.5 54t-29 37.5t-29 33.5t-13.5 42q0 24 15 38.5t40 14.5z" />
    <glyph glyph-name="wacute.ss01" horiz-adv-x="803" 
d="M327 551q-21 -7 -31 8q-9 17 6 30l175 129q27 21 44 -9l21 -44q7 -12 2.5 -23.5t-19.5 -15.5zM671 490q45 0 71 -43.5t26 -115.5q0 -155 -72.5 -248t-173.5 -93q-102 0 -134 93q-58 -93 -168 -93q-67 0 -111.5 44.5t-44.5 143.5v203q0 23 -19 41.5t-19 25.5v3q0 15 17 18
l106 17q34 5 34 -20l-2 -332q-1 -44 15 -70t47 -26q58 0 94 62.5t36 142.5v138q0 23 -19 41.5t-19 25.5v3q0 15 18 18l98 20q34 6 34 -23l-2 -330q-2 -98 63 -98q56 0 105.5 70t49.5 162q0 30 -13.5 54t-29 37.5t-29 33.5t-13.5 42q0 24 15 38.5t40 14.5z" />
    <glyph glyph-name="wcircumflex.ss01" horiz-adv-x="803" 
d="M279 550q-17 -9 -30.5 4.5t3.5 31.5l110 105q16 16 36 16h24q19 0 36 -16l117 -105q18 -17 6 -32.5t-35 -3.5l-139 72zM671 490q45 0 71 -43.5t26 -115.5q0 -155 -72.5 -248t-173.5 -93q-102 0 -134 93q-58 -93 -168 -93q-67 0 -111.5 44.5t-44.5 143.5v203
q0 23 -19 41.5t-19 25.5v3q0 15 17 18l106 17q34 5 34 -20l-2 -332q-1 -44 15 -70t47 -26q58 0 94 62.5t36 142.5v138q0 23 -19 41.5t-19 25.5v3q0 15 18 18l98 20q34 6 34 -23l-2 -330q-2 -98 63 -98q56 0 105.5 70t49.5 162q0 30 -13.5 54t-29 37.5t-29 33.5t-13.5 42
q0 24 15 38.5t40 14.5z" />
    <glyph glyph-name="wdieresis.ss01" horiz-adv-x="803" 
d="M309 563q-34 0 -55 19.5t-21 49.5t21 49.5t55 19.5q33 0 53.5 -19.5t20.5 -49.5t-20.5 -49.5t-53.5 -19.5zM519 563q-33 0 -54 19.5t-21 49.5t21 49.5t54 19.5t54 -19.5t21 -49.5t-21 -49.5t-54 -19.5zM671 490q45 0 71 -43.5t26 -115.5q0 -155 -72.5 -248t-173.5 -93
q-102 0 -134 93q-58 -93 -168 -93q-67 0 -111.5 44.5t-44.5 143.5v203q0 23 -19 41.5t-19 25.5v3q0 15 17 18l106 17q34 5 34 -20l-2 -332q-1 -44 15 -70t47 -26q58 0 94 62.5t36 142.5v138q0 23 -19 41.5t-19 25.5v3q0 15 18 18l98 20q34 6 34 -23l-2 -330q-2 -98 63 -98
q56 0 105.5 70t49.5 162q0 30 -13.5 54t-29 37.5t-29 33.5t-13.5 42q0 24 15 38.5t40 14.5z" />
    </font>
</defs>
</svg>
