<svg xmlns="http://www.w3.org/2000/svg"><defs><font horiz-adv-x="1169"><font-face units-per-em="2048" ascent="1638" descent="-410"/><glyph unicode="ﬁ" horiz-adv-x="1077" d="M29 0zm557 1001H330V0h-99v1001H29v58l202 37v84q0 200 73.5 293.5T545 1567q90 0 180-27l-23-86q-80 25-159 25-116 0-164.5-68.5T330 1188v-101h256v-86zM895 0h-99v1087h99V0zM782 1389q0 96 63 96 31 0 48.5-25t17.5-71q0-45-17.5-71t-48.5-26q-63 0-63 97z"/><glyph unicode="ﬂ" horiz-adv-x="1077" d="M29 0zm557 1001H330V0h-99v1001H29v58l202 37v84q0 200 73.5 293.5T545 1567q90 0 180-27l-23-86q-80 25-159 25-116 0-164.5-68.5T330 1188v-101h256v-86zM895 0h-99v1556h99V0z"/><glyph unicode="ﬃ" horiz-adv-x="1692" d="M29 0zm557 1001H330V0h-99v1001H29v58l202 37v84q0 200 73.5 293.5T545 1567q90 0 180-27l-23-86q-80 25-159 25-116 0-164.5-68.5T330 1188v-101h256v-86zm614 0H944V0h-99v1001H643v58l202 37v84q0 200 73.5 293.5T1159 1567q90 0 180-27l-23-86q-80 25-159 25-116 0-164.5-68.5T944 1188v-101h256v-86zM1510 0h-99v1087h99V0zm-113 1389q0 96 63 96 31 0 48.5-25t17.5-71q0-45-17.5-71t-48.5-26q-63 0-63 97z"/><glyph unicode="ﬄ" horiz-adv-x="1692" d="M29 0zm557 1001H330V0h-99v1001H29v58l202 37v84q0 200 73.5 293.5T545 1567q90 0 180-27l-23-86q-80 25-159 25-116 0-164.5-68.5T330 1188v-101h256v-86zm614 0H944V0h-99v1001H643v58l202 37v84q0 200 73.5 293.5T1159 1567q90 0 180-27l-23-86q-80 25-159 25-116 0-164.5-68.5T944 1188v-101h256v-86zM1510 0h-99v1556h99V0z"/><glyph horiz-adv-x="2048"/><glyph horiz-adv-x="2048"/><glyph horiz-adv-x="1044"/><glyph horiz-adv-x="532"/><glyph horiz-adv-x="532"/><glyph horiz-adv-x="532"/><glyph unicode="!" horiz-adv-x="492" d="M276 377h-61l-29 1085h119zM164 78q0 98 80 98 82 0 82-98t-82-98q-80 0-80 98z"/><glyph unicode="&amp;quot;" horiz-adv-x="723" d="M260 1462l-33-528h-61l-33 528h127zm330 0l-33-528h-61l-33 528h127z"/><glyph unicode="#" horiz-adv-x="1323" d="M967 928l-76-398h303v-79H874L788 0h-90l88 451H426L340 0h-88l86 451H55v79h299l76 398H133v80h311l86 454h91l-89-454h365l88 454h86l-88-454h285v-80H967zM440 530h363l78 398H518z"/><glyph unicode="$" d="M991 440q0-133-99-217T618 117v-236h-81v232q-92 2-200.5 22.5T164 186v103q75-36 179.5-61T537 203v508q-145 44-215 88T220 903t-32 146q0 124 94.5 208.5T537 1362v192h81v-190q197-9 351-72l-33-90q-141 62-318 72V788q213-66 293-144t80-204zm-110 4q0 85-63 140.5T618 680V209q122 13 192.5 75T881 444zm-584 605q0-86 57-141t183-93v453q-119-16-179.5-76T297 1049z"/><glyph unicode="%" horiz-adv-x="1653" d="M211 1026q0-186 45-279.5T397 653q193 0 193 373 0 184-49.5 276.5T397 1395q-96 0-141-92.5T211 1026zm477 0q0-226-75-343.5T397 565q-133 0-208.5 120.5T113 1026q0 223 72 340t212 117q139 0 215-120.5t76-336.5zm375-588q0-185 45-277.5T1249 68q193 0 193 370 0 369-193 369-96 0-141-91.5T1063 438zm477 0q0-226-74-343.5T1251-23q-136 0-211 121.5T965 438q0 225 73.5 341T1251 895q137 0 213-120t76-337zm-260 1024L469 0h-96l811 1462h96z"/><glyph unicode="&amp;" horiz-adv-x="1460" d="M123 371q0 138 73.5 235T471 811l-75 82q-66 71-98 139t-32 142q0 143 95.5 227t256.5 84q155 0 245.5-81t90.5-224q0-105-70-192.5T631 793l452-457q61 72 104 157t75 201h96q-63-246-209-426L1415 0h-135l-193 197q-92-90-164-131.5T765.5 2 571-20Q362-20 242.5 83T123 371zM578 70q128 0 234.5 43.5T1022 260L539 745q-136-72-196.5-122.5t-88-109.5T227 375q0-143 93-224t258-81zM373 1176q0-79 40-146t152-174q159 85 221 159t62 169q0 94-62 152.5T618 1395q-114 0-179.5-58T373 1176z"/><glyph unicode="'" horiz-adv-x="393" d="M260 1462l-33-528h-61l-33 528h127z"/><glyph unicode="(" horiz-adv-x="557" d="M82 561q0 265 77.5 496T383 1462h113q-148-182-227-412.5T190 563q0-483 304-887H383Q236-154 159 73T82 561z"/><glyph unicode=")" horiz-adv-x="557" d="M475 561q0-263-77.5-490T174-324H63Q367 80 367 563q0 257-79 487.5T61 1462h113q147-175 224-406.5T475 561z"/><glyph unicode="*" horiz-adv-x="1128" d="M631 1556l-37-405 405 104 21-131-395-39 247-340-124-71-191 379-180-379-125 71 242 340-390 39 19 131 401-104-39 405h146z"/><glyph unicode="+" d="M625 764h434v-82H625V250h-82v432H111v82h432v434h82V764z"/><glyph unicode="," horiz-adv-x="440" d="M295 238l12-21Q232-48 133-264H68q77 275 110 502h117z"/><glyph unicode="-" horiz-adv-x="659" d="M92 512v82h475v-82H92z"/><glyph unicode="." horiz-adv-x="487" d="M162 78q0 98 80 98 82 0 82-98t-82-98q-80 0-80 98z"/><glyph unicode="/" horiz-adv-x="698" d="M674 1462L129 0H25l544 1462h105z"/><glyph unicode="0" d="M1055 735q0-385-117.5-570T582-20q-229 0-348 190.5T115 735q0 382 115.5 566T582 1485q231 0 352-190.5T1055 735zm-832 0q0-340 89-502.5T582 70q189 0 275.5 168T944 735q0 324-86.5 492T582 1395t-274-168-85-492z"/><glyph unicode="1" d="M682 0h-98v1065q0 145 12 301-15-15-31-29t-309-243l-57 71 397 297h86V0z"/><glyph unicode="2" d="M1028 0H113v88l389 406q164 170 230 260t97 172 31 172q0 131-86 213t-223 82q-183 0-350-133l-54 69q183 154 406 154 191 0 300.5-102T963 1100q0-145-73.5-280.5T621 485L246 100v-4h782V0z"/><glyph unicode="3" d="M979 1118q0-136-85.5-229T664 770v-6q176-22 268-112t92-242q0-205-139.5-317.5T483-20Q260-20 94 63v99q84-44 188.5-69T479 68q221 0 332 89.5T922 410q0 145-113.5 223T475 711H317v96h160q182 0 288.5 86.5T872 1128q0 122-86.5 195.5T559 1397q-109 0-199-30.5T158 1262l-49 67q85 71 205 112.5t243 41.5q202 0 312-95.5T979 1118z"/><glyph unicode="4" d="M1141 373H889V0h-94v373H43v67l725 1030h121V459h252v-86zm-346 86v418q0 302 14 507h-8q-20-37-123-188L162 459h633z"/><glyph unicode="5" d="M537 879q234 0 368.5-113T1040 455q0-225-140-350T514-20Q405-20 307 1.5T143 63v103q108-55 192-76.5T514 68q192 0 308 101.5T938 444q0 163-113 256t-307 93q-130 0-272-39l-60 39 58 669h704v-96H338l-45-516q156 29 244 29z"/><glyph unicode="6" d="M131 623q0 285 77.5 479.5t220 288.5 343.5 94q94 0 172-23v-88q-73 27-176 27-247 0-384.5-178T229 705h13q76 98 174 148t207 50q205 0 320.5-117T1059 463q0-224-121.5-353.5T610-20q-222 0-350.5 169.5T131 623zM610 68q164 0 255 103t91 294q0 168-90 262t-245 94q-102 0-189.5-45T292 656.5 240 504q0-111 49.5-213.5t134-162.5T610 68z"/><glyph unicode="7" d="M334 0l602 1366H109v96h946v-73L451 0H334z"/><glyph unicode="8" d="M582 1487q186 0 299.5-95T995 1135q0-112-70.5-198T696 778q192-79 270-173t78-228q0-181-126.5-289T578-20Q357-20 239 81T121 375q0 131 83 230t257 169q-161 76-227 160.5T168 1137q0 105 53 184.5T369.5 1444t212.5 43zM223 360q0-138 93.5-214T578 70q164 0 264 80.5T942 369q0 124-78.5 201.5T561 733q-184-71-261-157t-77-216zm357 1037q-141 0-226.5-69.5T268 1137q0-70 31.5-123.5t91-97T590 815q163 63 234 139t71 183q0 120-84.5 190T580 1397z"/><glyph unicode="9" d="M1036 842q0-288-75.5-482t-220-287T391-20Q287-20 199 6v86q43-14 103.5-21.5T395 63q247 0 387 178.5T938 762h-12q-73-96-174-147.5T541 563q-203 0-316.5 112T111 993q0 220 124.5 356T559 1485q144 0 252-75.5T977.5 1188t58.5-346zm-477 555q-158 0-252-106.5T213 999q0-174 87-264t249-90q101 0 188.5 45t139 119.5T928 961q0 117-46.5 219t-130 159.5T559 1397z"/><glyph unicode=":" horiz-adv-x="487" d="M162 78q0 98 80 98 82 0 82-98t-82-98q-80 0-80 98zm0 893q0 98 80 98 82 0 82-98 0-53-23.5-76T242 872q-34 0-57 23t-23 76z"/><glyph unicode=";" horiz-adv-x="487" d="M303 238l12-21Q240-48 141-264H76q29 97 62 245.5T186 238h117zM162 971q0 98 80 98 82 0 82-98 0-53-23.5-76T242 872q-34 0-57 23t-23 76z"/><glyph unicode="<" d="M1059 266L111 682v61l948 474v-95L236 717l823-355v-96z"/><glyph unicode="=" d="M111 885v82h948v-82H111zm0-408v82h948v-82H111z"/><glyph unicode=">" d="M111 362l823 355-823 405v95l948-474v-61L111 266v96z"/><glyph unicode="?" horiz-adv-x="862" d="M293 377v37q0 123 37.5 201T469 782l91 79q72 61 103 121t31 138q0 127-83.5 202T391 1397q-79 0-148-17.5T94 1323l-37 80q110 48 184.5 64t153.5 16q183 0 288-98.5T788 1114q0-68-18-119t-50.5-94.5-78.5-84T539 729q-64-54-98.5-98.5t-50-93.5T375 391v-14h-82zM260 78q0 98 80 98 82 0 82-98t-82-98q-80 0-80 98z"/><glyph unicode="@" horiz-adv-x="1815" d="M1702 725q0-228-90.5-366T1366 221q-89 0-144.5 54T1157 422h-4q-43-100-124-150.5T840 221q-148 0-229 96.5T530 588q0 202 120.5 330.5T965 1047q138 0 286-41l-22-464v-30q0-104 35-156.5t116-52.5q103 0 168.5 116.5T1614 723q0 194-79 340t-225.5 224.5T975 1366q-230 0-405.5-99.5T299.5 985 205 567q0-322 167-497.5T846-106q93 0 188.5 18T1266-18v-99q-203-80-414-80-349 0-544 200.5T113 561q0 256 108.5 460.5t307 317.5T977 1452q215 0 380.5-89t255-254.5T1702 725zM633 590q0-143 55-215t174-72q255 0 273 346l16 291q-79 27-193 27-149 0-237-102.5T633 590z"/><glyph unicode="A" horiz-adv-x="1229" d="M911 516H317L113 0H0l588 1468h65L1229 0h-115zm-557 92h523l-199 527q-25 62-60 172-27-96-59-174z"/><glyph unicode="B" horiz-adv-x="1284" d="M207 1462h401q271 0 398-92t127-278q0-127-77.5-211.5T829 772v-6q175-26 257.5-110.5T1169 420q0-202-134-311T655 0H207v1462zm102-651h322q206 0 299.5 68.5T1024 1094t-105.5 212-314.5 66H309V811zm0-90V90h344q406 0 406 330 0 301-428 301H309z"/><glyph unicode="C" horiz-adv-x="1272" d="M831 1391q-275 0-433-176T240 733q0-313 149-486T815 74q184 0 338 47V31q-145-51-362-51-308 0-485 199T129 735q0 223 84.5 393t243 262.5T825 1483q214 0 383-80l-41-92q-160 80-336 80z"/><glyph unicode="D" horiz-adv-x="1446" d="M1317 745q0-368-193-556.5T557 0H207v1462h395q350 0 532.5-183T1317 745zm-111-4q0 314-159.5 472.5T578 1372H309V90h242q655 0 655 651z"/><glyph unicode="E" horiz-adv-x="1130" d="M1006 0H207v1462h799v-94H309V815h658v-94H309V94h697V0z"/><glyph unicode="F" horiz-adv-x="1028" d="M309 0H207v1462h801v-94H309V748h660v-95H309V0z"/><glyph unicode="G" horiz-adv-x="1481" d="M782 737h539V70q-212-90-477-90-346 0-530.5 195.5T129 729q0 223 91.5 395.5t262 266.5 391.5 94q239 0 429-88l-41-92q-190 88-394 88-289 0-458.5-178.5T240 733q0-330 161-496.5T874 70q202 0 343 57v514H782v96z"/><glyph unicode="H" horiz-adv-x="1473" d="M1266 0h-103v719H309V0H207v1462h102V813h854v649h103V0z"/><glyph unicode="I" horiz-adv-x="516" d="M207 0v1462h102V0H207z"/><glyph unicode="J" horiz-adv-x="506" d="M-33-369q-92 0-151 27v88q78-20 149-20 242 0 242 264v1472h102V0q0-369-342-369z"/><glyph unicode="K" horiz-adv-x="1190" d="M1190 0h-125L504 772 309 600V0H207v1462h102V702l162 162 573 598h130L575 844z"/><glyph unicode="L" horiz-adv-x="1051" d="M207 0v1462h102V96h697V0H207z"/><glyph unicode="M" horiz-adv-x="1767" d="M850 0L305 1350h-8q8-124 8-254V0h-98v1462h158L883 176h6l518 1286h154V0h-103v1108q0 116 12 240h-8L915 0h-65z"/><glyph unicode="N" horiz-adv-x="1477" d="M1270 0h-103L301 1298h-8q12-232 12-350V0h-98v1462h102l865-1296h6q-9 180-9 342v954h99V0z"/><glyph unicode="O" horiz-adv-x="1565" d="M1436 733q0-348-174-550.5T782-20q-305 0-479 202.5T129 735q0 349 175.5 549.5T784 1485q306 0 479-201.5T1436 733zm-1196 0q0-314 140-485.5T782 76q264 0 403.5 170T1325 733q0 316-139.5 484.5T784 1386q-261 0-402.5-170T240 733z"/><glyph unicode="P" horiz-adv-x="1198" d="M1087 1042q0-212-144-325T535 604H309V0H207v1462h358q522 0 522-420zM309 692h201q247 0 357 81.5T977 1038q0 169-104 250.5T551 1370H309V692z"/><glyph unicode="Q" horiz-adv-x="1565" d="M1436 733q0-294-126-486.5T961 0l333-348h-166L846-18l-33-2h-31q-305 0-479 202.5T129 735q0 349 175.5 549.5T784 1485q306 0 479-201.5T1436 733zm-1196 0q0-314 140-485.5T782 76q264 0 403.5 170T1325 733q0 316-139.5 484.5T784 1386q-261 0-402.5-170T240 733z"/><glyph unicode="R" horiz-adv-x="1217" d="M309 637V0H207v1462h348q272 0 402-100.5t130-302.5q0-147-77.5-248T774 666L1171 0h-122L672 637H309zm0 88h279q185 0 287 82.5T977 1051q0 167-100 243t-326 76H309V725z"/><glyph unicode="S" horiz-adv-x="1116" d="M1014 377q0-183-134.5-290T522-20q-268 0-411 59v102q158-67 403-67 180 0 285.5 82.5T905 373q0 83-35 137.5T756 610t-232 97q-224 77-309.5 166.5T129 1112q0 164 128.5 267.5T588 1483q206 0 387-78l-37-88q-182 76-348 76-162 0-258-75t-96-204q0-81 29.5-133t96.5-93.5T592 788q171-59 257-114.5t125.5-126T1014 377z"/><glyph unicode="T" horiz-adv-x="1073" d="M588 0H485v1366H10v96h1053v-96H588V0z"/><glyph unicode="U" horiz-adv-x="1473" d="M1282 1462V516q0-252-146-394T729-20q-254 0-396.5 142.5T190 520v942h103V516q0-211 117-328.5T741 70q209 0 324 115.5T1180 506v956h102z"/><glyph unicode="V" horiz-adv-x="1182" d="M1071 1462h111L635 0h-90L0 1462h109l368-995q84-225 113-338 20 75 79 233z"/><glyph unicode="W" horiz-adv-x="1827" d="M1372 0h-84L967 1128q-40 139-60 228-16-87-45.5-200T539 0h-86L51 1462h107l256-942q15-57 28-105.5t23.5-91 19-82T500 162q24 136 102 413l250 887h113l293-1018q51-176 73-284 13 72 33.5 153T1673 1462h103z"/><glyph unicode="X" horiz-adv-x="1102" d="M1102 0H985L553 682 113 0H0l492 762-447 700h115l395-626 401 626h109L612 764z"/><glyph unicode="Y" horiz-adv-x="1081" d="M543 662l428 800h110L594 565V0H489v557L0 1462h117z"/><glyph unicode="Z" horiz-adv-x="1180" d="M1098 0H82v76l856 1290H121v96h954v-76L217 96h881V0z"/><glyph unicode="[" horiz-adv-x="653" d="M602-324H174v1786h428v-94H272V-229h330v-95z"/><glyph unicode="\" horiz-adv-x="698" d="M127 1462L674 0H571L25 1462h102z"/><glyph unicode="]" horiz-adv-x="653" d="M51-229h330v1597H51v94h428V-324H51v95z"/><glyph unicode="^" d="M88 561l465 912h68l460-912H981l-395 791-398-791H88z"/><glyph unicode="_" horiz-adv-x="842" d="M846-266H-4v82h850v-82z"/><glyph unicode="`" horiz-adv-x="1182" d="M776 1241h-69q-96 79-188.5 171.5T393 1552v17h142q26-48 98.5-142T776 1257v-16z"/><glyph unicode="a" horiz-adv-x="1085" d="M842 0l-25 172h-8Q727 67 640.5 23.5T436-20q-160 0-249 82T98 289q0 159 132.5 247T614 629l207 6v72q0 155-63 234t-203 79q-151 0-313-84l-37 86q179 84 354 84 179 0 267.5-93T915 723V0h-73zM442 70q174 0 274.5 99.5T817 446v107l-190-8q-229-11-326.5-71.5T203 285q0-102 62.5-158.5T442 70z"/><glyph unicode="b" horiz-adv-x="1219" d="M641 1108q228 0 343.5-143.5T1100 545q0-271-121.5-418T637-20q-116 0-209 48T281 164h-9L244 0h-62v1556h99v-391q0-88-4-162l-3-85h7q62 98 149.5 144t210.5 46zm-2-90q-192 0-275-110t-83-363v-17q0-246 86.5-353T637 68q178 0 268 124.5T995 547q0 471-356 471z"/><glyph unicode="c" horiz-adv-x="973" d="M616-20q-233 0-365 147T119 537q0 270 137 420.5T631 1108q141 0 270-49l-27-88q-141 47-245 47-200 0-303-123.5T223 539q0-220 103-344.5T614 70q148 0 275 53V31Q785-20 616-20z"/><glyph unicode="d" horiz-adv-x="1219" d="M580 1108q118 0 204-43t154-147h6q-6 126-6 247v391h98V0h-65l-25 166h-8Q814-20 582-20q-225 0-344 140T119 528q0 282 118 431t343 149zm0-90q-178 0-267.5-125T223 530q0-462 359-462 184 0 270 107t86 353v17q0 252-84.5 362.5T580 1018z"/><glyph unicode="e" horiz-adv-x="1124" d="M621-20q-237 0-369.5 146T119 535q0 260 128 416.5T592 1108q192 0 303-134t111-364v-80H223q2-224 104.5-342T621 70q93 0 163.5 13T963 139V49Q871 9 793-5.5T621-20zm-29 1040q-157 0-252-103.5T229 618h672q0 189-82 295.5T592 1020z"/><glyph unicode="f" horiz-adv-x="614" d="M586 1001H330V0h-99v1001H29v58l202 37v84q0 200 73.5 293.5T545 1567q90 0 180-27l-23-86q-80 25-159 25-116 0-164.5-68.5T330 1188v-101h256v-86z"/><glyph unicode="g" horiz-adv-x="1071" d="M1030 1087v-69l-225-14q90-112 90-246 0-157-104.5-254.5T510 406q-74 0-104 6-59-31-90-73t-31-89q0-52 39.5-76T457 150h190q177 0 271-71.5t94-211.5q0-172-139.5-265.5T475-492q-205 0-317.5 79T45-193Q45-81 114.5-7T303 94q-49 21-78.5 59.5T195 242q0 109 139 192-95 39-148 122.5T133 748q0 163 103.5 261.5T516 1108q107 0 166-21h348zM150-184q0-224 333-224 428 0 428 273 0 98-67 142T627 51H449q-299 0-299-235zm83 932q0-126 76.5-195.5T514 483q136 0 208.5 69T795 752q0 139-74.5 208.5T512 1030q-130 0-204.5-74.5T233 748z"/><glyph unicode="h" horiz-adv-x="1208" d="M940 0v705q0 164-69 238.5T657 1018q-195 0-285.5-98.5T281 600V0h-99v1556h99v-495l-5-139h7q61 98 154 142t231 44q370 0 370-397V0h-98z"/><glyph unicode="i" horiz-adv-x="463" d="M281 0h-99v1087h99V0zM168 1389q0 96 63 96 31 0 48.5-25t17.5-71q0-45-17.5-71t-48.5-26q-63 0-63 97z"/><glyph unicode="j" horiz-adv-x="463" d="M37-492q-80 0-135 25v86q69-20 129-20 151 0 151 176v1312h99V-211q0-135-63.5-208T37-492zm131 1881q0 96 63 96 31 0 48.5-25t17.5-71q0-45-17.5-71t-48.5-26q-63 0-63 97z"/><glyph unicode="k" horiz-adv-x="991" d="M279 477l555 610h120L526 623 991 0H872L459 549 281 387V0h-99v1556h99V776l-7-299h5z"/><glyph unicode="l" horiz-adv-x="463" d="M281 0h-99v1556h99V0z"/><glyph unicode="m" horiz-adv-x="1808" d="M1540 0v713q0 159-62 232t-190 73q-167 0-247-92t-80-289V0H860v743q0 275-252 275-171 0-249-99.5T281 600V0h-99v1087h82l21-149h6q45 81 128 125.5t183 44.5q257 0 330-193h4q53 93 142.5 143t203.5 50q178 0 267-95t89-302V0h-98z"/><glyph unicode="n" horiz-adv-x="1208" d="M940 0v705q0 164-69 238.5T657 1018q-195 0-285.5-98.5T281 600V0h-99v1087h84l19-149h6q106 170 377 170 370 0 370-397V0h-98z"/><glyph unicode="o" horiz-adv-x="1200" d="M1081 545q0-266-129-415.5T596-20q-143 0-252 69T177 247t-58 298q0 266 129 414.5T602 1108q224 0 351.5-150.5T1081 545zm-858 0q0-224 98.5-349.5T600 70t278.5 125.5T977 545q0 225-99.5 349T598 1018 320.5 894.5 223 545z"/><glyph unicode="p" horiz-adv-x="1219" d="M647-20q-251 0-366 188h-7l3-84q4-74 4-162v-414h-99v1579h84l19-155h6q112 176 358 176 220 0 335.5-144.5T1100 543q0-268-121.5-415.5T647-20zm-2 88q167 0 258.5 124T995 539q0 479-346 479-190 0-279-104.5T281 573v-32q0-255 85.5-364T645 68z"/><glyph unicode="q" horiz-adv-x="1219" d="M569-20q-214 0-332 142T119 532q0 275 118 425.5T575 1108q236 0 353-174h6l18 153h84V-492h-98v414q0 122 6 248h-6Q820-20 569-20zm2 88q198 0 282.5 109T938 543v12q0 245-85 354t-271 109q-176 0-267.5-124T223 530q0-229 89.5-345.5T571 68z"/><glyph unicode="r" horiz-adv-x="797" d="M610 1108q69 0 148-14l-19-95q-68 17-141 17-139 0-228-118t-89-298V0h-99v1087h84l10-196h7q67 120 143 168.5t184 48.5z"/><glyph unicode="s" horiz-adv-x="954" d="M856 283q0-146-111-224.5T430-20Q212-20 84 47v107q164-82 346-82 161 0 244.5 53.5T758 268q0 82-66.5 138T473 516q-163 59-229 101.5t-99.5 96T111 844q0 122 102.5 193t286.5 71q176 0 334-66l-37-90q-160 66-297 66-133 0-211-44t-78-122q0-85 60.5-136T508 602q147-53 214-95.5T822.5 410 856 283z"/><glyph unicode="t" horiz-adv-x="686" d="M469 68q94 0 164 16V4q-72-24-166-24-144 0-212.5 77T186 299v702H25v58l161 45 50 246h51v-263h319v-86H287V313q0-125 44-185t138-60z"/><glyph unicode="u" horiz-adv-x="1208" d="M268 1087V383q0-164 69-238.5T551 70q194 0 285.5 98T928 487v600h98V0h-84l-18 150h-6Q812-20 541-20q-371 0-371 397v710h98z"/><glyph unicode="v" horiz-adv-x="940" d="M420 0L0 1087h102l281-739q56-142 84-248h6q41 136 84 250l281 737h102L520 0H420z"/><glyph unicode="w" horiz-adv-x="1481" d="M1051 0L813 727q-23 74-59 217h-6l-21-74-45-145L440 0h-98L31 1087h106l174-630q61-234 80-344h6q59 234 86 311l224 663h90l213-661q72-235 88-311h6q8 65 80 348l166 624h100L1155 0h-104z"/><glyph unicode="x" horiz-adv-x="1020" d="M449 559L70 1087h114l324-458 321 458h109L565 559 965 0H850L508 485 164 0H55z"/><glyph unicode="y" horiz-adv-x="940" d="M0 1087h102l230-610Q437 196 465 98h6q42 129 137 385l230 604h102L453-176q-59-154-99-208t-93.5-81T131-492q-57 0-127 21v86q58-16 125-16 51 0 90 24t70.5 74.5 73 160T416 0z"/><glyph unicode="z" horiz-adv-x="944" d="M858 0H82v63l645 936H129v88h727v-63L207 88h651V0z"/><glyph unicode="{" horiz-adv-x="723" d="M389-27q0-102 59.5-152.5T651-233v-91q-195 0-277.5 75T291-18v337q0 205-230 209v80q122 2 176 51t54 148v350q0 299 360 305v-90q-138-5-200-58t-62-157V852q0-130-44-194t-142-85v-8q97-20 141.5-83.5T389 295V-27z"/><glyph unicode="|" horiz-adv-x="1108" d="M508 1561h92V-506h-92v2067z"/><glyph unicode="}" horiz-adv-x="723" d="M334 295q0 123 44.5 186.5T520 565v8q-97 20-141.5 84T334 852v305q0 103-61.5 156.5T72 1372v90q174 0 267-77.5t93-227.5V807q0-100 54.5-148.5T662 608v-80q-230-4-230-209V-18q0-155-82.5-230.5T72-324v91q141 2 201.5 52.5T334-27v322z"/><glyph unicode="~" d="M334 745q-49 0-108-30.5T111 625v94q108 110 233 110 61 0 115-13.5T614 758q126-58 220-58 56 0 109.5 30.5T1059 825v-96q-48-49-104.5-81T825 616q-116 0-270 72-124 57-221 57z"/><glyph unicode="¡" horiz-adv-x="492" d="M215 711h61l29-1086H186zm-49 299q0 98 80 98 82 0 82-98 0-53-23.5-76T246 911q-34 0-57 23t-23 76z"/><glyph unicode="¢" d="M602 190q-186 30-288.5 175T211 745q0 232 102.5 381.5T602 1309v174h82v-166h14q131 0 275-55l-31-84q-134 51-237 51-187 0-288.5-122.5T315 748q0-225 100.5-349.5T696 274q131 0 267 58v-92q-110-56-267-56h-12V-20h-82v210z"/><glyph unicode="£" d="M412 676V420q0-116-35-196T264 96h809V0H78v84q110 21 171.5 110T311 418v258H100v82h211v297q0 204 98 315t281 111q175 0 330-68l-35-86q-157 66-295 66-141 0-209.5-81T412 1059V758h411v-82H412z"/><glyph unicode="¤" d="M991 723q0-151-90-256l139-141-59-60-137 142q-110-93-260-93-153 0-260 93L186 266l-59 60 139 141q-90 106-90 256 0 147 90 258l-139 141 59 60 138-142q103 93 260 93 155 0 260-93l137 142 59-60-139-141q90-111 90-258zM584 395q134 0 228.5 95.5T907 723q0 136-95 233t-228 97q-134 0-229-97t-95-233 94.5-232T584 395z"/><glyph unicode="¥" d="M586 666l428 796h110L692 674h283v-82H637V387h338v-82H637V0H532v305H195v82h337v205H195v82h278L43 1462h117z"/><glyph unicode="¦" horiz-adv-x="1108" d="M508 1561h92V797h-92v764zm0-1303h92v-764h-92v764z"/><glyph unicode="§" horiz-adv-x="1057" d="M145 813q0 83 50.5 152.5T334 1073q-86 47-125 102t-39 136q0 117 101.5 183.5T547 1561q175 0 336-64l-35-80q-91 34-158.5 47T545 1477q-134 0-205.5-44.5T268 1313q0-54 25.5-88.5T379 1159t188-74q192-64 264-132.5T903 782q0-173-186-274 86-42 129-96t43-136q0-135-113-207.5T465-4q-92 0-171 15T129 63v95q182-78 332-78 162 0 247 49.5T793 270q0 55-25 87.5T679.5 423 489 502q-200 73-272 141.5T145 813zm101 12q0-65 31.5-104T383 646t250-99q82 41 126 98t44 121q0 62-32 102t-108.5 77-236.5 87q-81-23-130.5-79T246 825z"/><glyph unicode="¨" horiz-adv-x="1182" d="M336 1389q0 46 15.5 66t47.5 20q64 0 64-86t-64-86q-63 0-63 86zm381 0q0 46 15.5 66t47.5 20q64 0 64-86t-64-86q-63 0-63 86z"/><glyph unicode="©" horiz-adv-x="1704" d="M897 1092q-142 0-222.5-94.5T594 733q0-186 74.5-275T889 369q84 0 198 43v-88q-102-45-208-45-187 0-288.5 115T489 725q0 208 111 332.5T897 1182q119 0 227-52l-37-83q-98 45-190 45zM100 731q0 200 100 375t275 276 377 101q200 0 375-100t276-275 101-377q0-197-97-370T1235 84 852-20Q645-20 470 83.5T197.5 360 100 731zm93 0q0-178 88.5-329.5T522 161t330-89 329.5 88.5T1422 401t89 330q0 174-85.5 325t-239 243-334.5 92q-176 0-328.5-88.5T282 1060t-89-329z"/><glyph unicode="ª" horiz-adv-x="686" d="M512 813l-25 72q-84-84-202-84-95 0-151 49T78 989q0 100 80 151.5t241 59.5l95 4v43q0 77-38 114.5T350 1399q-87 0-196-49l-33 73q117 56 231 56 228 0 228-215V813h-68zM168 993q0-54 35-85t96-31q90 0 142.5 50t52.5 142v64l-88-5q-116-6-177-36.5T168 993z"/><glyph unicode="«" horiz-adv-x="885" d="M82 543l309 393 62-43-254-363 254-362-62-43L82 516v27zm360 0l310 393 61-43-254-363 254-362-61-43-310 391v27z"/><glyph unicode="¬" d="M1038 764V270h-82v412H111v82h927z"/><glyph unicode="­" horiz-adv-x="659" d="M92 512zm0 0v82h475v-82H92z"/><glyph unicode="®" horiz-adv-x="1704" d="M709 731h112q91 0 143 46.5t52 135.5q0 172-197 172H709V731zm411 187q0-79-38.5-139.5T971 684l237-393h-121L877 651H709V291H608v880h211q143 0 222-62t79-191zM100 731q0 200 100 375t275 276 377 101q200 0 375-100t276-275 101-377q0-197-97-370T1235 84 852-20Q645-20 470 83.5T197.5 360 100 731zm93 0q0-178 88.5-329.5T522 161t330-89 329.5 88.5T1422 401t89 330q0 174-85.5 325t-239 243-334.5 92q-176 0-328.5-88.5T282 1060t-89-329z"/><glyph unicode="¯" horiz-adv-x="1024" d="M1030 1556H-6v82h1036v-82z"/><glyph unicode="°" horiz-adv-x="877" d="M139 1184q0 132 86.5 215.5T438 1483t212.5-83.5T737 1184t-86.5-215.5T438 885q-130 0-214.5 83T139 1184zm90 0q0-91 61-154t148-63q86 0 147.5 62t61.5 155q0 92-60 154.5T438 1401q-90 0-149.5-64T229 1184z"/><glyph unicode="±" d="M111 1zm0 0v82h948V1H111zm514 763h434v-82H625V250h-82v432H111v82h432v434h82V764z"/><glyph unicode="²" horiz-adv-x="688" d="M629 586H53v78l242 237q125 121 172 193t47 149q0 71-46.5 112.5T344 1397q-108 0-217-82l-49 65q119 103 270 103 124 0 194-63.5t70-174.5q0-47-13-89t-40-85.5-68.5-90T182 674h447v-88z"/><glyph unicode="³" horiz-adv-x="688" d="M616 1260q0-78-44-131.5T455 1053q186-45 186-211 0-130-88.5-201.5T305 569q-144 0-264 60v88q136-62 266-62 115 0 174.5 49T541 840q0 83-59.5 122T303 1001H172v84h135q105 0 158 43.5t53 120.5q0 67-47 107.5T344 1397q-128 0-246-78l-47 70q130 94 293 94 127 0 199.5-60t72.5-163z"/><glyph unicode="´" horiz-adv-x="1182" d="M393 1257q73 79 144.5 171.5T635 1569h141v-17q-36-52-122.5-138T463 1241h-70v16z"/><glyph unicode="µ" horiz-adv-x="1221" d="M281 1087V383q0-164 69-238.5T563 70q194 0 285.5 98T940 487v600h98V0h-84l-18 150h-6Q880 73 780 26.5T563-20q-99 0-167.5 27.5T276 92q5-92 5-170v-414h-99v1579h99z"/><glyph unicode="¶" horiz-adv-x="1341" d="M1106-260h-100v1722H778V-260H678v819q-64-18-146-18-216 0-317.5 125T113 1042q0 260 109 387t341 127h543V-260z"/><glyph unicode="·" horiz-adv-x="487" d="M162 623zm0 98q0 98 80 98 82 0 82-98t-82-98q-80 0-80 98z"/><glyph unicode="¸" horiz-adv-x="420" d="M393-291q0-100-67.5-150.5T137-492q-68 0-94 11v88q30-10 92-10 78 0 119 28t41 80q0 94-193 121L195 0h96l-66-117q168-37 168-174z"/><glyph unicode="¹" horiz-adv-x="688" d="M350 1462h92V586h-98v547q0 99 12 233-26-23-233-145l-47 77z"/><glyph unicode="º" horiz-adv-x="739" d="M670 1141q0-161-80-250.5T367 801t-220 86-77 254q0 162 78 250t223 88q142 0 220.5-87t78.5-251zm-510 0q0-264 209-264t209 264q0 131-50 194.5T369 1399t-159-63.5-50-194.5z"/><glyph unicode="»" horiz-adv-x="885" d="M803 518L494 125l-62 43 254 362-254 363 62 43 309-391v-27zm-361 0L133 125l-61 43 254 362L72 893l61 43 309-391v-27z"/><glyph unicode="¼" horiz-adv-x="1516" d="M59 0zm274 1462h92V586h-98v547q0 99 12 233-26-23-233-145l-47 77zm815 0L337 0h-94l811 1462h94zm244-1220h-129V1h-90v241H760v60l407 581h96V320h129v-78zm-219 78v221q0 132 8 232-6-12-21.5-35.5T864 320h309z"/><glyph unicode="½" horiz-adv-x="1516" d="M11 0zm274 1462h92V586h-98v547q0 99 12 233-26-23-233-145l-47 77zm788 0L262 0h-94l811 1462h94zM1403 1H827v78l242 237q125 121 172 193t47 149q0 71-46.5 112.5T1118 812q-108 0-217-82l-49 65q119 103 270 103 124 0 194-63.5t70-174.5q0-47-13-89t-40-85.5-68.5-90T956 89h447V1z"/><glyph unicode="¾" horiz-adv-x="1516" d="M41 0zm575 1260q0-78-44-131.5T455 1053q186-45 186-211 0-130-88.5-201.5T305 569q-144 0-264 60v88q136-62 266-62 115 0 174.5 49T541 840q0 83-59.5 122T303 1001H172v84h135q105 0 158 43.5t53 120.5q0 67-47 107.5T344 1397q-128 0-246-78l-47 70q130 94 293 94 127 0 199.5-60t72.5-163zm684 202L489 0h-94l811 1462h94zm195-1220h-129V1h-90v241H863v60l407 581h96V320h129v-78zm-219 78v221q0 132 8 232-6-12-21.5-35.5T967 320h309z"/><glyph unicode="¿" horiz-adv-x="862" d="M569 711v-37q0-125-39.5-204.5T393 305l-90-79q-73-61-104-120.5T168-33q0-124 82-200t221-76q125 0 233 46l64 27 37-79q-111-48-185.5-64T467-395q-184 0-288.5 99T74-27q0 70 20 124t58.5 102T324 358q64 53 98.5 98.5t49.5 94T487 696v15h82zm-129 299q0 98 80 98 82 0 82-98 0-53-23.5-76T520 911q-34 0-57 23t-23 76z"/><glyph unicode="À" horiz-adv-x="1229" d="M0 0zm911 516H317L113 0H0l588 1468h65L1229 0h-115zm-557 92h523l-199 527q-25 62-60 172-27-96-59-174zm366 971h-69q-96 79-188.5 171.5T337 1890v17h142q26-48 98.5-142T720 1595v-16z"/><glyph unicode="Á" horiz-adv-x="1229" d="M0 0zm911 516H317L113 0H0l588 1468h65L1229 0h-115zm-557 92h523l-199 527q-25 62-60 172-27-96-59-174zm150 987q73 79 144.5 171.5T746 1907h141v-17q-36-52-122.5-138T574 1579h-70v16z"/><glyph unicode="Â" horiz-adv-x="1229" d="M0 0zm911 516H317L113 0H0l588 1468h65L1229 0h-115zm-557 92h523l-199 527q-25 62-60 172-27-96-59-174zm-26 987q62 67 131.5 156T570 1907h98q68-120 242-312v-16h-70q-122 101-221 207-108-114-221-207h-70v16z"/><glyph unicode="Ã" horiz-adv-x="1229" d="M0 0zm911 516H317L113 0H0l588 1468h65L1229 0h-115zm-557 92h523l-199 527q-25 62-60 172-27-96-59-174zm430 973q-36 0-75 18.5T608 1671q-32 26-62.5 46t-62.5 20q-45 0-75-34.5T360 1581h-73q10 111 63 174.5t137 63.5q48 0 88-25t82-59q34-28 66-50t61-22q46 0 77 36.5t48 119.5h76q-16-116-69-177t-132-61z"/><glyph unicode="Ä" horiz-adv-x="1229" d="M0 0zm911 516H317L113 0H0l588 1468h65L1229 0h-115zm-557 92h523l-199 527q-25 62-60 172-27-96-59-174zm13 1119q0 46 15.5 66t47.5 20q64 0 64-86t-64-86q-63 0-63 86zm381 0q0 46 15.5 66t47.5 20q64 0 64-86t-64-86q-63 0-63 86z"/><glyph unicode="Å" horiz-adv-x="1229" d="M0 0zm911 516H317L113 0H0l588 1468h65L1229 0h-115zm-557 92h523l-199 527q-25 62-60 172-27-96-59-174zm482 1002q0-97-60-155t-157-58-157 58-60 155q0 94 60 152.5t157 58.5 157-59 60-152zm-354 0q0-66 37.5-103.5T619 1469t99.5 37.5T756 1610q0 64-39 101.5t-98 37.5q-62 0-99.5-38T482 1610z"/><glyph unicode="Æ" horiz-adv-x="1653" d="M1528 0H811v516H336L109 0H-2l653 1462h877v-94H913V815h576v-94H913V94h615V0zM377 608h434v760H711z"/><glyph unicode="Ç" horiz-adv-x="1272" d="M129 0zm702 1391q-275 0-433-176T240 733q0-313 149-486T815 74q184 0 338 47V31q-145-51-362-51-308 0-485 199T129 735q0 223 84.5 393t243 262.5T825 1483q214 0 383-80l-41-92q-160 80-336 80zm80-1682q0-100-67.5-150.5T655-492q-68 0-94 11v88q30-10 92-10 78 0 119 28t41 80q0 94-193 121L713 0h96l-66-117q168-37 168-174z"/><glyph unicode="È" horiz-adv-x="1130" d="M207 0zm799 0H207v1462h799v-94H309V815h658v-94H309V94h697V0zM697 1579h-69q-96 79-188.5 171.5T314 1890v17h142q26-48 98.5-142T697 1595v-16z"/><glyph unicode="É" horiz-adv-x="1130" d="M207 0zm799 0H207v1462h799v-94H309V815h658v-94H309V94h697V0zM463 1595q73 79 144.5 171.5T705 1907h141v-17q-36-52-122.5-138T533 1579h-70v16z"/><glyph unicode="Ê" horiz-adv-x="1130" d="M207 0zm799 0H207v1462h799v-94H309V815h658v-94H309V94h697V0zM315 1595q62 67 131.5 156T557 1907h98q68-120 242-312v-16h-70q-122 101-221 207-108-114-221-207h-70v16z"/><glyph unicode="Ë" horiz-adv-x="1130" d="M207 0zm799 0H207v1462h799v-94H309V815h658v-94H309V94h697V0zM354 1727q0 46 15.5 66t47.5 20q64 0 64-86t-64-86q-63 0-63 86zm381 0q0 46 15.5 66t47.5 20q64 0 64-86t-64-86q-63 0-63 86z"/><glyph unicode="Ì" horiz-adv-x="516" d="M0 0zm207 0v1462h102V0H207zm113 1579h-69q-96 79-188.5 171.5T-63 1890v17H79q26-48 98.5-142T320 1595v-16z"/><glyph unicode="Í" horiz-adv-x="516" d="M191 0zm16 0v1462h102V0H207zm-16 1595q73 79 144.5 171.5T433 1907h141v-17q-36-52-122.5-138T261 1579h-70v16z"/><glyph unicode="Î" horiz-adv-x="516" d="M0 0zm207 0v1462h102V0H207zM-32 1595q62 67 131.5 156T210 1907h98q68-120 242-312v-16h-70q-122 101-221 207-108-114-221-207h-70v16z"/><glyph unicode="Ï" horiz-adv-x="516" d="M5 0zm202 0v1462h102V0H207zM5 1727q0 46 15.5 66t47.5 20q64 0 64-86t-64-86q-63 0-63 86zm381 0q0 46 15.5 66t47.5 20q64 0 64-86t-64-86q-63 0-63 86z"/><glyph unicode="Ð" horiz-adv-x="1466" d="M1317 745q0-368-193-556.5T557 0H207v678H47v94h160v690h395q350 0 532.5-183T1317 745zm-111-4q0 314-159.5 472.5T578 1372H309V772h406v-94H309V90h242q655 0 655 651z"/><glyph unicode="Ñ" horiz-adv-x="1477" d="M207 0zm1063 0h-103L301 1298h-8q12-232 12-350V0h-98v1462h102l865-1296h6q-9 180-9 342v954h99V0zM897 1581q-36 0-75 18.5T721 1671q-32 26-62.5 46t-62.5 20q-45 0-75-34.5T473 1581h-73q10 111 63 174.5t137 63.5q48 0 88-25t82-59q34-28 66-50t61-22q46 0 77 36.5t48 119.5h76q-16-116-69-177t-132-61z"/><glyph unicode="Ò" horiz-adv-x="1565" d="M129 0zm1307 733q0-348-174-550.5T782-20q-305 0-479 202.5T129 735q0 349 175.5 549.5T784 1485q306 0 479-201.5T1436 733zm-1196 0q0-314 140-485.5T782 76q264 0 403.5 170T1325 733q0 316-139.5 484.5T784 1386q-261 0-402.5-170T240 733zm645 846h-69q-96 79-188.5 171.5T502 1890v17h142q26-48 98.5-142T885 1595v-16z"/><glyph unicode="Ó" horiz-adv-x="1565" d="M129 0zm1307 733q0-348-174-550.5T782-20q-305 0-479 202.5T129 735q0 349 175.5 549.5T784 1485q306 0 479-201.5T1436 733zm-1196 0q0-314 140-485.5T782 76q264 0 403.5 170T1325 733q0 316-139.5 484.5T784 1386q-261 0-402.5-170T240 733zm446 862q73 79 144.5 171.5T928 1907h141v-17q-36-52-122.5-138T756 1579h-70v16z"/><glyph unicode="Ô" horiz-adv-x="1565" d="M129 0zm1307 733q0-348-174-550.5T782-20q-305 0-479 202.5T129 735q0 349 175.5 549.5T784 1485q306 0 479-201.5T1436 733zm-1196 0q0-314 140-485.5T782 76q264 0 403.5 170T1325 733q0 316-139.5 484.5T784 1386q-261 0-402.5-170T240 733zm252 862q62 67 131.5 156T734 1907h98q68-120 242-312v-16h-70q-122 101-221 207-108-114-221-207h-70v16z"/><glyph unicode="Õ" horiz-adv-x="1565" d="M129 0zm1307 733q0-348-174-550.5T782-20q-305 0-479 202.5T129 735q0 349 175.5 549.5T784 1485q306 0 479-201.5T1436 733zm-1196 0q0-314 140-485.5T782 76q264 0 403.5 170T1325 733q0 316-139.5 484.5T784 1386q-261 0-402.5-170T240 733zm700 848q-36 0-75 18.5T764 1671q-32 26-62.5 46t-62.5 20q-45 0-75-34.5T516 1581h-73q10 111 63 174.5t137 63.5q48 0 88-25t82-59q34-28 66-50t61-22q46 0 77 36.5t48 119.5h76q-16-116-69-177t-132-61z"/><glyph unicode="Ö" horiz-adv-x="1565" d="M129 0zm1307 733q0-348-174-550.5T782-20q-305 0-479 202.5T129 735q0 349 175.5 549.5T784 1485q306 0 479-201.5T1436 733zm-1196 0q0-314 140-485.5T782 76q264 0 403.5 170T1325 733q0 316-139.5 484.5T784 1386q-261 0-402.5-170T240 733zm289 994q0 46 15.5 66t47.5 20q64 0 64-86t-64-86q-63 0-63 86zm381 0q0 46 15.5 66t47.5 20q64 0 64-86t-64-86q-63 0-63 86z"/><glyph unicode="×" d="M584 780l409 408 58-58-408-407 406-408-58-57-407 408-406-408-57 57 405 408-407 407 57 58z"/><glyph unicode="Ø" horiz-adv-x="1565" d="M1436 733q0-348-174-550.5T782-20q-236 0-395 120L301-20l-74 59 90 127Q129 366 129 735q0 349 175.5 549.5T784 1485q232 0 392-121l108 152 72-60-111-153q191-207 191-570zm-111 0q0 315-139 486L444 182Q577 76 782 76q264 0 403.5 170T1325 733zm-1085 0q0-312 139-483l739 1034q-133 102-334 102-261 0-402.5-170T240 733z"/><glyph unicode="Ù" horiz-adv-x="1473" d="M190 0zm1092 1462V516q0-252-146-394T729-20q-254 0-396.5 142.5T190 520v942h103V516q0-211 117-328.5T741 70q209 0 324 115.5T1180 506v956h102zm-449 117h-69q-96 79-188.5 171.5T450 1890v17h142q26-48 98.5-142T833 1595v-16z"/><glyph unicode="Ú" horiz-adv-x="1473" d="M190 0zm1092 1462V516q0-252-146-394T729-20q-254 0-396.5 142.5T190 520v942h103V516q0-211 117-328.5T741 70q209 0 324 115.5T1180 506v956h102zm-649 133q73 79 144.5 171.5T875 1907h141v-17q-36-52-122.5-138T703 1579h-70v16z"/><glyph unicode="Û" horiz-adv-x="1473" d="M190 0zm1092 1462V516q0-252-146-394T729-20q-254 0-396.5 142.5T190 520v942h103V516q0-211 117-328.5T741 70q209 0 324 115.5T1180 506v956h102zm-838 133q62 67 131.5 156T686 1907h98q68-120 242-312v-16h-70q-122 101-221 207-108-114-221-207h-70v16z"/><glyph unicode="Ü" horiz-adv-x="1473" d="M190 0zm1092 1462V516q0-252-146-394T729-20q-254 0-396.5 142.5T190 520v942h103V516q0-211 117-328.5T741 70q209 0 324 115.5T1180 506v956h102zm-801 265q0 46 15.5 66t47.5 20q64 0 64-86t-64-86q-63 0-63 86zm381 0q0 46 15.5 66t47.5 20q64 0 64-86t-64-86q-63 0-63 86z"/><glyph unicode="Ý" horiz-adv-x="1081" d="M0 0zm543 662l428 800h110L594 565V0H489v557L0 1462h117zm-109 933q73 79 144.5 171.5T676 1907h141v-17q-36-52-122.5-138T504 1579h-70v16z"/><glyph unicode="Þ" horiz-adv-x="1198" d="M1087 778q0-212-144-325T535 340H309V0H207v1462h102v-264h256q522 0 522-420zM309 428h201q247 0 357 81.5T977 774q0 169-104 250.5T551 1106H309V428z"/><glyph unicode="ß" horiz-adv-x="1194" d="M961 1284q0-139-139-250-81-64-110.5-100.5T682 858q0-44 14.5-68t51.5-57 102-78q106-75 151.5-124.5t68-103T1092 307q0-156-88-241.5T758-20q-95 0-174.5 18.5T457 47v107q65-38 148.5-62T758 68q114 0 174.5 54.5T993 283q0 83-39 144T805 563q-127 87-175 147t-48 146q0 60 32.5 110T721 1074q74 57 106.5 105.5T860 1286q0 93-70 143t-202 50q-145 0-226-69t-81-196V0h-99v1206q0 173 103.5 267t292.5 94q188 0 285.5-72.5T961 1284z"/><glyph unicode="à" horiz-adv-x="1085" d="M98 0zm744 0l-25 172h-8Q727 67 640.5 23.5T436-20q-160 0-249 82T98 289q0 159 132.5 247T614 629l207 6v72q0 155-63 234t-203 79q-151 0-313-84l-37 86q179 84 354 84 179 0 267.5-93T915 723V0h-73zM442 70q174 0 274.5 99.5T817 446v107l-190-8q-229-11-326.5-71.5T203 285q0-102 62.5-158.5T442 70zm196 1171h-69q-96 79-188.5 171.5T255 1552v17h142q26-48 98.5-142T638 1257v-16z"/><glyph unicode="á" horiz-adv-x="1085" d="M98 0zm744 0l-25 172h-8Q727 67 640.5 23.5T436-20q-160 0-249 82T98 289q0 159 132.5 247T614 629l207 6v72q0 155-63 234t-203 79q-151 0-313-84l-37 86q179 84 354 84 179 0 267.5-93T915 723V0h-73zM442 70q174 0 274.5 99.5T817 446v107l-190-8q-229-11-326.5-71.5T203 285q0-102 62.5-158.5T442 70zm-20 1187q73 79 144.5 171.5T664 1569h141v-17q-36-52-122.5-138T492 1241h-70v16z"/><glyph unicode="â" horiz-adv-x="1085" d="M98 0zm744 0l-25 172h-8Q727 67 640.5 23.5T436-20q-160 0-249 82T98 289q0 159 132.5 247T614 629l207 6v72q0 155-63 234t-203 79q-151 0-313-84l-37 86q179 84 354 84 179 0 267.5-93T915 723V0h-73zM442 70q174 0 274.5 99.5T817 446v107l-190-8q-229-11-326.5-71.5T203 285q0-102 62.5-158.5T442 70zM251 1257q62 67 131.5 156T493 1569h98q68-120 242-312v-16h-70q-122 101-221 207-108-114-221-207h-70v16z"/><glyph unicode="ã" horiz-adv-x="1085" d="M98 0zm744 0l-25 172h-8Q727 67 640.5 23.5T436-20q-160 0-249 82T98 289q0 159 132.5 247T614 629l207 6v72q0 155-63 234t-203 79q-151 0-313-84l-37 86q179 84 354 84 179 0 267.5-93T915 723V0h-73zM442 70q174 0 274.5 99.5T817 446v107l-190-8q-229-11-326.5-71.5T203 285q0-102 62.5-158.5T442 70zm255 1173q-36 0-75 18.5T521 1333q-32 26-62.5 46t-62.5 20q-45 0-75-34.5T273 1243h-73q10 111 63 174.5t137 63.5q48 0 88-25t82-59q34-28 66-50t61-22q46 0 77 36.5t48 119.5h76q-16-116-69-177t-132-61z"/><glyph unicode="ä" horiz-adv-x="1085" d="M98 0zm744 0l-25 172h-8Q727 67 640.5 23.5T436-20q-160 0-249 82T98 289q0 159 132.5 247T614 629l207 6v72q0 155-63 234t-203 79q-151 0-313-84l-37 86q179 84 354 84 179 0 267.5-93T915 723V0h-73zM442 70q174 0 274.5 99.5T817 446v107l-190-8q-229-11-326.5-71.5T203 285q0-102 62.5-158.5T442 70zM282 1389q0 46 15.5 66t47.5 20q64 0 64-86t-64-86q-63 0-63 86zm381 0q0 46 15.5 66t47.5 20q64 0 64-86t-64-86q-63 0-63 86z"/><glyph unicode="å" horiz-adv-x="1085" d="M98 0zm744 0l-25 172h-8Q727 67 640.5 23.5T436-20q-160 0-249 82T98 289q0 159 132.5 247T614 629l207 6v72q0 155-63 234t-203 79q-151 0-313-84l-37 86q179 84 354 84 179 0 267.5-93T915 723V0h-73zM442 70q174 0 274.5 99.5T817 446v107l-190-8q-229-11-326.5-71.5T203 285q0-102 62.5-158.5T442 70zm317 1386q0-97-60-155t-157-58-157 58-60 155q0 94 60 152.5t157 58.5 157-59 60-152zm-354 0q0-66 37.5-103.5T542 1315t99.5 37.5T679 1456q0 64-39 101.5t-98 37.5q-62 0-99.5-38T405 1456z"/><glyph unicode="æ" horiz-adv-x="1731" d="M1243-20q-295 0-397 256-68-133-168-194.5T426-20q-156 0-242 82.5T98 289q0 154 125 243t377 97l201 6v72q0 155-61.5 234T541 1020q-148 0-305-84l-37 86q173 84 346 84 261 0 325-211 111 213 347 213 184 0 289.5-134.5T1612 610v-80H897q0-460 348-460 85 0 150 12t174 57V49q-92-41-165-55t-161-14zM434 70q169 0 266 99.5T797 446v107l-187-8q-219-11-313-71.5T203 285q0-102 61-158.5T434 70zm783 950q-284 0-314-402h604q0 188-77.5 295T1217 1020z"/><glyph unicode="ç" horiz-adv-x="973" d="M119 0zm497-20q-233 0-365 147T119 537q0 270 137 420.5T631 1108q141 0 270-49l-27-88q-141 47-245 47-200 0-303-123.5T223 539q0-220 103-344.5T614 70q148 0 275 53V31Q785-20 616-20zm107-271q0-100-67.5-150.5T467-492q-68 0-94 11v88q30-10 92-10 78 0 119 28t41 80q0 94-193 121L525 0h96l-66-117q168-37 168-174z"/><glyph unicode="è" horiz-adv-x="1124" d="M119 0zm502-20q-237 0-369.5 146T119 535q0 260 128 416.5T592 1108q192 0 303-134t111-364v-80H223q2-224 104.5-342T621 70q93 0 163.5 13T963 139V49Q871 9 793-5.5T621-20zm-29 1040q-157 0-252-103.5T229 618h672q0 189-82 295.5T592 1020zm93 221h-69q-96 79-188.5 171.5T302 1552v17h142q26-48 98.5-142T685 1257v-16z"/><glyph unicode="é" horiz-adv-x="1124" d="M119 0zm502-20q-237 0-369.5 146T119 535q0 260 128 416.5T592 1108q192 0 303-134t111-364v-80H223q2-224 104.5-342T621 70q93 0 163.5 13T963 139V49Q871 9 793-5.5T621-20zm-29 1040q-157 0-252-103.5T229 618h672q0 189-82 295.5T592 1020zm-140 237q73 79 144.5 171.5T694 1569h141v-17q-36-52-122.5-138T522 1241h-70v16z"/><glyph unicode="ê" horiz-adv-x="1124" d="M119 0zm502-20q-237 0-369.5 146T119 535q0 260 128 416.5T592 1108q192 0 303-134t111-364v-80H223q2-224 104.5-342T621 70q93 0 163.5 13T963 139V49Q871 9 793-5.5T621-20zm-29 1040q-157 0-252-103.5T229 618h672q0 189-82 295.5T592 1020zm-302 237q62 67 131.5 156T532 1569h98q68-120 242-312v-16h-70q-122 101-221 207-108-114-221-207h-70v16z"/><glyph unicode="ë" horiz-adv-x="1124" d="M119 0zm502-20q-237 0-369.5 146T119 535q0 260 128 416.5T592 1108q192 0 303-134t111-364v-80H223q2-224 104.5-342T621 70q93 0 163.5 13T963 139V49Q871 9 793-5.5T621-20zm-29 1040q-157 0-252-103.5T229 618h672q0 189-82 295.5T592 1020zm-261 369q0 46 15.5 66t47.5 20q64 0 64-86t-64-86q-63 0-63 86zm381 0q0 46 15.5 66t47.5 20q64 0 64-86t-64-86q-63 0-63 86z"/><glyph unicode="ì" horiz-adv-x="463" d="M0 0zm281 0h-99v1087h99V0zm68 1241h-69q-96 79-188.5 171.5T-34 1552v17h142q26-48 98.5-142T349 1257v-16z"/><glyph unicode="í" horiz-adv-x="463" d="M107 0zm174 0h-99v1087h99V0zM107 1257q73 79 144.5 171.5T349 1569h141v-17q-36-52-122.5-138T177 1241h-70v16z"/><glyph unicode="î" horiz-adv-x="463" d="M0 0zm281 0h-99v1087h99V0zM-58 1257q62 67 131.5 156T184 1569h98q68-120 242-312v-16h-70q-122 101-221 207-108-114-221-207h-70v16z"/><glyph unicode="ï" horiz-adv-x="463" d="M0 0zm281 0h-99v1087h99V0zM-21 1389q0 46 15.5 66t47.5 20q64 0 64-86t-64-86q-63 0-63 86zm381 0q0 46 15.5 66t47.5 20q64 0 64-86t-64-86q-63 0-63 86z"/><glyph unicode="ð" horiz-adv-x="1174" d="M1055 559q0-276-124-427.5T582-20q-214 0-339.5 130T117 471q0 228 126.5 357.5T586 958q108 0 187.5-33T922 829l4 2q-64 270-269 459l-270-157-49 77 244 146q-86 62-199 119l45 81q147-69 248-145l225 137 49-84-202-121q154-151 230.5-353t76.5-431zm-105-2q0 146-97 228.5T586 868q-185 0-275-100.5T221 463q0-186 94.5-289.5T584 70q179 0 272.5 123T950 557z"/><glyph unicode="ñ" horiz-adv-x="1208" d="M182 0zm758 0v705q0 164-69 238.5T657 1018q-195 0-285.5-98.5T281 600V0h-99v1087h84l19-149h6q106 170 377 170 370 0 370-397V0h-98zM779 1243q-36 0-75 18.5T603 1333q-32 26-62.5 46t-62.5 20q-45 0-75-34.5T355 1243h-73q10 111 63 174.5t137 63.5q48 0 88-25t82-59q34-28 66-50t61-22q46 0 77 36.5t48 119.5h76q-16-116-69-177t-132-61z"/><glyph unicode="ò" horiz-adv-x="1200" d="M119 0zm962 545q0-266-129-415.5T596-20q-143 0-252 69T177 247t-58 298q0 266 129 414.5T602 1108q224 0 351.5-150.5T1081 545zm-858 0q0-224 98.5-349.5T600 70t278.5 125.5T977 545q0 225-99.5 349T598 1018 320.5 894.5 223 545zm495 696h-69q-96 79-188.5 171.5T335 1552v17h142q26-48 98.5-142T718 1257v-16z"/><glyph unicode="ó" horiz-adv-x="1200" d="M119 0zm962 545q0-266-129-415.5T596-20q-143 0-252 69T177 247t-58 298q0 266 129 414.5T602 1108q224 0 351.5-150.5T1081 545zm-858 0q0-224 98.5-349.5T600 70t278.5 125.5T977 545q0 225-99.5 349T598 1018 320.5 894.5 223 545zm276 712q73 79 144.5 171.5T741 1569h141v-17q-36-52-122.5-138T569 1241h-70v16z"/><glyph unicode="ô" horiz-adv-x="1200" d="M119 0zm962 545q0-266-129-415.5T596-20q-143 0-252 69T177 247t-58 298q0 266 129 414.5T602 1108q224 0 351.5-150.5T1081 545zm-858 0q0-224 98.5-349.5T600 70t278.5 125.5T977 545q0 225-99.5 349T598 1018 320.5 894.5 223 545zm86 712q62 67 131.5 156T551 1569h98q68-120 242-312v-16h-70q-122 101-221 207-108-114-221-207h-70v16z"/><glyph unicode="õ" horiz-adv-x="1200" d="M119 0zm962 545q0-266-129-415.5T596-20q-143 0-252 69T177 247t-58 298q0 266 129 414.5T602 1108q224 0 351.5-150.5T1081 545zm-858 0q0-224 98.5-349.5T600 70t278.5 125.5T977 545q0 225-99.5 349T598 1018 320.5 894.5 223 545zm538 698q-36 0-75 18.5T585 1333q-32 26-62.5 46t-62.5 20q-45 0-75-34.5T337 1243h-73q10 111 63 174.5t137 63.5q48 0 88-25t82-59q34-28 66-50t61-22q46 0 77 36.5t48 119.5h76q-16-116-69-177t-132-61z"/><glyph unicode="ö" horiz-adv-x="1200" d="M119 0zm962 545q0-266-129-415.5T596-20q-143 0-252 69T177 247t-58 298q0 266 129 414.5T602 1108q224 0 351.5-150.5T1081 545zm-858 0q0-224 98.5-349.5T600 70t278.5 125.5T977 545q0 225-99.5 349T598 1018 320.5 894.5 223 545zm123 844q0 46 15.5 66t47.5 20q64 0 64-86t-64-86q-63 0-63 86zm381 0q0 46 15.5 66t47.5 20q64 0 64-86t-64-86q-63 0-63 86z"/><glyph unicode="÷" d="M111 682v82h948v-82H111zm393 393q0 99 80 99 82 0 82-99 0-52-23.5-75T584 977q-34 0-57 23t-23 75zm0-704q0 98 80 98 82 0 82-98 0-53-23.5-76T584 272q-34 0-57 23t-23 76z"/><glyph unicode="ø" horiz-adv-x="1200" d="M1081 545q0-266-129-415.5T596-20q-173 0-291 98L219-35l-72 58 93 120Q119 296 119 545q0 266 129 414.5T602 1108q179 0 301-104l96 124 74-55-104-137q112-147 112-391zm-858 0q0-200 78-322l543 705q-98 90-246 90-180 0-277.5-123.5T223 545zm754 0q0 190-72 309L362 152q94-82 238-82 180 0 278.5 125.5T977 545z"/><glyph unicode="ù" horiz-adv-x="1208" d="M170 0zm98 1087V383q0-164 69-238.5T551 70q194 0 285.5 98T928 487v600h98V0h-84l-18 150h-6Q812-20 541-20q-371 0-371 397v710h98zm419 154h-69q-96 79-188.5 171.5T304 1552v17h142q26-48 98.5-142T687 1257v-16z"/><glyph unicode="ú" horiz-adv-x="1208" d="M170 0zm98 1087V383q0-164 69-238.5T551 70q194 0 285.5 98T928 487v600h98V0h-84l-18 150h-6Q812-20 541-20q-371 0-371 397v710h98zm227 170q73 79 144.5 171.5T737 1569h141v-17q-36-52-122.5-138T565 1241h-70v16z"/><glyph unicode="û" horiz-adv-x="1208" d="M170 0zm98 1087V383q0-164 69-238.5T551 70q194 0 285.5 98T928 487v600h98V0h-84l-18 150h-6Q812-20 541-20q-371 0-371 397v710h98zm45 170q62 67 131.5 156T555 1569h98q68-120 242-312v-16h-70q-122 101-221 207-108-114-221-207h-70v16z"/><glyph unicode="ü" horiz-adv-x="1208" d="M170 0zm98 1087V383q0-164 69-238.5T551 70q194 0 285.5 98T928 487v600h98V0h-84l-18 150h-6Q812-20 541-20q-371 0-371 397v710h98zm82 302q0 46 15.5 66t47.5 20q64 0 64-86t-64-86q-63 0-63 86zm381 0q0 46 15.5 66t47.5 20q64 0 64-86t-64-86q-63 0-63 86z"/><glyph unicode="ý" horiz-adv-x="940" d="M0 0zm0 1087h102l230-610Q437 196 465 98h6q42 129 137 385l230 604h102L453-176q-59-154-99-208t-93.5-81T131-492q-57 0-127 21v86q58-16 125-16 51 0 90 24t70.5 74.5 73 160T416 0zm361 170q73 79 144.5 171.5T603 1569h141v-17q-36-52-122.5-138T431 1241h-70v16z"/><glyph unicode="þ" horiz-adv-x="1219" d="M281 918q114 190 368 190 220 0 335.5-144.5T1100 543q0-268-121.5-415.5T647-20q-251 0-366 188h-7l3-84q4-74 4-162v-414h-99v2048h99v-391l-7-247h7zM645 68q167 0 258.5 124T995 539q0 479-348 479-193 0-279.5-105T281 559v-18q0-255 85.5-364T645 68z"/><glyph unicode="ÿ" horiz-adv-x="940" d="M0 0zm0 1087h102l230-610Q437 196 465 98h6q42 129 137 385l230 604h102L453-176q-59-154-99-208t-93.5-81T131-492q-57 0-127 21v86q58-16 125-16 51 0 90 24t70.5 74.5 73 160T416 0zm214 302q0 46 15.5 66t47.5 20q64 0 64-86t-64-86q-63 0-63 86zm381 0q0 46 15.5 66t47.5 20q64 0 64-86t-64-86q-63 0-63 86z"/><glyph unicode="ı" horiz-adv-x="463" d="M281 0h-99v1087h99V0z"/><glyph unicode="Œ" horiz-adv-x="1839" d="M1714 0H958q-76-16-176-16-305 0-479 200T129 735q0 347 174.5 545.5T784 1479q78 0 183-17h747v-94h-655V815h616v-94h-616V94h655V0zM782 80q109 0 174 18v1266q-62 16-172 16-262 0-403-167.5T240 733q0-315 140.5-484T782 80z"/><glyph unicode="œ" horiz-adv-x="1942" d="M1438-20q-156 0-266.5 67.5T1006 246Q947 118 848 49T596-20q-143 0-252 69T177 247t-58 298q0 266 129 414.5T602 1108q151 0 251-70t157-209q110 279 399 279 192 0 303-134t111-364v-80h-762q2-230 100.5-345T1438 70q93 0 163.5 13t178.5 56V49q-92-40-170-54.5T1438-20zM223 545q0-224 98.5-349.5T600 70q174 0 265 122.5T956 545q0 224-93 348.5T598 1018q-180 0-277.5-123.5T223 545zm1186 475q-155 0-242-104t-102-298h653q0 189-82 295.5T1409 1020z"/><glyph unicode="Ÿ" horiz-adv-x="1081" d="M0 0zm543 662l428 800h110L594 565V0H489v557L0 1462h117zM288 1727q0 46 15.5 66t47.5 20q64 0 64-86t-64-86q-63 0-63 86zm381 0q0 46 15.5 66t47.5 20q64 0 64-86t-64-86q-63 0-63 86z"/><glyph unicode="ˆ" horiz-adv-x="1182" d="M299 1257q62 67 131.5 156T541 1569h98q68-120 242-312v-16h-70q-122 101-221 207-108-114-221-207h-70v16z"/><glyph unicode="˚" horiz-adv-x="1182" d="M805 1456q0-97-60-155t-157-58-157 58-60 155q0 94 60 152.5t157 58.5 157-59 60-152zm-354 0q0-66 37.5-103.5T588 1315t99.5 37.5T725 1456q0 64-39 101.5t-98 37.5q-62 0-99.5-38T451 1456z"/><glyph unicode="˜" horiz-adv-x="1182" d="M780 1243q-36 0-75 18.5T604 1333q-32 26-62.5 46t-62.5 20q-45 0-75-34.5T356 1243h-73q10 111 63 174.5t137 63.5q48 0 88-25t82-59q34-28 66-50t61-22q46 0 77 36.5t48 119.5h76q-16-116-69-177t-132-61z"/><glyph horiz-adv-x="953"/><glyph horiz-adv-x="1907"/><glyph horiz-adv-x="953"/><glyph horiz-adv-x="1907"/><glyph horiz-adv-x="635"/><glyph horiz-adv-x="476"/><glyph horiz-adv-x="317"/><glyph horiz-adv-x="317"/><glyph horiz-adv-x="238"/><glyph horiz-adv-x="381"/><glyph horiz-adv-x="105"/><glyph unicode="‐" horiz-adv-x="659" d="M92 512v82h475v-82H92z"/><glyph unicode="‑" horiz-adv-x="659" d="M92 512v82h475v-82H92z"/><glyph unicode="‒" horiz-adv-x="659" d="M92 512v82h475v-82H92z"/><glyph unicode="–" horiz-adv-x="1024" d="M82 512v82h860v-82H82z"/><glyph unicode="—" horiz-adv-x="2048" d="M82 512v82h1884v-82H82z"/><glyph unicode="‘" horiz-adv-x="297" d="M41 961l-12 20q32 112 81.5 251t92.5 230h65q-30-101-64.5-257T158 961H41z"/><glyph unicode="’" horiz-adv-x="297" d="M256 1462l12-20q-75-265-174-481H29q29 96 61 241.5t49 259.5h117z"/><glyph unicode="‚" horiz-adv-x="451" d="M68 0zm227 238l12-20Q232-47 133-263H68q29 96 61 241.5T178 238h117z"/><glyph unicode="“" horiz-adv-x="614" d="M358 961l-12 20q34 120 83 255t91 226h66q-30-98-63-248.5T475 961H358zm-317 0l-12 20q32 112 81.5 251t92.5 230h65q-30-101-64.5-257T158 961H41z"/><glyph unicode="”" horiz-adv-x="614" d="M256 1462l12-20q-75-265-174-481H29q29 96 61 241.5t49 259.5h117zm317 0l13-20q-36-128-85-261t-89-220h-66q30 98 63 248.5t48 252.5h116z"/><glyph unicode="„" horiz-adv-x="768" d="M68 0zm227 238l12-20Q232-47 133-263H68q29 96 61 241.5T178 238h117zm317 0l13-20Q589 90 540-43t-89-220h-66q30 98 63 248.5T496 238h116z"/><glyph unicode="•" horiz-adv-x="770" d="M231 748q0 89 40.5 134.5T385 928t113.5-47T539 748q0-85-41-133t-113-48-113 47-41 134z"/><glyph unicode="…" horiz-adv-x="1466" d="M162 0zm0 78q0 98 80 98 82 0 82-98t-82-98q-80 0-80 98zm489 0q0 98 80 98 82 0 82-98t-82-98q-80 0-80 98zm490 0q0 98 80 98 82 0 82-98t-82-98q-80 0-80 98z"/><glyph horiz-adv-x="381"/><glyph unicode="‹" horiz-adv-x="524" d="M82 543l309 393 62-43-254-363 254-362-62-43L82 516v27z"/><glyph unicode="›" horiz-adv-x="524" d="M442 518L133 125l-61 43 254 362L72 893l61 43 309-391v-27z"/><glyph unicode="⁄" horiz-adv-x="246" d="M573 1462L-238 0h-94l811 1462h94z"/><glyph horiz-adv-x="476"/><glyph unicode="⁴" horiz-adv-x="688" d="M657 827H528V586h-90v241H25v60l407 581h96V905h129v-78zm-219 78v221q0 132 8 232-6-12-21.5-35.5T129 905h309z"/><glyph unicode="€" d="M803 1397q-174 0-288-125.5T360 907h502v-82H352l-4-104v-24q0-65 4-87h449v-82H358q30-217 147.5-338.5T807 68q148 0 287 65V39Q1013 5 943.5-7.5T803-20q-228 0-367.5 140T254 528H74v82h172q-4 38-4 113l4 102H74v82h184q39 272 183 425t362 153q88 0 161-17t148-57l-39-86q-132 72-270 72z"/><glyph unicode="™" horiz-adv-x="1485" d="M313 741h-86v643H10v78h522v-78H313V741zm600 0l-221 609h-6l4-201V741h-82v721h125l221-606 224 606h125V741h-86v398l4 207h-7L987 741h-74z"/><glyph unicode="−" d="M111 682v82h948v-82H111z"/><glyph unicode="" horiz-adv-x="1085" d="M0 1085h1085V0H0v1085z"/><glyph horiz-adv-x="1219" d="M0 0z"/></font>
</defs>
</svg>
